osu file format v14

[General]
AudioFilename: audio.mp3
AudioLeadIn: 0
PreviewTime: 92857
Countdown: 1
SampleSet: None
StackLeniency: 0.7
Mode: 0
LetterboxInBreaks: 0
WidescreenStoryboard: 1

[Editor]
Bookmarks: 5612,14795,22142,24438,24591,27040,39285,49081,58877,66224,68673,78469,88265,93163,110306,112755,122551,122857,132346
DistanceSpacing: 1
BeatDivisor: 4
GridSize: 4
TimelineZoom: 2.499999

[Metadata]
Title:Chronostasis
TitleUnicode:Chronostasis
Artist:dialgadu77 / Sayaka
ArtistUnicode:dialgadu77 / 黒皇帝
Creator:Secretpipe
Version:Insane
Source:
Tags:
BeatmapID:1512500
BeatmapSetID:715786

[Difficulty]
HPDrainRate:5.6
CircleSize:4
OverallDifficulty:7.4
ApproachRate:9
SliderMultiplier:1.5
SliderTickRate:1

[Events]
//Background and Video events
0,0,"737831.jpg",0,0
//Break Periods
2,24791,26440
2,68873,77869
2,112954,122257
//Storyboard Layer 0 (Background)
//Storyboard Layer 1 (Fail)
//Storyboard Layer 2 (Pass)
//Storyboard Layer 3 (Foreground)
//Storyboard Sound Samples

[TimingPoints]
5000,306.122448979592,4,2,1,40,1,0
5000,-133.333333333333,4,2,1,40,0,0
22142,-100,4,1,1,40,0,0
27040,-100,4,1,1,40,0,0
29489,-100,4,1,1,40,0,0
49081,-100,4,1,1,40,0,0
58877,-100,4,1,1,40,0,0
78469,-133.333333333333,4,1,1,40,0,0
91173,-133.333333333333,4,2,1,40,0,0
92704,-133.333333333333,4,1,1,40,0,0
93163,-90.9090909090909,4,1,1,40,0,0
122244,-100,4,1,1,40,0,0

[Colours]
Combo1 : 251,172,184
Combo2 : 203,171,239
Combo3 : 176,211,255

[HitObjects]
108,113,5000,6,0,P|97:143|91:173,1,56.2500021457673,2|0,0:0|0:0,0:0:0:0:
188,196,5306,2,0,P|199:226|205:256,1,56.2500021457673,0|0,0:0|0:0,0:0:0:0:
133,320,5612,2,0,L|69:310,3,56.2500021457673,0|0|0|0,0:0|0:0|0:0|0:0,0:0:0:0:
245,348,6224,6,0,L|309:338,3,56.2500021457673,0|0|0|0,0:0|0:0|0:0|0:0,0:0:0:0:
365,265,6836,2,0,P|330:260|306:251,1,56.2500021457673,0|0,0:0|0:0,0:0:0:0:
433,197,7142,2,0,P|468:202|492:211,1,56.2500021457673,0|0,0:0|0:0,0:0:0:0:
336,158,7448,6,0,P|327:125|326:97,3,56.2500021457673,2|0|0|0,0:0|0:0|0:0|0:0,0:0:0:0:
237,49,8061,2,0,P|234:76|226:103,3,56.2500021457673,0|0|0|0,0:0|0:0|0:0|0:0,0:0:0:0:
143,161,8673,6,0,L|80:157,1,56.2500021457673,0|0,0:0|0:0,0:0:0:0:
222,217,8979,2,0,L|285:213,1,56.2500021457673,0|0,0:0|0:0,0:0:0:0:
135,268,9285,2,0,L|72:264,1,56.2500021457673,0|0,0:0|0:0,0:0:0:0:
214,324,9591,2,0,L|277:320,1,56.2500021457673,0|0,0:0|0:0,0:0:0:0:
373,273,9897,6,0,P|399:292|417:312,3,56.2500021457673,2|0|0|0,0:0|0:0|0:0|0:0,0:0:0:0:
322,180,10510,2,0,P|353:172|380:171,3,56.2500021457673,0|0|0|0,0:0|0:0|0:0|0:0,0:0:0:0:
238,247,11122,6,0,L|176:240,1,56.2500021457673,0|0,0:0|0:0,0:0:0:0:
77,224,11428,2,0,L|84:162,1,56.2500021457673,0|0,0:0|0:0,0:0:0:0:
96,71,11734,2,0,L|158:78,1,56.2500021457673,0|0,0:0|0:0,0:0:0:0:
257,94,12040,2,0,L|250:156,1,56.2500021457673,0|0,0:0|0:0,0:0:0:0:
166,237,12346,6,0,P|150:198|144:176,3,56.2500021457673,2|0|0|0,0:0|0:0|0:0|0:0,0:0:0:0:
268,276,12959,2,0,P|259:302|248:328,1,56.2500021457673,0|0,0:0|0:0,0:0:0:0:
129,339,13265,2,0,L|72:331,1,56.2500021457673,0|0,0:0|0:0,0:0:0:0:
30,241,13571,6,0,L|22:177,3,56.2500021457673,0|0|0|0,0:0|0:0|0:0|0:0,0:0:0:0:
131,173,14183,2,0,L|139:109,3,56.2500021457673,0|0|0|0,0:0|0:0|0:0|0:0,0:0:0:0:
216,39,14795,6,0,P|273:33|329:65,1,112.500004291535,6|0,0:0|0:0,0:0:0:0:
357,145,15255,1,0,0:0:0:0:
268,186,15408,2,0,P|256:146|264:113,1,56.2500021457673,0|0,0:0|0:0,0:0:0:0:
349,237,15714,2,0,P|348:264|338:290,1,56.2500021457673,0|0,0:0|0:0,0:0:0:0:
243,331,16020,6,0,L|118:321,1,112.500004291535,0|0,0:0|0:0,0:0:0:0:
50,256,16479,2,0,P|46:220|51:194,1,56.2500021457673,0|0,0:0|0:0,0:0:0:0:
158,131,16785,2,0,P|162:167|157:193,1,56.2500021457673,0|0,0:0|0:0,0:0:0:0:
57,97,17091,1,0,0:0:0:0:
140,32,17244,6,0,P|216:28|261:55,1,112.500004291535,2|0,0:0|0:2,0:0:0:0:
352,88,17704,2,0,P|382:74|401:59,1,56.2500021457673,0|0,0:0|0:0,0:0:0:0:
262,144,18010,2,0,P|259:176|262:200,1,56.2500021457673,0|0,0:0|0:0,0:0:0:0:
346,258,18316,1,0,0:0:0:0:
254,323,18469,6,0,L|136:313,1,112.500004291535,0|0,0:0|0:0,0:0:0:0:
49,235,18928,2,0,L|167:225,1,112.500004291535,0|0,0:0|0:0,0:0:0:0:
263,152,19387,2,0,L|204:147,1,56.2500021457673,0|0,0:0|0:0,0:0:0:0:
328,89,19693,6,0,P|385:88|446:130,1,112.500004291535,2|0,0:0|0:0,0:0:0:0:
471,194,20153,1,0,0:0:0:0:
415,266,20306,2,0,L|429:334,1,56.2500021457673,0|0,0:0|0:0,0:0:0:0:
327,231,20612,2,0,L|338:175,1,56.2500021457673,0|0,0:0|0:0,0:0:0:0:
277,102,20918,2,0,P|270:65|258:41,3,56.2500021457673,0|0|0|0,0:0|0:0|0:0|0:0,0:0:0:0:
207,157,21530,2,0,P|196:182|192:210,3,56.2500021457673,0|0|0|0,0:0|0:0|0:0|0:0,0:0:0:0:
177,76,22142,5,8,0:0:0:0:
30,132,22295,1,12,0:0:0:0:
78,39,22448,1,8,0:0:0:0:
187,75,22602,5,8,0:0:0:0:
21,138,22755,1,12,0:0:0:0:
75,33,22908,1,8,0:0:0:0:
140,173,23061,2,0,L|129:263,1,75,8|8,0:0|0:0,0:0:0:0:
249,214,23367,5,8,0:0:0:0:
289,195,23443,1,8,0:0:0:0:
334,191,23520,1,8,0:0:0:0:
376,203,23596,1,8,0:0:0:0:
411,231,23673,2,0,L|426:271,3,37.5,12|8|8|8,0:0|0:0|0:0|0:0,0:0:0:0:
437,304,23979,1,12,0:0:0:0:
322,348,24132,2,0,L|314:317,4,18.75,8|8|8|0|12,0:0|0:0|0:0|0:0|0:0,0:0:0:0:
216,258,24438,2,0,L|211:276,4,18.75,8|8|8|0|12,0:0|0:0|0:0|0:0|0:0,0:0:0:0:
43,227,27040,5,8,0:0:0:0:
87,121,27193,2,0,P|67:71|44:38,1,75,12|0,0:0|0:0,0:0:0:0:
151,208,27500,5,8,0:0:0:0:
252,156,27653,2,0,P|269:105|272:65,1,75,12|0,0:0|0:0,0:0:0:0:
241,255,27959,5,8,0:0:0:0:
351,280,28112,2,0,P|396:252|424:223,1,75,12|0,0:0|0:0,0:0:0:0:
467,78,28418,5,8,0:0:0:0:
390,126,28571,1,8,0:0:0:0:
320,69,28724,2,0,L|310:40,4,18.75,8|0|8|0|8,0:0|0:0|0:0|0:0|0:0,0:0:0:0:
254,137,29030,2,0,P|256:186|247:214,1,75,8|8,0:0|0:0,0:0:0:0:
177,279,29336,1,8,0:0:0:0:
82,224,29489,6,0,L|71:63,1,150,4|2,0:0|0:0,0:0:0:0:
171,22,29948,1,0,0:0:0:0:
171,22,30025,1,0,0:0:0:0:
171,22,30102,1,0,0:0:0:0:
241,109,30255,1,8,0:0:0:0:
347,73,30408,2,0,P|363:26|362:-8,1,75,2|0,0:0|0:0,0:0:0:0:
241,109,30714,6,0,L|256:202,1,75,8|0,0:0|0:0,0:0:0:0:
192,257,31020,2,0,P|235:276|335:236,1,150,2|0,0:0|0:0,0:0:0:0:
386,148,31479,1,8,0:0:0:0:
462,229,31632,2,0,L|468:317,1,75,2|0,0:0|0:0,0:0:0:0:
386,148,31938,6,0,L|391:73,1,75,8|0,0:0|0:0,0:0:0:0:
297,10,32244,1,2,0:0:0:0:
202,71,32397,1,0,0:0:0:0:
202,71,32474,1,0,0:0:0:0:
202,71,32551,2,0,P|196:129|211:172,1,75,0|8,0:0|0:0,0:0:0:0:
271,226,32857,2,0,L|362:216,1,75,2|0,0:0|0:0,0:0:0:0:
163,246,33163,6,0,B|134:227|93:228|93:228|60:243|38:284,1,150,8|2,0:0|0:0,0:0:0:0:
131,343,33622,1,0,0:0:0:0:
244,319,33775,2,0,L|331:332,1,75,0|8,0:0|0:0,0:0:0:0:
417,233,34081,2,0,L|330:246,1,75,2|0,0:0|0:0,0:0:0:0:
168,136,34387,5,8,0:0:0:0:
274,100,34540,1,0,0:0:0:0:
255,210,34693,1,2,0:0:0:0:
168,136,34846,1,0,0:0:0:0:
274,100,35000,2,0,L|367:113,1,75,0|8,0:0|0:0,0:0:0:0:
441,198,35306,2,0,L|348:211,1,75,2|0,0:0|0:0,0:0:0:0:
283,292,35612,6,0,L|328:299,3,37.5,8|0|0|0,0:0|0:0|0:0|0:0,0:0:0:0:
217,353,35918,2,0,L|172:360,3,37.5,2|0|0|0,0:0|0:0|0:0|0:0,0:0:0:0:
102,322,36224,1,0,0:0:0:0:
78,287,36301,1,0,0:0:0:0:
72,246,36377,1,8,0:0:0:0:
78,205,36454,1,0,0:0:0:0:
96,168,36530,1,2,0:0:0:0:
194,221,36683,1,0,0:0:0:0:
284,154,36836,6,0,P|297:110|293:68,1,75,8|0,0:0|0:0,0:0:0:0:
185,106,37142,1,2,0:0:0:0:
291,254,37295,2,0,B|341:265|341:265|385:252|385:252|448:270,1,150,0|8,0:0|0:0,0:0:0:0:
385,347,37755,1,2,0:0:0:0:
374,358,38061,6,0,P|319:362|294:352,1,75,8|8,0:0|0:0,0:0:0:0:
211,288,38367,2,0,L|126:301,1,75,2|8,0:0|0:0,0:0:0:0:
102,304,38596,2,0,L|86:216,1,75,2|2,0:0|0:0,0:0:0:0:
82,197,38826,1,8,0:0:0:0:
179,134,38979,2,0,L|169:178,3,37.5,2|0|0|0,0:0|0:0|0:0|0:0,0:0:0:0:
185,209,39285,6,0,P|231:222|332:176,1,150,8|2,0:0|0:0,0:0:0:0:
382,93,39744,1,0,0:0:0:0:
439,189,39897,2,0,L|431:253,3,37.5,0|0|8|0,0:0|0:0|0:0|0:0,0:0:0:0:
357,268,40204,2,0,L|365:332,3,37.5,2|0|0|0,0:0|0:0|0:0|0:0,0:0:0:0:
289,358,40510,6,0,L|199:347,1,75,8|0,0:0|0:0,0:0:0:0:
131,263,40816,2,0,L|221:252,1,75,2|0,0:0|0:0,0:0:0:0:
296,189,41122,1,0,0:0:0:0:
315,157,41198,1,0,0:0:0:0:
325,120,41275,1,0,0:0:0:0:
322,82,41352,1,0,0:0:0:0:
310,46,41428,1,2,0:0:0:0:
206,91,41581,1,0,0:0:0:0:
109,33,41734,6,0,P|91:80|95:122,1,75,8|0,0:0|0:0,0:0:0:0:
182,254,42040,2,0,P|179:216|164:182,1,75,2|0,0:0|0:0,0:0:0:0:
53,203,42346,2,0,L|41:284,1,75,0|8,0:0|0:0,0:0:0:0:
115,353,42653,2,0,L|169:342,3,37.5,2|0|0|0,0:0|0:0|0:0|0:0,0:0:0:0:
192,364,42959,6,0,P|261:348|350:363,1,150,8|2,0:0|0:0,0:0:0:0:
435,308,43418,1,0,0:0:0:0:
372,214,43571,2,0,P|367:162|376:128,1,75,0|8,0:0|0:0,0:0:0:0:
476,179,43877,1,2,0:0:0:0:
461,67,44030,1,0,0:0:0:0:
352,37,44183,6,0,L|261:56,1,75,12|8,0:0|0:0,0:0:0:0:
156,111,44489,2,0,L|247:130,1,75,2|8,0:0|0:0,0:0:0:0:
368,177,44795,2,0,L|277:196,1,75,8|8,0:0|0:0,0:0:0:0:
172,251,45101,2,0,L|263:270,1,75,2|0,0:0|0:0,0:0:0:0:
331,334,45408,6,0,L|293:350,3,37.5,12|0|0|0,0:0|0:0|0:0|0:0,0:0:0:0:
221,369,45714,2,0,L|171:360,3,37.5,2|0|0|0,0:0|0:0|0:0|0:0,0:0:0:0:
116,333,46020,2,0,L|96:298,3,37.5,8|0|0|0,0:0|0:0|0:0|0:0,0:0:0:0:
132,227,46326,1,2,0:0:0:0:
140,190,46403,1,0,0:0:0:0:
140,152,46479,1,0,0:0:0:0:
131,115,46556,1,0,0:0:0:0:
114,81,46632,5,12,0:0:0:0:
37,130,46785,2,0,L|32:160,4,18.75,8|0|0|0|2,0:0|0:0|0:0|0:0|0:0,0:0:0:0:
140,190,47091,2,0,L|145:220,4,18.75,0|0|0|0|12,0:0|0:0|0:0|0:0|0:0,0:0:0:0:
223,116,47397,2,0,L|238:142,4,18.75,0|0|0|0|2,0:0|0:0|0:0|0:0|0:0,0:0:0:0:
331,91,47704,2,0,L|354:110,3,18.75,0|0|0|0,0:0|0:0|0:0|0:0,0:0:0:0:
375,124,47857,6,0,P|383:180|376:219,1,75,12|0,0:0|0:0,0:0:0:0:
262,306,48163,2,0,P|260:268|268:232,1,75,6|0,0:0|0:0,0:0:0:0:
176,134,48469,1,8,0:0:0:0:
179,171,48545,1,8,0:0:0:0:
172,208,48622,1,8,0:0:0:0:
152,239,48698,1,8,0:0:0:0:
125,265,48775,1,10,0:0:0:0:
41,189,48928,1,8,0:0:0:0:
12,297,49081,6,0,L|27:375,1,75,2|0,0:2|0:0,0:0:0:0:
140,352,49387,2,0,L|218:337,1,75,8|0,0:0|0:0,0:0:0:0:
250,236,49693,2,0,L|323:250,1,75,8|0,0:0|0:0,0:0:0:0:
437,268,49999,2,0,L|451:194,1,75,8|0,0:0|0:0,0:0:0:0:
329,41,50306,5,2,0:2:0:0:
293,148,50459,1,0,0:0:0:0:
403,127,50612,1,8,0:0:0:0:
299,30,50765,1,0,0:0:0:0:
284,142,50918,1,8,0:0:0:0:
388,100,51071,1,0,0:0:0:0:
194,79,51224,2,0,P|151:93|123:116,1,75,8|8,0:0|0:0,0:0:0:0:
200,192,51530,6,0,P|206:236|165:335,1,150,2|8,0:2|0:0,0:0:0:0:
58,305,51989,2,0,L|40:229,1,75,0|8,0:0|0:0,0:0:0:0:
80,126,52295,1,0,0:0:0:0:
184,166,52448,2,0,P|229:174|276:168,1,75,8|0,0:0|0:0,0:0:0:0:
342,97,52755,5,2,0:2:0:0:
432,163,52908,1,0,0:0:0:0:
349,239,53061,2,0,L|343:326,1,75,8|0,0:0|0:0,0:0:0:0:
243,363,53367,1,8,0:0:0:0:
149,300,53520,1,8,0:0:0:0:
45,344,53673,1,8,0:0:0:0:
23,313,53750,1,8,0:0:0:0:
13,277,53826,1,8,0:0:0:0:
16,239,53903,1,8,0:0:0:0:
30,204,53979,5,2,0:2:0:0:
128,150,54132,1,0,0:0:0:0:
229,197,54285,2,0,L|317:180,1,75,8|0,0:0|0:0,0:0:0:0:
387,108,54591,2,0,L|475:125,1,75,8|0,0:0|0:0,0:0:0:0:
421,289,54897,2,0,P|405:252|407:205,1,75,8|0,0:0|0:0,0:0:0:0:
287,79,55204,6,0,P|249:85|211:81,3,75,2|0|8|0,0:2|0:0|0:0|0:0,0:0:0:0:
125,44,55816,2,0,P|87:38|49:42,3,75,8|0|8|8,0:0|0:0|0:0|0:0,0:0:0:0:
26,141,56428,6,0,L|42:301,1,150,2|8,0:2|0:0,0:0:0:0:
135,351,56887,1,0,0:0:0:0:
228,287,57040,2,0,P|246:237|242:200,1,75,8|0,0:0|0:0,0:0:0:0:
321,132,57346,2,0,P|322:169|338:203,1,75,8|0,0:0|0:0,0:0:0:0:
441,156,57653,6,0,P|460:113|441:9,1,150,8|8,0:0|0:0,0:0:0:0:
345,67,58112,1,0,0:0:0:0:
238,29,58265,2,0,L|160:42,1,75,8|8,0:0|0:0,0:0:0:0:
70,103,58571,1,8,0:0:0:0:
79,139,58647,1,8,0:0:0:0:
84,176,58724,1,8,0:0:0:0:
84,213,58801,1,8,0:0:0:0:
75,253,58877,5,12,0:0:0:0:
148,338,59030,1,0,0:0:0:0:
249,288,59183,2,0,P|260:241|252:187,1,75,2|0,0:0|0:0,0:0:0:0:
353,105,59489,2,0,P|347:148|360:186,1,75,8|0,0:0|0:0,0:0:0:0:
416,291,59795,2,0,L|317:280,1,75,2|0,0:0|0:0,0:0:0:0:
259,119,60102,6,0,P|220:100|114:133,1,150,8|2,0:0|0:0,0:0:0:0:
97,221,60561,1,0,0:0:0:0:
186,269,60714,2,0,P|200:222|192:179,1,75,8|0,0:0|0:0,0:0:0:0:
102,312,61020,2,0,P|100:349|113:384,1,75,2|8,0:0|0:0,0:0:0:0:
225,375,61326,6,0,L|392:357,1,150,8|2,0:0|0:0,0:0:0:0:
469,299,61785,1,0,0:0:0:0:
367,251,61938,2,0,P|357:201|361:153,1,75,8|0,0:0|0:0,0:0:0:0:
467,154,62244,2,0,P|477:104|473:56,1,75,2|0,0:0|0:0,0:0:0:0:
373,33,62551,2,0,L|289:45,3,75,8|0|2|0,0:0|0:0|0:0|0:0,0:0:0:0:
179,121,63163,2,0,L|263:133,1,75,8|8,0:0|0:0,0:0:0:0:
356,155,63469,2,0,L|365:196,4,37.5,10|8|8|8|12,0:0|0:0|0:0|0:0|0:0,0:0:0:0:
272,225,63928,5,0,0:0:0:0:
272,225,64005,1,8,0:0:0:0:
272,225,64081,2,0,L|261:322,1,75,2|8,0:0|0:0,0:0:0:0:
146,335,64387,2,0,L|67:276,1,75,0|0,0:0|0:0,0:0:0:0:
108,175,64693,2,0,L|197:136,1,75,2|0,0:0|0:0,0:0:0:0:
267,85,65000,6,0,P|317:110|423:95,1,150,12|2,0:0|0:0,0:0:0:0:
495,167,65459,2,0,L|482:256,1,75,8|0,0:0|0:0,0:0:0:0:
453,257,65688,2,0,L|440:346,1,75,8|0,0:0|0:0,0:0:0:0:
412,360,65918,1,2,0:0:0:0:
323,290,66071,1,0,0:0:0:0:
227,348,66224,6,0,L|101:331,1,112.5,12|8,0:0|0:0,0:0:0:0:
81,328,66530,2,0,P|70:278|81:238,1,75,2|8,0:0|0:0,0:0:0:0:
210,239,66836,2,0,L|336:222,1,112.5,12|8,0:0|0:0,0:0:0:0:
356,219,67142,2,0,P|367:169|356:129,1,75,2|8,0:0|0:0,0:0:0:0:
294,67,67448,6,0,L|246:68,3,37.5,12|0|0|0,0:0|0:0|0:0|0:0,0:0:0:0:
196,110,67755,2,0,L|148:111,3,37.5,14|0|0|0,0:0|0:0|0:0|0:0,0:0:0:0:
99,160,68061,2,0,L|51:161,3,37.5,12|0|0|0,0:0|0:0|0:0|0:0,0:0:0:0:
161,207,68367,1,14,0:0:0:0:
197,212,68443,1,0,0:0:0:0:
234,217,68520,1,0,0:0:0:0:
270,222,68596,1,0,0:0:0:0:
307,227,68673,5,4,0:0:0:0:
95,128,78469,6,0,L|84:243,1,112.500004291535,8|8,0:0|0:0,0:0:0:0:
84,239,79081,2,0,P|161:241|211:267,1,112.500004291535,2|8,0:0|0:0,0:0:0:0:
253,312,79540,1,2,0:0:0:0:
322,263,79693,6,0,L|333:203,1,56.2500021457673,8|2,0:0|0:0,0:0:0:0:
290,133,80000,1,8,0:0:0:0:
290,133,80153,1,8,0:0:0:0:
217,176,80306,2,0,P|176:183|157:180,1,56.2500021457673,2|0,0:0|0:0,0:0:0:0:
154,96,80612,2,0,P|195:89|214:92,1,56.2500021457673,2|8,0:0|0:0,0:0:0:0:
290,133,80918,6,0,P|364:131|414:104,1,112.500004291535,8|8,0:0|0:0,0:0:0:0:
481,164,81377,2,0,L|491:197,1,28.1250010728836,6|0,0:0|0:0,0:0:0:0:
363,233,81683,2,0,L|373:266,1,28.1250010728836,6|0,0:0|0:0,0:0:0:0:
248,292,81989,2,0,L|258:325,1,28.1250010728836,6|0,0:0|0:0,0:0:0:0:
262,349,82142,1,8,0:0:0:0:
88,228,82448,6,0,P|81:186|85:152,1,56.2500021457673,8|8,0:0|0:0,0:0:0:0:
156,115,82755,2,0,P|197:127|278:96,1,112.500004291535,2|2,0:0|0:0,0:0:0:0:
325,52,83214,1,8,0:0:0:0:
388,107,83367,6,0,L|396:166,1,56.2500021457673,8|8,0:0|0:0,0:0:0:0:
326,211,83673,2,0,L|318:270,1,56.2500021457673,8|8,0:0|0:0,0:0:0:0:
235,219,83979,2,0,L|227:160,1,56.2500021457673,8|8,0:0|0:0,0:0:0:0:
297,115,84285,2,0,L|305:56,1,56.2500021457673,8|8,0:0|0:0,0:0:0:0:
232,14,84591,5,8,0:0:0:0:
159,56,84744,1,8,0:0:0:0:
75,45,84897,2,0,P|43:31|25:15,1,56.2500021457673,8|8,0:0|0:0,0:0:0:0:
106,128,85204,2,0,P|138:142|156:158,1,56.2500021457673,8|8,0:0|0:0,0:0:0:0:
23,223,85510,2,0,L|20:152,1,56.2500021457673,8|8,0:0|0:0,0:0:0:0:
122,243,85816,6,0,L|131:280,3,28.1250010728836,8|8|8|8,0:0|0:0|0:0|0:0,0:0:0:0:
193,315,86122,2,0,L|230:323,3,28.1250010728836,8|8|8|8,0:0|0:0|0:0|0:0,0:0:0:0:
296,297,86428,2,0,L|331:284,3,28.1250010728836,8|0|8|0,0:0|0:0|0:0|0:0,0:0:0:0:
396,308,86734,2,0,L|435:318,3,28.1250010728836,8|0|8|0,0:0|0:0|0:0|0:0,0:0:0:0:
494,273,87040,5,8,0:0:0:0:
429,219,87193,2,0,L|425:197,4,14.0625005364418,8|0|8|0|8,0:0|0:0|0:0|0:0|0:0,0:0:0:0:
344,159,87500,2,0,L|341:172,4,14.0625005364418,8|0|8|0|8,0:0|0:0|0:0|0:0|0:0,0:0:0:0:
263,229,87806,2,0,L|259:207,4,14.0625005364418,8|0|8|0|8,0:0|0:0|0:0|0:0|0:0,0:0:0:0:
178,169,88113,2,0,L|175:182,4,14.0625005364418,8|0|0|0|0,0:0|0:0|0:0|0:0|0:0,0:0:0:0:
256,192,88303,12,2,92857,0:0:0:0:
141,83,93163,6,0,L|100:81,3,41.2500012588501,8|0|0|0,0:0|0:0|0:0|0:0,0:0:0:0:
45,140,93469,2,0,L|43:181,3,41.2500012588501,2|0|0|0,0:0|0:0|0:0|0:0,0:0:0:0:
89,243,93775,2,0,P|138:250|177:238,1,82.5000025177003,0|8,0:0|0:0,0:0:0:0:
263,176,94081,2,0,P|303:168|343:177,1,82.5000025177003,2|0,0:0|0:0,0:0:0:0:
427,255,94387,6,0,P|452:202|421:97,1,165.000005035401,8|2,0:0|0:0,0:0:0:0:
315,68,94846,1,0,0:0:0:0:
315,68,94923,1,0,0:0:0:0:
315,68,95000,2,0,L|300:157,1,82.5000025177003,0|8,0:0|0:0,0:0:0:0:
213,215,95306,2,0,L|199:133,1,82.5000025177003,2|0,0:0|0:0,0:0:0:0:
103,69,95612,6,0,L|76:237,1,165.000005035401,8|2,0:0|0:0,0:0:0:0:
154,317,96071,1,0,0:0:0:0:
246,248,96224,2,0,L|289:238,3,41.2500012588501,0|0|8|0,0:0|0:0|0:0|0:0,0:0:0:0:
349,280,96530,2,0,L|389:289,3,41.2500012588501,2|0|0|0,0:0|0:0|0:0|0:0,0:0:0:0:
456,251,96836,6,0,P|471:202|470:159,1,82.5000025177003,8|0,0:0|0:0,0:0:0:0:
365,61,97142,2,0,P|350:110|351:153,1,82.5000025177003,2|0,0:0|0:0,0:0:0:0:
244,271,97448,2,0,P|259:222|258:179,1,82.5000025177003,0|8,0:0|0:0,0:0:0:0:
153,81,97754,2,0,P|138:130|139:173,1,82.5000025177003,2|0,0:0|0:0,0:0:0:0:
62,274,98061,6,0,P|67:225|29:108,1,165.000005035401,8|2,0:0|0:0,0:0:0:0:
70,24,98520,1,0,0:0:0:0:
153,81,98673,2,0,P|211:90|243:83,1,82.5000025177003,0|8,0:0|0:0,0:0:0:0:
317,33,98979,2,0,P|375:24|407:31,1,82.5000025177003,2|0,0:0|0:0,0:0:0:0:
482,106,99285,5,8,0:0:0:0:
391,178,99438,1,0,0:0:0:0:
485,244,99591,2,0,L|466:336,1,82.5000025177003,2|0,0:0|0:0,0:0:0:0:
391,178,99897,2,0,L|374:97,1,82.5000025177003,0|8,0:0|0:0,0:0:0:0:
329,270,100204,2,0,P|281:277|236:264,1,82.5000025177003,2|0,0:0|0:0,0:0:0:0:
175,187,100510,2,0,L|167:142,3,41.2500012588501,8|0|0|0,0:0|0:0|0:0|0:0,0:0:0:0:
101,111,100816,2,0,L|56:119,3,41.2500012588501,2|0|0|0,0:0|0:0|0:0|0:0,0:0:0:0:
24,183,101122,2,0,L|32:228,3,41.2500012588501,0|0|8|0,0:0|0:0|0:0|0:0,0:0:0:0:
98,259,101428,2,0,L|143:251,3,41.2500012588501,2|0|0|0,0:0|0:0|0:0|0:0,0:0:0:0:
215,260,101734,6,0,P|259:272|291:294,1,82.5000025177003,8|8,0:0|0:0,0:0:0:0:
379,245,102040,2,0,L|401:149,1,82.5000025177003,2|8,0:0|0:0,0:0:0:0:
426,169,102270,2,0,L|448:73,1,82.5000025177003,2|2,0:0|0:0,0:0:0:0:
421,59,102500,1,8,0:0:0:0:
313,36,102653,1,8,0:0:0:0:
304,75,102729,1,8,0:0:0:0:
294,115,102806,1,8,0:0:0:0:
285,155,102882,1,8,0:0:0:0:
276,195,102959,5,12,0:0:0:0:
185,137,103112,1,0,0:0:0:0:
96,198,103265,2,0,P|89:248|102:297,1,82.5000025177003,2|0,0:0|0:0,0:0:0:0:
209,363,103571,2,0,P|216:313|203:264,1,82.5000025177003,0|8,0:0|0:0,0:0:0:0:
276,195,103877,2,0,P|351:192|366:200,1,82.5000025177003,2|0,0:0|0:0,0:0:0:0:
440,263,104183,6,0,L|448:311,3,41.2500012588501,8|0|0|0,0:0|0:0|0:0|0:0,0:0:0:0:
379,349,104489,2,0,L|335:342,3,41.2500012588501,2|0|0|0,0:0|0:0|0:0|0:0,0:0:0:0:
270,299,104795,2,0,L|225:309,3,41.2500012588501,0|0|8|0,0:0|0:0|0:0|0:0,0:0:0:0:
161,353,105102,1,2,0:0:0:0:
121,363,105178,1,0,0:0:0:0:
79,358,105255,1,0,0:0:0:0:
44,336,105331,1,0,0:0:0:0:
22,299,105408,6,0,P|13:254|22:216,1,82.5000025177003,8|0,0:0|0:0,0:0:0:0:
99,158,105714,2,0,L|184:144,1,82.5000025177003,2|0,0:0|0:0,0:0:0:0:
251,219,106020,2,0,L|332:205,1,82.5000025177003,0|8,0:0|0:0,0:0:0:0:
410,144,106326,2,0,P|417:103|408:63,1,82.5000025177003,2|0,0:0|0:0,0:0:0:0:
288,136,106632,6,0,L|304:320,1,165.000005035401,8|2,0:0|0:0,0:0:0:0:
383,356,107091,1,0,0:0:0:0:
466,302,107244,2,0,P|478:257|476:210,1,82.5000025177003,0|8,0:0|0:0,0:0:0:0:
417,141,107551,1,2,0:0:0:0:
332,193,107704,1,2,0:0:0:0:
332,193,107780,1,2,0:0:0:0:
332,193,107857,6,0,P|276:205|177:147,1,165.000005035401,12|2,0:0|0:0,0:0:0:0:
125,77,108316,1,0,0:0:0:0:
84,167,108469,2,0,L|77:259,1,82.5000025177003,8|0,0:0|0:0,0:0:0:0:
167,255,108775,2,0,L|160:347,1,82.5000025177003,2|0,0:0|0:0,0:0:0:0:
256,363,109081,6,0,B|314:354|314:354|363:368|363:368|419:356,1,165.000005035401,12|2,0:0|0:0,0:0:0:0:
495,295,109540,1,0,0:0:0:0:
409,245,109693,2,0,P|387:193|385:161,1,82.5000025177003,8|0,0:0|0:0,0:0:0:0:
392,136,109923,1,8,0:0:0:0:
392,136,110000,1,2,0:0:0:0:
468,72,110153,1,8,0:0:0:0:
375,40,110306,6,0,L|331:31,3,41.2500012588501,12|0|0|0,0:0|0:0|0:0|0:0,0:0:0:0:
277,75,110612,2,0,L|233:66,3,41.2500012588501,2|0|0|0,0:0|0:0|0:0|0:0,0:0:0:0:
174,106,110918,2,0,L|130:97,3,41.2500012588501,12|0|0|0,0:0|0:0|0:0|0:0,0:0:0:0:
75,144,111224,2,0,L|31:135,3,41.2500012588501,2|0|0|0,0:0|0:0|0:0|0:0,0:0:0:0:
1,128,111530,5,12,0:0:0:0:
24,225,111683,2,0,L|28:251,4,20.6250006294251,0|0|0|0|6,0:0|0:0|0:0|0:0|0:0,0:0:0:0:
132,293,111989,2,0,L|135:272,4,20.6250006294251,0|0|0|0|12,0:0|0:0|0:0|0:0|0:0,0:0:0:0:
222,199,112295,2,0,L|226:225,4,20.6250006294251,0|0|0|0|6,0:0|0:0|0:0|0:0|0:0,0:0:0:0:
330,267,112601,2,0,L|333:246,4,20.6250006294251,0|0|0|0|0,0:0|0:0|0:0|0:0|0:0,0:0:0:0:
97,103,122857,6,0,L|90:187,1,75,6|0,0:0|0:0,0:0:0:0:
196,264,123163,2,0,L|189:189,1,75,8|0,0:0|0:0,0:0:0:0:
249,108,123469,2,0,P|295:108|338:121,1,75,2|0,0:0|0:0,0:0:0:0:
404,180,123775,6,0,L|416:341,1,150,8|2,0:0|0:0,0:0:0:0:
321,376,124234,1,0,0:0:0:0:
242,306,124387,2,0,P|228:262|230:225,1,75,8|0,0:0|0:0,0:0:0:0:
143,159,124693,2,0,P|142:196|129:231,1,75,2|8,0:0|0:0,0:0:0:0:
89,87,125000,6,0,P|162:70|220:112,1,150,8|2,0:0|0:0,0:0:0:0:
252,210,125459,1,0,0:0:0:0:
338,151,125612,2,0,L|344:104,3,37.5,8|0|0|0,0:0|0:0|0:0|0:0,0:0:0:0:
406,72,125918,2,0,L|400:25,3,37.5,2|0|0|0,0:0|0:0|0:0|0:0,0:0:0:0:
326,15,126224,6,0,L|157:29,1,150,8|2,0:0|0:0,0:0:0:0:
93,91,126683,1,0,0:0:0:0:
179,150,126836,2,0,P|186:194|159:265,1,112.5,8|8,0:0|0:0,0:0:0:0:
139,280,127142,1,2,0:0:0:0:
210,356,127295,1,2,0:0:0:0:
210,356,127372,1,2,0:0:0:0:
210,356,127448,5,12,0:0:0:0:
286,283,127602,1,8,0:0:0:0:
380,328,127755,2,0,P|410:284|420:251,1,75,2|8,0:0|0:0,0:0:0:0:
340,192,128061,1,8,0:0:0:0:
286,283,128214,1,8,0:0:0:0:
198,224,128367,2,0,P|176:181|169:148,1,75,2|8,0:0|0:0,0:0:0:0:
239,77,128673,6,0,L|320:81,1,75,12|8,0:0|0:0,0:0:0:0:
448,148,128979,2,0,L|367:152,1,75,2|8,0:0|0:0,0:0:0:0:
243,215,129285,2,0,L|324:219,1,75,8|8,0:0|0:0,0:0:0:0:
452,286,129591,2,0,L|371:290,1,75,2|8,0:0|0:0,0:0:0:0:
289,343,129897,5,12,0:0:0:0:
254,326,129974,1,0,0:0:0:0:
216,318,130051,1,0,0:0:0:0:
178,315,130127,1,0,0:0:0:0:
140,322,130204,2,0,L|99:338,3,37.5,2|0|0|0,0:0|0:0|0:0|0:0,0:0:0:0:
68,316,130510,5,12,0:0:0:0:
84,282,130586,1,0,0:0:0:0:
91,245,130663,1,0,0:0:0:0:
89,207,130739,1,0,0:0:0:0:
83,169,130816,2,0,L|74:128,3,37.5,6|0|0|0,0:0|0:0|0:0|0:0,0:0:0:0:
60,97,131122,5,12,0:0:0:0:
146,43,131275,2,0,L|168:38,4,18.75,0|0|0|0|6,0:0|0:0|0:0|0:0|0:0,0:0:0:0:
206,135,131581,2,0,L|228:140,4,18.75,0|0|0|0|12,0:0|0:0|0:0|0:0|0:0,0:0:0:0:
286,47,131887,2,0,L|308:42,4,18.75,0|0|0|0|0,0:0|0:0|0:0|0:0|0:0,0:0:0:0:
346,139,132193,6,0,L|368:144,4,18.75,0|0|0|0|4,0:0|0:0|0:0|0:0|0:0,0:0:0:0:
