osu file format v5

[General]
AudioFilename: 01 - Highway Star.mp3
AudioLeadIn: 0
PreviewTime: -1
Countdown: 2
SampleSet: None
StackLeniency: 0.7
Mode: 1
LetterboxInBreaks: 1
SkinPreference:EliteBeatOsu

[Metadata]
Title:TAGHighway Star
Artist:deep
Creator:matt10833
Version:Normal
Source:
Tags:

[Difficulty]
HPDrainRate:5
CircleSize:5
OverallDifficulty:5
SliderMultiplier:1.6
SliderTickRate:1

[Events]
//Background and Video events
//Break Periods
2,133512,163260
2,354213,361900
//Storyboard Layer 0 (Background)
//Storyboard Layer 1 (Failing)
//Storyboard Layer 2 (Passing)
//Storyboard Layer 3 (Foreground)
//Storyboard Sound Samples
//Background Colour Transformations
3,100,0,0,0

[TimingPoints]
0,600,4,0,0,100,1

[Colours]
Combo1 : 255,150,0
Combo2 : 5,240,5
Combo3 : 5,5,240
Combo4 : 240,5,5

[HitObjects]
211,184,998,1,0
211,184,2622,1,0
210,186,3995,1,0
210,186,5494,1,0
210,186,6868,1,0
210,186,8366,1,0
210,186,9740,1,0
210,186,11238,1,0
210,186,12737,1,0
210,186,13111,1,0
210,186,13361,1,0
210,186,13736,1,0
287,186,14110,1,0
371,177,14485,1,0
364,100,14860,1,0
289,97,15109,1,0
227,116,15484,1,0
157,117,15859,1,0
139,137,16233,1,0
114,183,16483,1,0
119,234,16858,1,0
252,254,17232,1,0
251,140,17607,1,0
153,151,17857,1,0
167,246,18356,1,0
138,349,18731,1,0
310,313,18980,1,0
262,200,19355,1,0
172,107,19730,1,0
333,60,20104,1,0
381,127,20479,1,0
318,248,20729,1,0
64,299,21103,1,0
47,141,21478,1,0
114,69,21853,1,0
177,147,22227,1,0
109,209,22477,1,0
135,291,22852,1,0
218,293,23226,1,0
288,211,23601,1,0
250,132,23975,1,0
137,111,24350,1,0
40,156,24725,1,0
60,232,24974,1,0
170,231,25349,1,0
216,167,25724,1,0
254,107,26098,1,0
336,125,26473,1,0
353,215,26848,1,0
299,247,27222,1,0
193,256,27472,1,0
97,224,27971,1,0
74,162,28221,1,0
67,89,28596,1,0
117,61,28970,1,0
206,117,29220,1,0
143,246,29595,1,0
32,279,29969,1,0
77,340,30344,1,0
270,161,30719,1,0
85,112,35214,1,0
174,110,35589,1,0
280,107,35963,1,0
360,107,36338,1,0
425,145,36713,1,0
394,224,37087,1,0
271,235,37337,1,0
169,280,37712,1,0
85,221,38086,1,0
157,152,38336,1,0
172,84,38711,1,0
356,280,39210,1,0
182,308,39460,1,0
52,306,39835,1,0
149,94,40209,1,0
262,217,40584,1,0
112,254,40958,1,0
23,196,41208,1,0
109,311,41583,1,0
324,120,41957,1,0
446,76,42332,1,0
411,199,42582,1,0
268,264,42956,1,0
128,234,43331,1,0
67,131,43706,1,0
189,78,44080,1,0
270,186,44330,1,0
166,256,44705,1,0
78,314,45079,1,0
92,171,45454,1,0
201,106,45704,1,0
340,104,46078,1,0
408,222,46453,1,0
287,296,46828,1,0
129,244,47202,1,0
121,143,47577,1,0
206,100,47827,1,0
336,140,48201,1,0
308,226,48576,1,0
246,251,48950,1,0
152,262,49200,1,0
92,181,49575,1,0
129,139,49949,1,0
251,171,50324,1,0
251,171,50449,1,0
254,250,51073,1,0
146,262,51323,1,0
114,150,51698,1,0
206,87,52072,1,0
259,168,52322,1,0
170,211,52697,1,0
186,266,53071,1,0
328,283,53446,1,0
424,217,53821,1,0
391,142,54195,1,0
338,90,54570,1,0
207,45,54820,1,0
125,71,55194,1,0
84,99,55444,1,0
74,165,55819,1,0
230,159,56318,1,0
230,159,56568,1,0
230,159,56942,1,0
230,159,57317,1,0
173,99,57442,1,0
173,99,57567,1,0
95,169,58691,1,0
95,169,58816,1,0
304,122,60064,1,0
227,182,61438,1,0
227,182,61563,1,0
137,202,62062,1,0
137,202,62187,1,0
82,139,62812,1,0
82,139,62936,1,0
200,119,63436,1,0
200,119,63561,1,0
233,193,64310,1,0
127,209,65059,1,0
166,120,65809,1,0
279,120,66308,1,0
184,214,67057,1,0
378,267,67682,1,0
127,159,68556,1,0
236,136,69055,1,0
358,131,69805,1,0
367,210,70429,1,0
256,192,75424,5,0
256,192,71053,12,0,75467
203,186,76173,1,0
129,112,76922,1,0
129,112,77422,1,0
129,112,77672,1,0
129,112,78046,1,0
261,138,78421,1,0
216,206,78671,1,0
115,232,79045,1,0
142,308,79295,1,0
274,286,79795,1,0
295,184,80044,1,0
200,138,80419,1,0
200,138,80669,1,0
81,206,81168,1,0
200,138,81668,1,0
204,256,82167,1,0
204,256,82167,1,0
158,257,82542,1,0
61,236,82916,1,0
49,177,83166,1,0
84,116,83541,1,0
190,152,83915,1,0
254,258,84290,1,0
126,243,84665,1,0
268,102,84914,1,0
232,103,85289,1,0
137,107,85539,1,0
63,144,86038,1,0
101,219,86163,1,0
237,212,87537,1,0
237,212,87787,1,0
126,190,88036,1,0
45,187,88411,1,0
27,274,88786,1,0
121,279,89035,1,0
134,164,89410,1,0
186,119,89785,1,0
261,83,90159,1,0
376,134,90534,1,0
368,239,90784,1,0
222,252,91283,5,0
101,257,91533,1,0
42,164,91783,1,0
116,104,92157,1,0
221,166,92532,1,0
199,210,92906,1,0
130,251,93156,1,0
212,103,93531,1,0
146,132,93905,1,0
92,182,94280,1,0
74,235,94655,1,0
166,261,94904,1,0
222,195,95279,1,0
298,157,95654,1,0
324,249,96028,1,0
262,253,96278,1,0
164,204,96653,1,0
101,65,97402,1,0
75,187,97652,1,0
119,289,98026,1,0
154,285,98276,1,0
231,261,98651,1,0
231,261,98776,1,0
219,179,99150,1,0
145,174,99525,1,0
68,195,99899,1,0
86,277,100274,1,0
86,277,100399,1,0
194,262,100649,1,0
194,262,100898,1,0
263,237,101273,1,0
201,166,101648,1,0
201,166,101773,1,0
127,165,102147,1,0
28,186,102647,1,0
70,276,103021,1,0
70,276,103146,1,0
169,276,103521,1,0
169,276,103646,1,0
245,241,104145,1,0
245,241,104270,1,0
174,179,104770,1,0
121,154,105269,1,0
72,209,105519,1,0
141,260,105893,1,0
252,213,106268,1,0
281,147,106643,1,0
199,118,106892,1,0
97,115,107267,1,0
75,171,107642,1,0
107,240,108016,1,0
212,253,108266,1,0
212,253,108766,1,0
245,131,109140,1,0
91,116,109765,1,0
87,190,110514,1,0
286,219,111263,1,0
211,286,111887,1,0
256,69,112512,1,0
256,69,113011,1,0
256,69,113261,1,0
256,69,113636,1,0
256,69,114010,1,0
256,69,114385,1,0
256,69,114635,1,0
256,69,115134,1,0
256,69,115384,1,0
256,69,115759,1,0
256,69,116133,1,0
256,69,116508,1,0
256,69,116882,1,0
256,69,117132,1,0
256,69,117507,1,0
256,69,117881,1,0
256,192,118256,12,0,133312
256,192,133616,12,0,163350
96,104,164460,5,0
96,104,164834,1,0
96,104,165084,1,0
96,104,165459,1,0
213,144,165833,1,0
129,196,166208,1,0
72,251,166583,1,0
114,313,166957,1,0
231,277,167207,1,0
269,219,167582,1,0
183,174,167956,1,0
84,144,168331,1,0
47,234,168581,1,0
86,90,168706,2,0,B|149:92|143:93,51,58.1366493962705
144,182,185938,1,0
144,182,186188,1,0
144,182,186563,1,0
144,182,186812,1,0
144,182,187187,1,0
144,182,187562,1,0
144,182,187936,1,0
127,256,188186,1,0
87,283,188561,1,0
301,165,188935,1,0
224,180,189310,1,0
161,209,189560,1,0
70,166,189934,1,0
121,96,190309,1,0
229,112,190559,1,0
221,211,190933,1,0
144,247,191308,1,0
47,219,191683,1,0
81,137,192057,1,0
176,126,192307,1,0
174,177,192682,1,0
304,200,192931,1,0
227,212,193431,1,0
174,246,193805,1,0
101,233,194055,1,0
101,162,194430,1,0
149,144,194555,1,0
226,129,195054,1,0
224,197,195554,1,0
182,243,196053,1,0
182,243,196178,1,0
107,241,196553,1,0
84,152,196802,1,0
151,99,197177,1,0
187,180,197552,1,0
152,232,197926,1,0
135,270,198301,1,0
135,270,198426,1,0
61,222,198800,1,0
61,222,198925,1,0
105,137,199300,1,0
170,142,199675,1,0
192,218,200049,1,0
162,272,200299,1,0
162,272,200424,1,0
49,265,200923,1,0
72,209,201298,1,0
152,181,201673,1,0
236,227,202047,1,0
201,281,202422,1,0
169,286,202796,1,0
341,140,203046,1,0
281,140,203421,1,0
221,169,203795,1,0
187,212,204045,1,0
146,224,204420,1,0
158,158,204794,1,0
211,191,205169,1,0
239,239,205419,1,0
154,272,205793,1,0
297,266,206168,1,0
304,231,206543,1,0
300,175,206668,1,0
219,174,207042,1,0
219,174,207292,1,0
162,194,207667,1,0
147,242,208041,1,0
113,282,208416,1,0
232,282,208666,1,0
269,243,209165,1,0
269,243,209290,1,0
251,165,209789,1,0
199,167,210164,1,0
144,201,210539,1,0
144,201,210664,1,0
154,252,211163,1,0
212,269,211538,1,0
282,239,211787,1,0
282,239,212037,1,0
262,167,212537,1,0
262,167,212662,1,0
156,182,213161,1,0
156,182,213286,1,0
152,236,213785,1,0
152,236,213910,1,0
241,244,214410,1,0
241,244,214535,1,0
231,138,214784,1,0
132,188,215409,1,0
262,208,216158,1,0
164,262,216782,1,0
301,275,217532,1,0
226,162,218281,1,0
341,140,218905,1,0
146,103,219655,1,0
129,191,220279,1,0
256,184,221028,1,0
256,184,221403,1,0
256,184,221653,1,0
256,184,222152,1,0
256,184,222527,1,0
256,184,222776,1,0
256,184,223151,1,0
256,184,223526,1,0
256,184,223900,1,0
256,184,224275,1,0
256,184,224525,1,0
256,184,224899,1,0
256,184,225274,1,0
256,184,225649,1,0
256,184,226023,1,0
256,184,226398,1,0
256,184,226772,1,0
256,184,227147,1,0
256,184,227522,1,0
256,184,228021,1,0
256,184,228271,1,0
256,184,228646,1,0
256,184,229020,1,0
256,184,229645,1,0
256,184,230394,1,0
256,184,231018,1,0
256,184,231767,1,0
256,184,232517,1,0
256,184,233141,1,0
256,184,233890,1,0
256,184,234515,1,0
256,184,235139,1,0
256,184,235888,1,0
256,184,236513,1,0
256,184,237262,1,0
256,184,237886,1,0
256,184,238636,1,0
256,184,239385,1,0
256,184,240134,1,0
256,184,240883,1,0
256,184,241757,1,0
256,184,242632,1,0
256,184,243256,1,0
256,184,244005,1,0
256,184,244630,1,0
183,215,245254,1,0
90,278,245629,1,0
86,144,246003,1,0
259,132,246503,1,0
324,234,247002,1,0
226,266,247502,1,0
115,227,247876,1,0
122,177,248251,1,0
358,153,248501,1,0
272,216,249125,1,0
194,230,249500,1,0
212,194,249999,1,0
256,100,250374,1,0
334,160,250873,1,0
267,242,251248,1,0
128,177,251747,1,0
192,47,252122,1,0
187,239,252746,1,0
149,328,253121,1,0
323,239,253496,1,0
137,187,254120,1,0
331,95,254620,1,0
145,102,254994,1,0
217,221,255494,1,0
126,282,255868,1,0
305,267,256243,1,0
241,145,256992,1,0
309,143,257741,1,0
178,242,258366,1,0
300,256,258990,1,0
349,227,259739,1,0
242,172,260114,1,0
131,174,260489,1,0
109,263,260988,1,0
220,176,261488,1,0
251,101,261862,1,0
371,134,262362,1,0
315,217,262861,1,0
217,252,263236,1,0
131,199,263735,1,0
207,119,264235,1,0
207,119,264610,1,0
274,193,264859,1,0
263,217,265234,1,0
225,255,265609,1,0
370,121,265983,1,0
249,164,266608,1,0
140,165,267107,1,0
130,226,267482,1,0
259,227,268106,1,0
259,227,268855,1,0
261,97,269480,1,0
47,193,270104,1,0
404,194,270853,1,0
384,95,271228,1,0
263,178,271603,1,0
227,266,271977,1,0
66,209,272227,1,0
113,101,272602,1,0
383,275,272976,1,0
274,192,273226,1,0
173,121,273601,1,0
116,152,273975,1,0
120,249,274225,1,0
367,102,274724,1,0
367,102,274974,1,0
367,102,275349,1,0
367,102,275723,1,0
169,158,276098,1,0
169,158,276473,1,0
117,253,276722,1,0
259,284,277097,1,0
313,204,277472,1,0
258,104,277721,1,0
166,162,278096,1,0
231,250,278471,1,0
149,276,278845,1,0
83,190,279220,1,0
83,190,279595,1,0
83,190,279844,1,0
83,190,280219,1,0
83,190,280594,1,0
200,135,280843,1,0
200,135,281218,1,0
200,135,281593,1,0
200,135,281842,1,0
200,135,282217,1,0
200,135,282592,1,0
200,135,282966,1,0
200,135,283341,1,0
200,135,283715,1,0
200,135,283965,1,0
200,135,284340,1,0
200,135,284714,1,0
200,135,285089,1,0
200,135,285464,1,0
200,135,285713,1,0
200,135,286088,1,0
200,135,286463,1,0
200,135,286712,1,0
200,135,287087,1,0
200,135,287462,1,0
102,214,287836,1,0
102,214,288211,1,0
102,214,288461,1,0
102,214,288835,1,0
102,214,289210,1,0
102,214,289460,1,0
102,214,289834,1,0
102,214,290209,1,0
102,214,290708,1,0
102,214,291083,1,0
102,214,291458,1,0
102,214,291832,1,0
102,214,292332,1,0
102,214,292706,1,0
102,214,293081,1,0
102,214,293456,1,0
389,90,293705,1,0
389,90,294080,1,0
389,90,294455,1,0
389,90,294704,1,0
389,90,295079,1,0
389,90,295454,1,0
389,90,295828,1,0
389,90,296203,1,0
389,90,296453,1,0
389,90,296827,1,0
389,90,297077,1,0
389,90,297452,1,0
389,90,297826,1,0
389,90,298201,1,0
389,90,298576,1,0
389,90,299325,1,0
271,214,299699,1,0
177,267,299949,1,0
28,160,300324,1,0
161,67,300574,1,0
250,166,300948,1,0
161,244,301323,1,0
126,304,301573,1,0
356,169,302322,1,0
294,102,302696,1,0
159,161,302946,1,0
237,282,303321,1,0
292,167,303695,1,0
159,161,304070,1,0
217,122,304819,1,0
217,122,305693,1,0
100,190,305943,1,0
102,265,306318,1,0
207,289,306568,1,0
311,234,306942,1,0
306,161,307192,1,0
176,152,307691,1,0
306,161,307941,1,0
306,161,308316,1,0
306,161,308690,1,0
306,161,308940,1,0
306,161,309315,1,0
114,76,309689,2,0,B|319:75,1,202.952419757843
199,152,311438,1,0
155,209,311687,1,0
311,174,312062,1,0
246,199,312437,1,0
204,236,312811,1,0
95,239,313061,1,0
106,157,313436,1,0
214,124,313810,1,0
208,194,314185,1,0
180,264,314684,1,0
180,264,314809,1,0
94,281,315184,1,0
96,179,315683,1,0
236,212,316058,1,0
236,212,316183,1,0
223,275,316558,1,0
156,300,316932,1,0
167,188,317681,1,0
256,156,317931,1,0
276,282,318556,1,0
200,277,319055,1,0
152,253,319305,1,0
147,197,319679,1,0
191,152,320054,1,0
276,153,320304,1,0
276,153,320678,1,0
209,243,321053,1,0
157,259,321428,1,0
132,207,321802,1,0
350,226,322177,1,0
77,55,322427,2,0,B|326:55,3,246.510009765625
62,186,327796,1,0
62,186,328670,1,0
62,186,330169,1,0
401,186,331543,1,0
395,262,332167,1,0
181,287,332791,1,0
213,126,333665,1,0
362,119,334290,1,0
106,128,334789,1,0
168,300,335539,1,0
285,265,336038,1,0
241,142,336912,1,0
127,220,337537,1,0
356,207,338161,1,0
304,43,338785,1,0
144,54,339535,1,0
112,197,340159,1,0
359,186,340908,1,0
223,146,341657,1,0
184,279,342282,1,0
50,183,342906,1,0
237,85,343655,1,0
358,181,344405,1,0
150,76,345029,1,0
283,72,345653,1,0
219,164,346278,1,0
91,210,346902,1,0
276,80,347651,1,0
256,192,348151,12,0,354013
256,192,363100,5,4
