osu file format v13

[General]
AudioFilename: Deadmau5 feat. Chris James - The Veldt (Radio Edit).mp3
AudioLeadIn: 0
PreviewTime: 134797
Countdown: 0
SampleSet: None
StackLeniency: 0.7
Mode: 0
LetterboxInBreaks: 0
EpilepsyWarning: 1
WidescreenStoryboard: 1

[Editor]
Bookmarks: 15020,18301,20645,22754,24160,25332,26270,28145,30488,33301,33770,36113,37754,40566,43613,44785,45020,46426,49473,52051,56973,59551,60020,60488,63301,63770,66113,67988,70801,71270,73613,75488,78301,78770,81582,82754,85566,88613,89785,90020,91426,94473,97520,101973,104785,106426,109473,112285,113926,116973,119082,119551,134785,135020,136426,139473,142520,149785,151426,154473,157285,158926,161973,165020,165488,166910,168301
DistanceSpacing: 1.2
BeatDivisor: 4
GridSize: 4
TimelineZoom: 1.5

[Metadata]
Title:The Veldt (Radio Edit)
TitleUnicode:The Veldt (Radio Edit)
Artist:deadmau5 feat. Chris James
ArtistUnicode:deadmau5 feat. Chris James
Creator:Shadren
Version:Hard
Source:
Tags:featuring mau5trap MAU5051B progressive house male vocal relax deadmaus AlexaBM
BeatmapID:513937
BeatmapSetID:219447

[Difficulty]
HPDrainRate:5
CircleSize:4
OverallDifficulty:6
ApproachRate:7
SliderMultiplier:1.4
SliderTickRate:2

[Events]
//Background and Video events
0,0,"BG.jpg",0,0
//Break Periods
2,122107,130382
//Storyboard Layer 0 (Background)
//Storyboard Layer 1 (Fail)
//Storyboard Layer 2 (Pass)
//Storyboard Layer 3 (Foreground)
//Storyboard Sound Samples
//Background Colour Transformations
3,100,163,162,255

[TimingPoints]
15032,468.75,4,2,1,60,1,0
25227,-100,4,2,3,60,0,0
25461,-100,4,2,1,60,0,0
27102,-100,4,2,3,60,0,0
27336,-100,4,2,1,60,0,0
32727,-100,4,2,3,60,0,0
32961,-100,4,2,1,60,0,0
34602,-100,4,2,3,60,0,0
34836,-100,4,2,1,60,0,0
40227,-100,4,2,3,60,0,0
40461,-100,4,2,1,60,0,0
45032,-100,4,2,1,60,0,1
47727,-100,4,2,3,60,0,1
47961,-100,4,2,1,60,0,1
51477,-100,4,2,3,60,0,1
51711,-100,4,2,1,60,0,1
51946,-100,4,2,4,60,0,1
52180,-100,4,2,1,60,0,1
53352,-100,4,2,3,60,0,1
53586,-100,4,2,1,60,0,1
55227,-100,4,2,3,60,0,1
55461,-100,4,2,1,60,0,1
58977,-100,4,2,3,60,0,1
59211,-100,4,2,1,60,0,1
60032,-100,4,2,1,60,0,0
62727,-100,4,2,3,60,0,0
62961,-100,4,2,1,60,0,0
64602,-100,4,2,3,60,0,0
64836,-100,4,2,1,60,0,0
70227,-100,4,2,3,60,0,0
70461,-100,4,2,1,60,0,0
72102,-100,4,2,3,60,0,0
72336,-100,4,2,1,60,0,0
77727,-100,4,2,3,60,0,0
77961,-100,4,2,1,60,0,0
79602,-100,4,2,3,60,0,0
79836,-100,4,2,1,60,0,0
85227,-100,4,2,3,60,0,0
85461,-100,4,2,1,60,0,0
87102,-100,4,2,3,60,0,0
87336,-100,4,2,1,60,0,0
90032,-100,4,2,1,60,0,1
90852,-100,4,2,3,60,0,1
91086,-100,4,2,1,60,0,1
92727,-100,4,2,3,60,0,1
92961,-100,4,2,1,60,0,1
96477,-100,4,2,3,60,0,1
96711,-100,4,2,1,60,0,1
96946,-100,4,2,4,60,0,1
97180,-100,4,2,1,60,0,1
100227,-100,4,2,3,60,0,1
100461,-100,4,2,1,60,0,1
100696,-100,4,2,4,60,0,1
100930,-100,4,2,1,60,0,1
103977,-100,4,2,3,60,0,1
104211,-100,4,2,1,60,0,1
105852,-100,4,2,3,60,0,1
106086,-100,4,2,1,60,0,1
107727,-100,4,2,3,60,0,1
107961,-100,4,2,1,60,0,1
111477,-100,4,2,3,60,0,1
111711,-100,4,2,1,60,0,1
111946,-100,4,2,4,60,0,1
112180,-100,4,2,1,60,0,1
113352,-100,4,2,3,60,0,1
113586,-100,4,2,1,60,0,1
115227,-100,4,2,3,60,0,1
115461,-100,4,2,1,60,0,1
119094,-100,4,2,1,60,0,0
121907,-100,4,2,1,5,0,0
131282,-100,4,2,1,60,0,0
134094,-100,4,2,1,5,0,0
134797,-100,4,2,1,60,0,0
135032,-100,4,2,1,60,0,1
137727,-100,4,2,3,60,0,1
137961,-100,4,2,1,60,0,1
141477,-100,4,2,3,60,0,1
141711,-100,4,2,1,60,0,1
141946,-100,4,2,4,60,0,1
142180,-100,4,2,1,60,0,1
143352,-100,4,2,3,60,0,1
143586,-100,4,2,1,60,0,1
145227,-100,4,2,3,60,0,1
145461,-100,4,2,1,60,0,1
148977,-100,4,2,3,60,0,1
149211,-100,4,2,1,60,0,1
150852,-100,4,2,3,60,0,1
151086,-100,4,2,1,60,0,1
152727,-100,4,2,3,60,0,1
152961,-100,4,2,1,60,0,1
156477,-100,4,2,3,60,0,1
156711,-100,4,2,1,60,0,1
156946,-100,4,2,4,60,0,1
157180,-100,4,2,1,60,0,1
158352,-100,4,2,3,60,0,1
158586,-100,4,2,1,60,0,1
160227,-100,4,2,3,60,0,1
160461,-100,4,2,1,60,0,1
160696,-100,4,2,4,60,0,1
160930,-100,4,2,1,60,0,1
163977,-100,4,2,3,60,0,1
164211,-100,4,2,1,60,0,1
165032,-100,4,2,1,45,0,0
165266,-100,4,2,1,40,0,0
165500,-100,4,2,1,35,0,0
165735,-100,4,2,1,30,0,0
165969,-100,4,2,1,25,0,0
166203,-100,4,2,1,20,0,0
166438,-100,4,2,1,15,0,0
166672,-100,4,2,1,10,0,0
166907,-100,4,2,1,5,0,0

[Colours]
Combo1 : 121,168,255
Combo2 : 249,230,164
Combo3 : 146,136,200
Combo4 : 255,155,205
SliderBorder : 255,255,255

[HitObjects]
397,238,15032,6,0,P|358:294|271:295,1,140,6|2,2:0|0:0,0:0:0:0:
232,240,15735,1,0,0:0:0:0:
272,160,15969,2,0,P|300:180|317:211,1,70,2|0,0:0|0:0,0:0:0:0:
144,252,16438,2,0,P|152:197|186:167,1,70,2|0,2:0|0:0,0:0:0:0:
232,240,16907,5,2,0:0:0:0:
192,316,17141,1,0,0:0:0:0:
116,348,17375,2,0,P|80:356|32:348,2,70,2|0|2,0:0|0:0|0:0,0:0:0:0:
192,316,18078,1,0,0:0:0:0:
232,240,18313,2,0,P|236:200|224:148,1,70,2|0,0:0|0:0,0:0:0:0:
180,104,18782,6,0,P|247:90|312:144,1,140,2|2,0:0|0:0,0:0:0:0:
360,192,19485,1,0,0:0:0:0:
420,132,19719,2,0,L|424:56,1,70,2|0,0:0|0:0,0:0:0:0:
360,192,20188,2,0,L|357:262,1,70,2|0,0:0|0:0,0:0:0:0:
292,316,20657,5,2,0:0:0:0:
208,308,20891,1,0,0:0:0:0:
156,244,21125,2,0,P|146:213|156:164,1,70,2|0,0:0|0:0,0:0:0:0:
220,128,21594,1,2,0:0:0:0:
296,164,21828,1,0,0:0:0:0:
364,116,22063,2,0,P|378:84|373:50,1,70,2|0,0:0|0:0,0:0:0:0:
296,80,22532,5,2,0:0:0:0:
296,164,22766,2,0,P|317:185|371:198,2,70,0|2|0,0:0|0:0|0:0,0:0:0:0:
296,80,23469,2,0,P|234:107|213:172,1,140,2|2,0:0|0:0,0:0:0:0:
252,248,24172,1,0,0:0:0:0:
328,288,24407,6,0,P|360:292|397:284,1,70,2|0,0:0|0:0,0:0:0:0:
452,224,24875,1,2,0:0:0:0:
400,156,25110,2,0,B|424:104|388:60|388:60|400:8,1,140,0|0,0:0|0:0,0:0:0:0:
320,120,25813,2,0,P|312:156|324:200,1,70,2|0,0:0|0:0,0:0:0:0:
340,268,26282,5,2,0:0:0:0:
308,344,26516,1,0,0:0:0:0:
228,364,26750,1,2,0:0:0:0:
152,332,26985,2,0,P|85:310|20:345,1,140,0|0,0:0|0:0,0:0:0:0:
4,256,27688,2,0,L|8:168,1,70,2|0,0:0|0:0,0:0:0:0:
48,112,28157,6,0,P|80:108|132:120,1,70,2|0,0:0|0:0,0:0:0:0:
196,136,28625,2,0,P|232:140|276:128,1,70,2|0,0:0|0:0,0:0:0:0:
344,104,29094,2,0,P|356:68|352:36,1,70,2|0,0:0|0:0,0:0:0:0:
328,184,29563,2,0,B|316:220|332:264,1,70,2|0,0:0|0:0,0:0:0:0:
348,336,30032,6,0,P|284:356|204:332,1,140,2|10,0:0|0:0,0:0:0:0:
160,276,30735,1,0,0:0:0:0:
140,196,30969,2,0,B|140:140|140:140|100:108|116:44,1,140,2|10,0:0|0:0,0:0:0:0:
196,76,31672,1,0,0:0:0:0:
268,32,31907,6,0,L|348:28,2,70,2|0|10,0:0|0:0|0:0,0:0:0:0:
196,76,32610,2,0,P|168:148|204:208,1,140,0|0,0:0|0:0,0:0:0:0:
324,144,33313,2,0,P|290:135|256:138,1,70,10|0,0:0|0:0,0:0:0:0:
404,182,33782,6,0,P|436:190|488:182,2,70,2|0|10,0:0|0:0|0:0,0:0:0:0:
324,144,34485,2,0,L|292:312,1,140,0|0,0:0|0:0,0:0:0:0:
224,320,35188,2,0,B|140:296|168:340|76:320,1,140,10|2,0:0|0:0,0:0:0:0:
16,172,36125,6,0,L|20:80,1,70,10|0,0:0|0:0,0:0:0:0:
84,52,36594,2,0,P|120:48|168:60,1,70,2|0,0:0|0:0,0:0:0:0:
236,76,37063,2,0,P|270:82|305:78,1,70,10|0,0:0|0:0,0:0:0:0:
384,52,37532,5,2,0:0:0:0:
444,108,37766,2,0,L|452:192,2,70,0|10|0,0:0|0:0|0:0,0:0:0:0:
400,244,38469,2,0,P|342:279|265:241,1,140,2|10,0:0|0:0,0:0:0:0:
172,128,39407,6,0,P|164:92|184:44,1,70,2|0,0:0|0:0,0:0:0:0:
248,96,39875,1,10,0:0:0:0:
236,180,40110,2,0,P|176:212|96:164,1,140,0|0,0:0|0:0,0:0:0:0:
248,96,40813,2,0,P|280:88|336:104,1,70,10|0,0:0|0:0,0:0:0:0:
380,148,41282,5,2,0:0:0:0:
394,231,41516,1,0,0:0:0:0:
336,292,41750,2,0,L|260:300,1,70,10|0,0:0|0:0,0:0:0:0:
408,336,42219,2,0,L|484:340,1,70,2|0,0:0|0:0,0:0:0:0:
336,292,42688,2,0,B|312:212|356:236|324:148,1,140,10|2,0:0|0:0,0:0:0:0:
204,36,43625,6,0,P|152:32|124:40,1,70,10|0,0:0|0:0,0:0:0:0:
288,56,44094,2,0,P|340:60|368:52,1,70,2|0,0:0|0:0,0:0:0:0:
428,12,44563,1,10,0:0:0:0:
492,68,44797,1,0,0:0:0:0:
492,68,45032,6,0,B|476:112|476:112|496:156|464:220,1,140,6|10,0:0|0:0,0:0:0:0:
416,268,45735,1,0,0:0:0:0:
336,296,45969,2,0,P|300:296|264:288,1,70,2|0,0:0|0:0,0:0:0:0:
208,232,46438,1,10,0:0:0:0:
220,148,46672,1,0,0:0:0:0:
284,92,46907,6,0,P|320:84|364:92,1,70,2|0,0:0|0:0,0:0:0:0:
428,124,47375,1,10,0:0:0:0:
508,96,47610,2,0,B|524:144|492:181|492:181|500:229,1,140,0|0,0:0|0:0,0:0:0:0:
432,280,48313,1,10,0:0:0:0:
240,120,48782,6,0,P|204:116|148:132,1,70,2|0,0:0|0:0,0:0:0:0:
140,200,49250,1,10,0:0:0:0:
220,220,49485,1,0,0:0:0:0:
296,184,49719,2,0,P|324:120|276:44,1,140,2|10,0:0|0:0,0:0:0:0:
240,120,50422,1,0,0:0:0:0:
212,200,50657,6,0,P|224:232|272:264,1,70,2|0,0:0|0:0,0:0:0:0:
296,184,51125,1,10,0:0:0:0:
240,120,51360,2,0,P|176:120|128:188,2,140,0|0|0,0:0|0:0|0:0,0:0:0:0:
296,184,52532,6,0,P|324:116|284:48,1,140,6|10,0:0|0:0,0:0:0:0:
240,120,53235,2,0,P|212:188|252:256,1,140,0|0,0:0|0:0,0:0:0:0:
320,268,53938,1,10,0:0:0:0:
392,224,54172,1,0,0:0:0:0:
404,140,54407,6,0,P|405:107|386:70,1,70,2|0,0:0|0:0,0:0:0:0:
312,40,54875,1,10,0:0:0:0:
312,40,55110,2,0,B|264:28|264:28|224:60|160:48,1,140,0|0,0:0|0:0,0:0:0:0:
96,72,55813,1,10,0:0:0:0:
12,216,56282,6,0,P|4:252|11:285,1,70,2|0,0:0|0:0,0:0:0:0:
88,248,56750,2,0,P|102:281|128:304,1,70,10|0,0:0|0:0,0:0:0:0:
172,232,57219,2,0,B|216:248|216:248|260:212|328:240,1,140,2|10,0:0|0:0,0:0:0:0:
272,312,57922,1,0,0:0:0:0:
356,296,58157,6,0,P|380:268|384:220,2,70,2|0|10,0:0|0:0|0:0,0:0:0:0:
340,172,58860,2,0,P|408:156|464:224,1,140,0|0,0:0|0:0,0:0:0:0:
300,240,59563,2,0,P|273:217|260:185,1,70,10|0,0:0|0:0,0:0:0:0:
387,237,60032,6,0,P|364:300|288:328,1,140,2|10,0:0|0:0,0:0:0:0:
232,280,60735,1,0,0:0:0:0:
180,212,60969,2,0,P|111:212|67:263,1,140,2|10,0:0|0:0,0:0:0:0:
147,288,61672,1,0,0:0:0:0:
232,280,61907,6,0,P|256:256|260:208,1,70,2|0,0:0|0:0,0:0:0:0:
256,139,62375,1,10,0:0:0:0:
312,76,62610,2,0,P|380:68|440:124,1,140,0|0,0:0|0:0,0:0:0:0:
460,192,63313,1,10,0:0:0:0:
238,172,63782,6,0,P|231:137|237:103,2,70,2|0|10,0:0|0:0|0:0,0:0:0:0:
316,140,64485,2,0,P|380:164|460:124,1,140,0|0,0:0|0:0,0:0:0:0:
492,72,65188,2,0,L|480:232,1,140,10|2,0:0|0:0,0:0:0:0:
412,260,65891,1,0,0:0:0:0:
352,200,66125,6,0,L|344:108,1,70,10|0,0:0|0:0,0:0:0:0:
280,80,66594,1,2,0:0:0:0:
196,72,66828,1,0,0:0:0:0:
124,116,67063,2,0,P|118:150|122:185,1,70,10|0,0:0|0:0,0:0:0:0:
204,160,67532,6,0,P|208:194|200:228,1,70,2|0,0:0|0:0,0:0:0:0:
210,312,68000,2,0,L|282:320,1,70,10|0,0:0|0:0,0:0:0:0:
360,292,68469,2,0,P|392:232|368:164,1,140,2|10,0:0|0:0,0:0:0:0:
308,224,69172,1,0,0:0:0:0:
276,300,69407,6,0,P|288:340|324:368,1,70,2|0,0:0|0:0,0:0:0:0:
360,292,69875,1,10,0:0:0:0:
308,224,70110,2,0,B|260:208|224:236|224:236|152:224,1,140,0|0,0:0|0:0,0:0:0:0:
92,204,70813,1,10,0:0:0:0:
148,44,71282,6,0,P|180:36|232:44,1,70,2|0,0:0|0:0,0:0:0:0:
284,88,71750,1,10,0:0:0:0:
328,160,71985,2,0,B|360:208|312:256|348:304,1,140,0|0,0:0|0:0,0:0:0:0:
420,328,72688,1,10,0:0:0:0:
496,292,72922,1,0,0:0:0:0:
508,208,73157,6,0,P|504:160|512:132,1,70,2|0,0:0|0:0,0:0:0:0:
444,84,73625,2,0,L|368:76,1,70,10|0,0:0|0:0,0:0:0:0:
292,96,74094,2,0,P|252:100|208:84,1,70,2|0,0:0|0:0,0:0:0:0:
144,60,74563,2,0,P|100:52|64:56,1,70,10|0,0:0|0:0,0:0:0:0:
0,96,75032,5,2,0:0:0:0:
11,179,75266,1,0,0:0:0:0:
84,220,75500,2,0,P|92:256|84:292,1,70,10|0,0:0|0:0,0:0:0:0:
12,332,75969,2,0,P|68:372|140:356,1,140,2|10,0:0|0:0,0:0:0:0:
284,284,76907,6,0,P|316:280|364:288,2,70,2|0|10,0:0|0:0|0:0,0:0:0:0:
240,356,77610,2,0,P|200:296|220:224,1,140,0|0,0:0|0:0,0:0:0:0:
256,160,78313,1,10,0:0:0:0:
340,160,78547,1,0,0:0:0:0:
404,216,78782,6,0,P|408:252|388:300,2,70,2|0|10,0:0|0:0|0:0,0:0:0:0:
340,164,79485,2,0,P|424:136|476:176,1,140,0|0,0:0|0:0,0:0:0:0:
322,246,80188,2,0,P|264:205|266:125,1,140,10|2,0:0|0:0,0:0:0:0:
340,164,80891,1,0,0:0:0:0:
400,216,81125,6,0,P|407:250|387:297,1,70,10|0,0:0|0:0,0:0:0:0:
322,246,81594,2,0,P|295:270|250:286,1,70,2|0,0:0|0:0,0:0:0:0:
248,204,82063,2,0,P|211:202|169:184,1,70,10|0,0:0|0:0,0:0:0:0:
212,112,82532,5,2,0:0:0:0:
296,108,82766,2,0,P|328:112|372:104,2,70,0|10|0,0:0|0:0|0:0,0:0:0:0:
248,40,83469,2,0,B|200:16|156:52|156:52|92:48,1,140,2|10,0:0|0:0,0:0:0:0:
32,56,84172,1,0,0:0:0:0:
68,132,84407,6,0,P|72:168|64:212,2,70,2|0|10,0:0|0:0|0:0,0:0:0:0:
4,248,85110,2,0,P|84:280|140:236,1,140,0|0,0:0|0:0,0:0:0:0:
184,196,85813,2,0,L|272:192,1,70,10|0,0:0|0:0,0:0:0:0:
324,148,86282,6,0,P|364:144|396:152,1,70,2|0,0:0|0:0,0:0:0:0:
468,188,86750,1,10,0:0:0:0:
468,188,86985,2,0,L|456:36,1,140,0|0,0:0|0:0,0:0:0:0:
388,96,87688,2,0,L|380:256,1,140,10|2,0:0|0:0,0:0:0:0:
224,172,88625,6,0,L|211:94,1,70,10|0,0:0|0:0,0:0:0:0:
152,204,89094,2,0,P|176:236|220:248,1,70,2|0,0:0|0:0,0:0:0:0:
284,224,89563,1,10,0:0:0:0:
300,140,89797,1,0,0:0:0:0:
224,172,90032,6,0,P|204:240|252:296,1,140,6|10,0:0|0:0,0:0:0:0:
300,140,90735,2,0,P|244:92|168:112,1,140,0|0,0:0|0:0,0:0:0:0:
112,148,91438,1,10,0:0:0:0:
112,232,91672,1,0,0:0:0:0:
176,288,91907,6,0,P|216:296|256:284,1,70,2|0,0:0|0:0,0:0:0:0:
312,240,92375,1,10,0:0:0:0:
344,160,92610,2,0,B|360:112|360:112|312:72|340:8,1,140,0|0,0:0|0:0,0:0:0:0:
416,48,93313,1,10,0:0:0:0:
272,208,93782,6,0,P|232:216|188:204,1,70,2|0,0:0|0:0,0:0:0:0:
140,160,94250,1,10,0:0:0:0:
140,76,94485,1,0,0:0:0:0:
212,36,94719,2,0,B|260:44|260:44|308:16|368:60,1,140,2|10,0:0|0:0,0:0:0:0:
300,116,95422,5,0,0:0:0:0:
256,188,95657,2,0,P|252:224|264:264,2,70,2|0|10,0:0|0:0|0:0,0:0:0:0:
300,116,96360,2,0,P|232:108|176:164,2,140,0|0|0,0:0|0:0|0:0,0:0:0:0:
376,148,97532,6,0,P|444:172|508:128,1,140,6|10,0:0|0:0,0:0:0:0:
434,88,98235,1,0,0:0:0:0:
352,72,98469,2,0,P|320:88|300:124,1,70,2|0,0:0|0:0,0:0:0:0:
264,192,98938,1,10,0:0:0:0:
184,212,99172,1,0,0:0:0:0:
108,176,99407,6,0,L|36:180,2,70,2|0|10,0:0|0:0|0:0,0:0:0:0:
184,212,100110,2,0,B|196:256|196:256|168:304|196:356,2,140,0|0|0,0:0|0:0|0:0,0:0:0:0:
220,136,101282,6,0,P|256:132|296:140,1,70,2|0,0:0|0:0,0:0:0:0:
364,180,101750,2,0,P|404:184|444:176,1,70,10|0,0:0|0:0,0:0:0:0:
500,128,102219,2,0,L|510:267,1,140,2|10,0:0|0:0,0:0:0:0:
464,336,102922,1,0,0:0:0:0:
384,368,103157,2,0,P|348:376|300:368,1,70,2|0,0:0|0:0,0:0:0:0:
244,328,103625,5,10,0:0:0:0:
244,328,103860,2,0,B|236:280|236:280|264:236|236:180,1,140,0|0,0:0|0:0,0:0:0:0:
168,232,104563,2,0,P|133:231|100:219,1,70,10|0,0:0|0:0,0:0:0:0:
64,100,105032,6,0,B|54:147|54:147|8:184|20:240,1,140,6|10,0:0|0:0,0:0:0:0:
56,304,105735,1,0,0:0:0:0:
136,328,105969,2,0,P|188:324|216:304,1,70
252,248,106438,1,10,0:0:0:0:
248,164,106672,1,0,0:0:0:0:
180,112,106907,6,0,P|172:76|180:44,1,70,2|0,0:0|0:0,0:0:0:0:
256,80,107375,1,10,0:0:0:0:
248,164,107610,2,0,P|192:200|120:172,1,140,0|0,0:0|0:0,0:0:0:0:
88,104,108313,1,10,0:0:0:0:
256,92,108782,6,0,P|274:120|273:155,1,70,2|0,0:0|0:0,0:0:0:0:
234,229,109250,1,10,0:0:0:0:
156,260,109485,1,0,0:0:0:0:
84,216,109719,2,0,P|76:286|145:345,1,140,2|10,0:0|0:0,0:0:0:0:
156,260,110422,1,0,0:0:0:0:
160,176,110657,6,0,P|132:144|84:133,1,70,2|0,0:0|0:0,0:0:0:0:
84,216,111125,1,10,0:0:0:0:
156,260,111360,2,0,L|298:242,2,140,0|0|0,0:0|0:0|0:0,0:0:0:0:
84,216,112532,6,0,P|78:290|136:343,1,140,6|10,0:0|0:0,0:0:0:0:
156,260,113235,2,0,P|163:187|105:134,1,140,0|0,0:0|0:0,0:0:0:0:
36,128,113938,1,10,0:0:0:0:
76,53,114172,1,0,0:0:0:0:
162,60,114407,6,0,P|194:55|234:34,1,70,2|0,0:0|0:0,0:0:0:0:
312,31,114875,1,10,0:0:0:0:
395,56,115110,2,0,B|421:99|421:99|402:147|432:204,1,140,0|0,0:0|0:0,0:0:0:0:
454,263,115813,1,10,0:0:0:0:
301,336,116282,6,0,P|269:344|217:332,1,70,2|0,0:0|0:0,0:0:0:0:
157,304,116750,2,0,P|123:299|85:304,1,70,10|0,0:0|0:0,0:0:0:0:
9,332,117219,2,0,L|17:164,1,140,2|10,0:0|0:0,0:0:0:0:
89,152,117922,1,0,0:0:0:0:
165,192,118157,6,0,P|200:188|232:174,2,70,2|0|10,0:0|0:0|0:0,0:0:0:0:
89,152,118860,2,0,P|85:117|91:83,1,70,0|0,0:0|0:0,0:0:0:0:
256,192,119328,12,0,121907,0:0:0:0:
256,192,131282,12,0,134094,0:0:0:0:
20,68,134797,5,0,0:0:0:0:
20,68,135032,2,0,B|36:112|36:112|16:156|48:220,1,140,6|10,0:0|0:0,0:0:0:0:
96,264,135735,1,0,0:0:0:0:
140,192,135969,2,0,P|170:176|205:175,1,70
284,212,136438,1,10,0:0:0:0:
284,212,136672,1,0,0:0:0:0:
368,224,136907,6,0,P|400:228|448:216,1,70,2|0,0:0|0:0,0:0:0:0:
392,148,137375,1,10,0:0:0:0:
308,164,137610,2,0,P|284:236|328:300,1,140,0|0,0:0|0:0,0:0:0:0:
368,224,138313,1,10,0:0:0:0:
248,108,138782,6,0,L|244:16,1,70,2|0,0:0|0:0,0:0:0:0:
164,16,139250,1,10,0:0:0:0:
90,56,139485,1,0,0:0:0:0:
92,140,139719,2,0,P|96:208|40:252,1,140,2|10,0:0|0:0,0:0:0:0:
20,172,140422,1,0,0:0:0:0:
32,88,140657,6,0,P|64:64|104:64,1,70,2|0,0:0|0:0,0:0:0:0:
164,104,141125,1,10,0:0:0:0:
224,164,141360,2,0,L|364:172,2,140,0|0|0,0:0|0:0|0:0,0:0:0:0:
168,228,142532,6,0,P|140:160|180:92,1,140,6|10,0:0|0:0,0:0:0:0:
224,164,143235,2,0,P|252:232|212:300,1,140,0|0,0:0|0:0,0:0:0:0:
148,324,143938,1,10,0:0:0:0:
68,304,144172,1,0,0:0:0:0:
52,220,144407,6,0,P|55:187|73:154,1,70,2|0,0:0|0:0,0:0:0:0:
152,124,144875,1,10,0:0:0:0:
236,112,145110,2,0,P|200:54|133:43,1,140,0|0,0:0|0:0,0:0:0:0:
64,92,145813,1,10,0:0:0:0:
268,176,146282,6,0,P|300:184|348:168,1,70,2|0,0:0|0:0,0:0:0:0:
304,96,146750,2,0,P|344:80|371:52,1,70,10|0,0:0|0:0,0:0:0:0:
248,36,147219,2,0,P|220:100|272:168,1,140,2|10,0:0|0:0,0:0:0:0:
312,216,147922,1,0,0:0:0:0:
368,280,148157,6,0,P|375:314|370:348,2,70,2|0|10,0:0|0:0|0:0,0:0:0:0:
312,216,148860,2,0,P|232:208|188:264,1,140,0|0,0:0|0:0,0:0:0:0:
124,292,149563,2,0,L|32:284,1,70,10|0,0:0|0:0,0:0:0:0:
168,360,150032,6,0,B|216:376|216:376|324:352,1,140,6|10,0:0|0:0,0:0:0:0:
356,292,150735,2,0,P|423:283|480:344,1,140,0|0,0:0|0:0,0:0:0:0:
400,364,151438,1,10,0:0:0:0:
316,356,151672,1,0,0:0:0:0:
264,288,151907,6,0,P|256:252|264:208,1,70,2|0,0:0|0:0,0:0:0:0:
292,144,152375,1,10,0:0:0:0:
232,84,152610,2,0,B|144:64|180:96|84:80,1,140,0|0,0:0|0:0,0:0:0:0:
28,132,153313,1,10,0:0:0:0:
136,260,153782,6,0,P|168:264|228:244,1,70,2|0,0:0|0:0,0:0:0:0:
268,204,154250,1,10,0:0:0:0:
264,120,154485,1,0,0:0:0:0:
220,48,154719,2,0,B|260:24|306:45|306:45|354:37,1,140,2|10,0:0|0:0,0:0:0:0:
432,76,155422,1,0,0:0:0:0:
488,140,155657,6,0,P|492:176|480:216,2,70,2|0|10,0:0|0:0|0:0,0:0:0:0:
432,76,156360,2,0,B|380:88|344:64|344:64|288:72,2,140,0|0|0,0:0|0:0|0:0,0:0:0:0:
488,140,157532,6,0,P|512:208|468:272,1,140,6|10,0:0|0:0,0:0:0:0:
428,200,158235,2,0,P|404:124|448:64,1,140,0|0,0:0|0:0,0:0:0:0:
488,140,158938,1,10,0:0:0:0:
500,224,159172,1,0,0:0:0:0:
436,276,159407,6,0,P|396:280|364:272,2,70,2|0|10,0:0|0:0|0:0,0:0:0:0:
328,196,160110,2,0,B|316:152|316:152|344:104|316:52,2,140,0|0|0,0:0|0:0|0:0,0:0:0:0:
308,280,161282,6,0,P|272:284|232:276,1,70,2|0,0:0|0:0,0:0:0:0:
160,248,161750,2,0,P|120:244|80:252,1,70,10|0,0:0|0:0,0:0:0:0:
16,288,162219,2,0,L|28:128,1,140,2|10,0:0|0:0,0:0:0:0:
76,80,162922,1,0,0:0:0:0:
156,100,163157,2,0,P|192:108|240:100,1,70,2|0,0:0|0:0,0:0:0:0:
308,88,163625,5,10,0:0:0:0:
308,88,163860,2,0,B|316:136|316:136|288:180|316:236,1,140,0|0,0:0|0:0,0:0:0:0:
372,280,164563,2,0,P|408:292|440:292,1,70,10|0,0:0|0:0,0:0:0:0:
256,192,165032,12,0,166907,0:0:0:0:
