osu file format v13

[General]
AudioFilename: Deadmau5 feat. Chris James - The Veldt (Radio Edit).mp3
AudioLeadIn: 0
PreviewTime: 134797
Countdown: 0
SampleSet: Soft
StackLeniency: 0.7
Mode: 0
LetterboxInBreaks: 0
EpilepsyWarning: 1
WidescreenStoryboard: 1

[Editor]
DistanceSpacing: 1.2
BeatDivisor: 2
GridSize: 4
TimelineZoom: 1.1

[Metadata]
Title:The Veldt (Radio Edit)
TitleUnicode:The Veldt (Radio Edit)
Artist:deadmau5 feat. Chris James
ArtistUnicode:deadmau5 feat. Chris James
Creator:Shadren
Version:Easy
Source:
Tags:featuring mau5trap MAU5051B progressive house male vocal relax deadmaus AlexaBM
BeatmapID:524800
BeatmapSetID:219447

[Difficulty]
HPDrainRate:1.5
CircleSize:2.5
OverallDifficulty:1.5
ApproachRate:2
SliderMultiplier:0.8
SliderTickRate:1

[Events]
//Background and Video events
0,0,"BG.jpg",0,0
//Break Periods
2,122107,129722
//Storyboard Layer 0 (Background)
//Storyboard Layer 1 (Fail)
//Storyboard Layer 2 (Pass)
//Storyboard Layer 3 (Foreground)
//Storyboard Sound Samples
//Background Colour Transformations
3,100,163,162,255

[TimingPoints]
15032,468.75,4,2,3,60,1,0
30032,-100,4,2,4,60,0,0
45032,-100,4,2,4,60,0,1
60032,-100,4,2,4,60,0,0
90032,-100,4,2,4,60,0,1
119094,-100,4,2,1,60,0,0
121907,-100,4,2,1,5,0,0
131282,-100,4,2,1,60,0,0
135032,-100,4,2,4,60,0,1
165032,-100,4,2,1,45,0,0
165500,-100,4,2,1,40,0,0
165969,-100,4,2,1,35,0,0
166438,-100,4,2,1,30,0,0
166907,-100,4,2,1,25,0,0
167375,-100,4,2,1,20,0,0
167844,-100,4,2,1,15,0,0
168313,-100,4,2,1,10,0,0
168782,-100,4,2,1,5,0,0

[Colours]
Combo1 : 121,168,255
Combo2 : 249,230,164
Combo3 : 146,136,200
Combo4 : 255,155,205
SliderBorder : 255,255,255

[HitObjects]
176,148,15032,6,0,P|120:196|32:180,1,160,6|2,2:0|0:0,0:0:0:0:
92,104,16438,1,2,2:0:0:0:
176,56,16907,2,0,P|243:85|264:172,1,160,2|2,0:0|0:0,0:0:0:0:
316,248,18313,1,2,0:0:0:0:
408,224,18782,6,0,L|496:216,2,80,2|2|2,0:0|0:0|0:0,0:0:0:0:
316,248,20188,1,2,0:0:0:0:
236,196,20657,2,0,P|208:108|264:40,1,160,2|2,0:0|0:0,0:0:0:0:
300,128,22063,1,2,0:0:0:0:
328,220,22532,6,0,P|308:260|264:288,1,80,2|2,0:0|0:0,0:0:0:0:
196,328,23469,2,0,B|136:364|88:312|40:340,2,160,2|2|2,0:0|0:0|0:0,0:0:0:0:
282,281,25813,1,2,0:0:0:0:
352,216,26282,6,0,L|360:44,2,160,2|2|2,0:0|0:0|0:0,0:0:0:0:
282,281,28625,2,0,P|208:308|120:272,1,160,2|2,0:0|0:0,0:0:0:0:
88,200,30032,6,0,L|80:112,2,80,2|10|2,0:0|0:0|0:0,0:0:0:0:
134,284,31438,1,10,0:0:0:0:
220,240,31907,2,0,P|295:223|378:272,1,160,2|2,0:0|0:0,0:0:0:0:
451,306,33313,1,10,0:0:0:0:
508,228,33782,6,0,L|512:68,1,160,2|2,0:0|0:0,0:0:0:0:
425,27,35188,1,10,0:0:0:0:
332,52,35657,2,0,B|284:100|224:24|164:76,1,160,2|2,0:0|0:0,0:0:0:0:
88,98,37063,1,10,0:0:0:0:
64,192,37532,6,0,L|60:288,1,80,2|10,0:0|0:0,0:0:0:0:
136,332,38469,2,0,P|172:344|220:336,1,80,2|10,0:0|0:0,0:0:0:0:
284,276,39407,2,0,B|320:232|304:168|304:168|316:116,1,160,2|2,0:0|0:0,0:0:0:0:
266,40,40813,1,10,0:0:0:0:
172,60,41282,6,0,B|140:72|94:57|94:57|48:44|8:64,2,160,2|2|2,0:0|0:0|0:0,0:0:0:0:
266,40,43625,1,10,0:0:0:0:
348,92,44094,2,0,P|360:132|352:176,1,80,2|10,0:0|0:0,0:0:0:0:
268,208,45032,6,0,P|324:260|408:248,1,160,6|2,0:0|0:0,0:0:0:0:
452,172,46438,1,10,0:0:0:0:
392,100,46907,2,0,L|228:88,1,160,2|2,0:0|0:0,0:0:0:0:
143,124,48313,1,10,0:0:0:0:
84,200,48782,6,0,B|60:228|72:276|72:276|88:316|72:360,2,160,2|2|2,0:0|0:0|0:0,0:0:0:0:
143,124,51125,1,10,0:0:0:0:
232,160,51594,2,0,P|272:168|316:160,1,80,2|10,0:0|0:0,0:0:0:0:
396,116,52532,6,0,P|404:192|340:252,1,160,6|2,0:0|0:0,0:0:0:0:
265,296,53938,1,10,0:0:0:0:
168,292,54407,2,0,B|140:264|149:217|149:217|156:160|116:140,1,160,2|2,0:0|0:0,0:0:0:0:
68,68,55813,1,10,0:0:0:0:
160,40,56282,6,0,P|236:16|320:44,1,160,2|2,0:0|0:0,0:0:0:0:
392,88,57688,1,10,0:0:0:0:
436,172,58157,2,0,L|428:344,1,160,2|2,0:0|0:0,0:0:0:0:
340,372,59563,1,10,0:0:0:0:
248,340,60032,6,0,P|204:332|164:340,2,80,2|10|2,0:0|0:0|0:0,0:0:0:0:
340,372,61438,1,10,0:0:0:0:
420,320,61907,2,0,B|464:268|436:204|436:204|444:148,1,160,2|2,0:0|0:0,0:0:0:0:
380,96,63313,1,10,0:0:0:0:
300,44,63782,6,0,B|256:32|224:56|224:56|184:36|136:56,2,160,2|2|2,0:0|0:0|0:0,0:0:0:0:
380,96,66125,1,10,0:0:0:0:
436,172,66594,2,0,P|440:216|432:260,1,80,2|10,0:0|0:0,0:0:0:0:
356,304,67532,6,0,B|312:320|312:320|260:280|176:312,1,160,2|2,0:0|0:0,0:0:0:0:
108,320,68938,1,10,0:0:0:0:
24,276,69407,2,0,P|16:236|24:184,2,80,2|10|2,0:0|0:0|0:0,0:0:0:0:
108,320,70813,1,10,0:0:0:0:
196,284,71282,6,0,L|364:272,2,160,2|2|2,0:0|0:0|0:0,0:0:0:0:
112,240,73625,1,10,0:0:0:0:
148,152,74094,2,0,P|156:100|148:68,1,80,2|10,0:0|0:0,0:0:0:0:
64,32,75032,6,0,P|52:76|68:124,2,80,2|10|2,0:0|0:0|0:0,0:0:0:0:
152,75,76438,1,10,0:0:0:0:
212,152,76907,2,0,P|288:172|368:144,1,160,2|2,0:0|0:0,0:0:0:0:
436,84,78313,1,10,0:0:0:0:
504,152,78782,6,0,L|500:328,2,160,2|2|2,0:0|0:0|0:0,0:0:0:0:
436,84,81125,1,10,0:0:0:0:
348,124,81594,2,0,P|304:136|264:132,1,80,2|10,0:0|0:0,0:0:0:0:
184,88,82532,6,0,P|180:172|240:224,1,160,2|2,0:0|0:0,0:0:0:0:
327,228,83938,1,10,0:0:0:0:
408,176,84407,2,0,P|420:124|416:96,1,80,2|10,0:0|0:0,0:0:0:0:
336,48,85344,2,0,L|244:44,1,80,2|10,0:0|0:0,0:0:0:0:
176,96,86282,6,0,B|176:156|136:200|136:200|136:268,2,160,2|2|2,0:0|0:0|0:0,0:0:0:0:
256,44,88625,1,10,0:0:0:0:
340,88,89094,2,0,P|384:92|420:80,1,80,2|10,0:0|0:0,0:0:0:0:
496,136,90032,6,0,B|520:172|504:216|504:216|492:260|512:300,2,160,6|2|2,0:0|0:0|0:0,0:0:0:0:
418,78,92375,1,10,0:0:0:0:
329,116,92844,2,0,P|309:156|317:220,1,80,2|10,0:0|0:0,0:0:0:0:
264,276,93782,6,0,P|196:316|112:300,1,160,2|2,0:0|0:0,0:0:0:0:
48,240,95188,1,10,0:0:0:0:
84,152,95657,2,0,B|128:112|192:124|192:124|240:100,1,160,2|2,0:0|0:0,0:0:0:0:
328,116,97063,1,10,0:0:0:0:
412,164,97532,6,0,P|419:211|403:265,2,80,6|10|2,0:0|0:0|0:0,0:0:0:0:
328,116,98938,1,10,0:0:0:0:
256,180,99407,2,0,B|212:236|296:272|240:344,1,160,2|2,0:0|0:0,0:0:0:0:
156,364,100813,1,10,0:0:0:0:
72,320,101282,6,0,P|29:291|-5:285,2,80,2|10|2,0:0|0:0|0:0,0:0:0:0:
156,364,102688,1,10,0:0:0:0:
256,344,103157,2,0,B|312:320|368:348|368:348|420:328,1,160,2|2,0:0|0:0,0:0:0:0:
456,248,104563,1,10,0:0:0:0:
408,164,105032,6,0,P|380:92|420:20,2,160,6|2|2,0:0|0:0|0:0,0:0:0:0:
456,248,107375,1,10,0:0:0:0:
428,340,107844,2,0,P|380:352|340:344,1,80,2|10,0:0|0:0,0:0:0:0:
260,316,108782,6,0,P|181:300|98:345,2,160,2|2|2,0:0|0:0|0:0,0:0:0:0:
351,349,111125,1,10,0:0:0:0:
432,296,111594,2,0,P|448:248|444:212,1,80,2|10,0:0|0:0,0:0:0:0:
440,124,112532,6,0,P|436:78|452:32,2,80,6|10|2,0:0|0:0|0:0,0:0:0:0:
392,208,113938,1,10,0:0:0:0:
320,272,114407,2,0,P|252:304|168:260,1,160,2|2,0:0|0:0,0:0:0:0:
248,208,115813,1,10,0:0:0:0:
338,178,116282,6,0,P|404:224|408:304,2,160,2|2|2,0:0|0:0|0:0,0:0:0:0:
248,208,118625,2,0,P|207:213|152:208,1,80,10|0,0:0|0:0,0:0:0:0:
256,192,119563,12,0,121907,0:0:0:0:
256,192,131282,12,0,133157,0:0:0:0:
244,176,135032,6,0,P|188:124|104:136,1,160,6|2,0:0|0:0,0:0:0:0:
60,212,136438,1,10,0:0:0:0:
120,284,136907,2,0,L|284:296,1,160,2|2,0:0|0:0,0:0:0:0:
368,259,138313,1,10,0:0:0:0:
428,184,138782,6,0,B|452:100|400:112|432:16,2,160,2|2|2,0:0|0:0|0:0,0:0:0:0:
368,259,141125,1,10,0:0:0:0:
280,224,141594,2,0,P|240:216|196:224,1,80,2|10,0:0|0:0,0:0:0:0:
116,268,142532,6,0,P|108:192|172:128,1,160,6|2,0:0|0:0,0:0:0:0:
248,92,143938,1,10,0:0:0:0:
344,88,144407,2,0,B|368:120|360:160|360:160|356:212|404:248,1,160,2|2,0:0|0:0,0:0:0:0:
431,322,145813,1,10,0:0:0:0:
340,352,146282,6,0,P|264:376|180:348,1,160,2|2,0:0|0:0,0:0:0:0:
112,300,147688,1,10,0:0:0:0:
76,212,148157,2,0,L|84:40,1,160,2|2,0:0|0:0,0:0:0:0:
172,12,149563,1,10,0:0:0:0:
256,60,150032,6,0,P|328:88|408:60,2,160,6|2|2,0:0|0:0|0:0,0:0:0:0:
172,12,152375,1,10,0:0:0:0:
91,64,152844,2,0,P|71:100|67:144,1,80,2|10,0:0|0:0,0:0:0:0:
108,224,153782,6,0,P|113:304|45:368,2,160,2|2|2,0:0|0:0|0:0,0:0:0:0:
160,144,156125,1,10,0:0:0:0:
244,188,156594,2,0,P|288:196|324:188,1,80,2|10,0:0|0:0,0:0:0:0:
408,144,157532,6,0,L|400:316,1,160,6|2,0:0|0:0,0:0:0:0:
317,352,158938,1,10,0:0:0:0:
228,316,159407,2,0,P|180:300|144:304,1,80,2|10,0:0|0:0,0:0:0:0:
60,272,160344,2,0,P|44:224|52:180,1,80,2|10,0:0|0:0,0:0:0:0:
100,116,161282,6,0,B|168:104|188:60|188:60|252:52,2,160,2|2|2,0:0|0:0|0:0,0:0:0:0:
48,196,163625,1,10,0:0:0:0:
100,276,164094,2,0,P|152:288|184:280,1,80,2|10,0:0|0:0,0:0:0:0:
256,192,165032,12,0,168782,0:0:0:0:
