osu file format v13

[General]
AudioFilename: Deadmau5 - Orange File.mp3
AudioLeadIn: 0
PreviewTime: 22938
Countdown: 0
SampleSet: Soft
StackLeniency: 0.7
Mode: 0
LetterboxInBreaks: 0
WidescreenStoryboard: 1

[Editor]
Bookmarks: 5054
DistanceSpacing: 1.5
BeatDivisor: 4
GridSize: 4
TimelineZoom: 1.1

[Metadata]
Title:Orange File
TitleUnicode:Orange File
Artist:deadmau5
ArtistUnicode:deadmau5
Creator:Jethh
Version:Noz's Insane
Source:
Tags:techno dubstep dnb drum and bass Gabe Nozhomi Veus Project 56 deadmaus
BeatmapID:545195
BeatmapSetID:157754

[Difficulty]
HPDrainRate:6.5
CircleSize:4
OverallDifficulty:7
ApproachRate:8.5
SliderMultiplier:1.55
SliderTickRate:1

[Events]
//Background and Video events
0,0,"Deadmau5 - Orange File %Background4%.jpg",0,0
//Break Periods
//Storyboard Layer 0 (Background)
//Storyboard Layer 1 (Fail)
//Storyboard Layer 2 (Pass)
//Storyboard Layer 3 (Foreground)
//Storyboard Sound Samples

[TimingPoints]
1840,329.67032967033,4,2,1,70,1,0
12059,-100,4,2,1,30,0,0
12389,-100,4,2,1,70,0,0
22609,-100,4,2,1,30,0,0
22938,-100,4,2,1,80,0,1
33488,-100,4,2,1,40,0,0
34147,-100,4,2,1,30,0,0
34807,-100,4,2,1,20,0,0
35466,-100,4,2,1,10,0,0

[Colours]
Combo1 : 255,255,0
Combo2 : 255,128,0
Combo3 : 255,128,128
Combo4 : 128,64,64

[HitObjects]
128,228,1840,6,0,P|184:252|272:224,1,155,0|8,1:0|0:0,0:0:0:0:
340,132,2334,2,0,L|448:93,1,77.5,0|0,1:0|0:0,0:0:0:0:
504,120,2664,1,8,0:0:0:0:
448,192,2829,2,0,L|368:224,1,77.5
248,279,3158,6,0,P|173:286|128:228,1,155,0|8,1:0|0:0,0:0:0:0:
116,112,3653,2,0,L|171:34,1,77.5,0|0,1:0|0:0,0:0:0:0:
248,16,3982,1,8,0:0:0:0:
312,84,4147,2,0,L|380:124,1,77.5,0|0,1:0|0:0,0:0:0:0:
464,236,4477,6,0,P|384:264|292:232,1,155,0|0,1:0|0:0,0:0:0:0:
209,197,4971,1,0,0:0:0:0:
8,108,5301,2,0,P|0:72|8:20,2,77.5,0|8|0,1:0|0:0|0:0,0:0:0:0:
64,212,5796,6,0,P|120:176|212:168,1,155,0|8,1:0|0:0,0:0:0:0:
300,180,6290,1,0,1:0:0:0:
384,220,6455,1,2,0:0:0:0:
384,220,6537,1,0,0:0:0:0:
384,220,6620,2,0,P|277:270|207:183,1,232.5,8|0,0:0|1:0,0:0:0:0:
368,104,7444,5,8,0:0:0:0:
452,184,7609,2,0,P|460:232|432:277,1,77.5,0|0,1:0|0:0,0:0:0:0:
384,320,7938,1,8,0:0:0:0:
300,240,8103,2,0,P|291:191|319:146,1,77.5
368,104,8432,1,0,1:0:0:0:
188,48,8763,5,8,0:0:0:0:
260,136,8927,2,0,P|223:160|179:160,1,77.5,0|0,1:0|0:0,0:0:0:0:
100,140,9257,1,8,0:0:0:0:
132,252,9422,2,0,P|168:276|212:276,1,77.5,0|0,1:0|0:0,0:0:0:0:
300,240,9752,6,0,B|332:228|332:228|391:246,1,77.5,0|0,1:0|0:0,0:0:0:0:
373,241,9999,1,0,0:0:0:0:
373,241,10081,1,8,0:0:0:0:
421,134,10246,2,0,B|389:146|389:146|347:133,1,77.5,0|0,1:0|0:0,0:0:0:0:
348,133,10493,1,0,0:0:0:0:
348,133,10575,1,8,0:0:0:0:
236,100,10741,1,0,0:0:0:0:
52,296,11070,5,0,1:0:0:0:
140,328,11235,1,0,1:0:0:0:
232,308,11400,2,0,B|280:296|280:296|300:260,1,77.5,0|0,1:0|0:0,0:0:0:0:
308,156,11730,2,0,B|321:180|321:180|369:192,1,77.5,2|0,0:0|1:0,0:0:0:0:
488,172,12059,1,0,0:0:0:0:
480,152,12142,1,0,0:0:0:0:
472,132,12224,1,8,0:0:0:0:
464,112,12307,1,8,0:0:0:0:
456,96,12389,6,0,P|416:40|316:68,1,155,0|8,1:0|0:0,0:0:0:0:
245,114,12883,2,0,P|272:142|308:156,1,77.5,0|0,1:0|0:0,0:0:0:0:
400,152,13213,1,8,0:0:0:0:
492,224,13378,2,0,P|465:251|429:265,1,77.5
312,248,13708,6,0,B|284:188|284:188|240:224|184:212,1,155,0|8,1:0|0:0,0:0:0:0:
95,173,14202,2,0,P|113:140|144:116,1,77.5,0|0,1:0|0:0,0:0:0:0:
228,76,14532,1,8,0:0:0:0:
344,64,14697,2,0,P|325:97|295:121,1,77.5,0|0,1:0|0:0,0:0:0:0:
195,182,15026,6,0,P|237:245|312:248,1,155,0|0,1:0|0:0,0:0:0:0:
396,204,15521,1,0,0:0:0:0:
176,116,15850,2,0,P|136:124|96:116,1,77.5,0|8,1:0|0:0,0:0:0:0:
20,68,16180,1,0,0:0:0:0:
136,40,16345,6,0,P|221:44|260:104,1,155,0|8,1:0|0:0,0:0:0:0:
255,190,16840,1,0,1:0:0:0:
212,272,17004,1,2,0:0:0:0:
200,288,17087,1,0,0:0:0:0:
188,304,17169,2,0,P|235:361|376:316,1,232.5,0|0,1:0|1:0,0:0:0:0:
340,92,17993,5,8,0:0:0:0:
325,207,18158,2,0,L|269:299,1,77.5,0|0,1:0|0:0,0:0:0:0:
188,304,18488,1,8,0:0:0:0:
156,192,18653,2,0,L|196:125,1,77.5
272,72,18982,1,0,1:0:0:0:
436,240,19312,5,8,0:0:0:0:
409,125,19477,2,0,L|340:92,1,77.5,0|0,1:0|0:0,0:0:0:0:
256,52,19807,1,8,0:0:0:0:
252,168,19971,2,0,L|321:201,1,77.5,0|0,1:0|0:0,0:0:0:0:
436,240,20301,6,0,P|392:304|316:320,1,155,0|8,1:0|0:0,0:0:0:0:
208,292,20796,2,0,P|152:236|76:236,1,155,0|8,1:0|0:0,0:0:0:0:
0,284,21290,1,0,0:0:0:0:
16,192,21455,1,0,0:0:0:0:
32,100,21620,5,0,1:0:0:0:
124,116,21785,1,0,1:0:0:0:
216,136,21949,2,0,P|224:174|218:212,1,77.5,0|0,1:0|0:0,0:0:0:0:
309,286,22279,2,0,P|302:247|310:210,1,77.5,8|0,0:0|1:0,0:0:0:0:
352,104,22609,1,0,0:0:0:0:
332,100,22691,1,0,0:0:0:0:
312,96,22774,1,8,0:0:0:0:
292,92,22856,1,8,0:0:0:0:
272,88,22938,6,0,P|203:100|180:192,1,155,0|8,1:0|0:0,0:0:0:0:
172,288,23433,2,0,P|216:288|248:260,1,77.5,0|0,1:0|0:0,0:0:0:0:
268,180,23763,1,8,0:0:0:0:
272,88,23927,2,0,P|303:67|341:69,1,77.5,0|2,0:0|0:0,0:0:0:0:
424,112,24257,5,0,1:0:0:0:
258,273,24587,1,8,0:0:0:0:
118,210,24752,1,0,1:0:0:0:
268,180,24916,1,0,0:0:0:0:
164,291,25081,1,8,0:0:0:0:
181,139,25246,2,0,L|192:52,1,77.5,0|2,1:0|0:0,0:0:0:0:
307,71,25576,6,0,P|365:121|377:196,1,155,0|8,1:0|0:0,0:0:0:0:
324,272,26070,1,0,0:0:0:0:
262,341,26235,1,0,0:0:0:0:
108,168,26565,2,0,P|104:116|139:77,1,77.5,0|2,0:0|0:0,0:0:0:0:
164,16,26894,5,0,1:0:0:0:
220,92,27059,1,0,0:0:0:0:
360,276,27389,1,0,1:0:0:0:
432,184,27554,2,0,P|392:160|346:165,1,77.5
256,208,27883,1,0,1:0:0:0:
228,235,27966,1,8,0:0:0:0:
204,265,28048,1,10,0:0:0:0:
177,293,28131,1,8,0:0:0:0:
153,323,28213,5,0,1:0:0:0:
255,352,28378,1,0,0:0:0:0:
361,352,28543,1,8,0:0:0:0:
464,324,28708,2,0,P|469:239|430:183,1,155,0|8,1:0|0:0,0:0:0:0:
356,132,29202,1,0,0:0:0:0:
284,192,29367,1,2,0:0:0:0:
204,244,29532,6,0,P|128:251|63:211,1,155,0|8,1:0|0:0,0:0:0:0:
32,96,30026,2,0,L|124:76,1,77.5,0|0,1:0|0:0,0:0:0:0:
192,44,30356,1,8,0:0:0:0:
279,121,30521,2,0,L|356:132,1,77.5,0|2,1:0|0:0,0:0:0:0:
472,144,30850,6,0,P|436:216|344:248,1,155,0|0,1:0|0:0,0:0:0:0:
249,248,31345,1,0,0:0:0:0:
209,244,31427,1,0,0:0:0:0:
168,240,31510,1,0,0:0:0:0:
48,231,31675,2,0,P|32:266|41:303,1,77.5,0|8,1:0|0:0,0:0:0:0:
156,328,32004,1,2,0:0:0:0:
274,328,32169,6,0,P|289:293|280:256,1,77.5,0|8,1:0|0:0,0:0:0:0:
236,172,32499,1,8,0:0:0:0:
196,88,32664,2,0,P|176:97|152:104,1,38.75,0|8,1:0|0:0,0:0:0:0:
284,88,32911,2,0,P|303:78|328:72,1,38.75,0|8,0:0|0:0,0:0:0:0:
412,80,33158,1,8,0:0:0:0:
404,96,33241,1,8,0:0:0:0:
396,112,33323,1,8,0:0:0:0:
388,128,33405,1,8,0:0:0:0:
256,192,33488,12,0,35466,0:0:0:0:
