osu file format v13

[General]
AudioFilename: Deadmau5 - Orange File.mp3
AudioLeadIn: 0
PreviewTime: 22938
Countdown: 0
SampleSet: Soft
StackLeniency: 0.7
Mode: 0
LetterboxInBreaks: 0
WidescreenStoryboard: 0

[Editor]
DistanceSpacing: 1.2
BeatDivisor: 4
GridSize: 4
TimelineZoom: 2.3

[Metadata]
Title:Orange File
TitleUnicode:Orange File
Artist:deadmau5
ArtistUnicode:deadmau5
Creator:Jethh
Version:Hard
Source:
Tags:techno dubstep dnb drum and bass Gabe Nozhomi Veus Project 56 deadmaus
BeatmapID:386139
BeatmapSetID:157754

[Difficulty]
HPDrainRate:6
CircleSize:3.8
OverallDifficulty:6
ApproachRate:7.5
SliderMultiplier:1.4
SliderTickRate:1

[Events]
//Background and Video events
0,0,"Deadmau5 - Orange File %Background3%.jpg",0,0
//Break Periods
//Storyboard Layer 0 (Background)
//Storyboard Layer 1 (Fail)
//Storyboard Layer 2 (Pass)
//Storyboard Layer 3 (Foreground)
//Storyboard Sound Samples

[TimingPoints]
1840,329.67032967033,4,2,1,70,1,0
12059,-100,4,2,1,30,0,0
12389,-100,4,2,1,70,0,0
22609,-100,4,2,1,30,0,0
22938,-100,4,2,1,80,0,1
33488,-100,4,2,1,40,0,0
34147,-100,4,2,1,30,0,0
34807,-100,4,2,1,20,0,0
35466,-100,4,2,1,10,0,0

[Colours]
Combo1 : 255,255,0
Combo2 : 255,128,0
Combo3 : 255,128,128
Combo4 : 128,64,64

[HitObjects]
79,63,1840,6,0,P|127:113|195:123,1,140,0|8,1:0|0:0,0:0:0:0:
292,119,2334,1,0,1:0:0:0:
408,240,2664,1,8,0:0:0:0:
328,272,2829,1,8,0:0:0:0:
160,296,3158,6,0,B|173:213|249:201,1,140,0|8,1:0|0:0,0:0:0:0:
345,182,3653,1,0,1:0:0:0:
192,112,3982,1,8,0:0:0:0:
120,160,4147,1,0,1:0:0:0:
256,264,4477,1,8,0:0:0:0:
448,224,5301,6,0,L|448:154,1,70,0|8,1:0|0:0,0:0:0:0:
304,72,5796,2,0,P|235:68|179:107,1,140,0|8,1:0|0:0,0:0:0:0:
152,184,6290,1,0,1:0:0:0:
208,248,6455,1,0,0:0:0:0:
291,235,6620,2,0,P|246:324|151:307,1,210,8|0,0:0|1:0,0:0:0:0:
67,161,7444,5,8,0:0:0:0:
35,81,7609,1,0,1:0:0:0:
202,81,7938,2,0,L|246:144,1,70,8|8,0:0|0:0,0:0:0:0:
344,272,8433,1,0,1:0:0:0:
440,134,8763,5,8,0:0:0:0:
495,197,8927,1,0,1:0:0:0:
344,272,9257,1,8,0:0:0:0:
344,272,9422,1,0,1:0:0:0:
256,127,9752,6,0,P|320:104|379:141,1,140,0|8,1:0|0:0,0:0:0:0:
312,192,10246,2,0,P|259:245|273:317,1,140,0|8,1:0|0:0,0:0:0:0:
504,224,11070,5,0,1:0:0:0:
448,160,11235,1,0,1:0:0:0:
396,92,11400,1,0,1:0:0:0:
232,56,11730,2,0,L|170:89,1,70,8|0,0:0|1:0,0:0:0:0:
114,151,12059,2,8,L|133:189,3,35
152,217,12389,6,0,P|208:257|276:268,1,140,0|8,1:0|0:0,0:0:0:0:
360,272,12883,1,0,1:0:0:0:
384,104,13213,1,8,0:0:0:0:
446,47,13378,1,8,0:0:0:0:
286,92,13708,6,0,P|238:42|170:41,1,140,0|8,1:0|0:0,0:0:0:0:
93,73,14202,1,0,1:0:0:0:
40,232,14532,1,8,0:0:0:0:
88,304,14697,1,0,1:0:0:0:
288,352,15026,1,8,0:0:0:0:
168,168,15850,6,0,L|168:98,1,70,0|8,1:0|0:0,0:0:0:0:
327,56,16345,2,0,P|332:124|375:178,1,140,0|8,1:0|0:0,0:0:0:0:
443,229,16840,1,0,1:0:0:0:
421,309,17004,1,0,0:0:0:0:
340,335,17169,2,0,P|241:330|206:237,1,210,8|0,0:0|1:0,0:0:0:0:
209,69,17993,5,8,0:0:0:0:
130,98,18158,1,0,1:0:0:0:
34,236,18488,2,0,L|111:213,1,70,8|8,0:0|0:0,0:0:0:0:
260,161,18982,5,0,1:0:0:0:
408,240,19312,1,8,0:0:0:0:
408,240,19477,1,0,1:0:0:0:
256,320,19807,1,8,0:0:0:0:
256,320,19971,1,0,1:0:0:0:
95,271,20301,6,0,P|70:210|77:137,1,140,0|8,1:0|0:0,0:0:0:0:
140,81,20796,2,0,P|206:93|267:135,1,140,0|8,1:0|0:0,0:0:0:0:
464,288,21620,5,0,1:0:0:0:
384,320,21785,1,0,1:0:0:0:
328,256,21949,1,0,1:0:0:0:
432,128,22279,2,0,L|362:116,1,70,8|0,0:0|0:0,0:0:0:0:
279,105,22609,2,8,L|248:137,3,35
230,164,22938,6,0,P|180:213|116:239,1,140,0|8,1:0|0:0,0:0:0:0:
36,266,23433,1,0,1:0:0:0:
104,112,23763,2,0,L|144:48,1,70,8|8,0:0|0:0,0:0:0:0:
312,40,24257,5,0,1:0:0:0:
332,208,24587,1,8,0:0:0:0:
280,272,24752,1,0,1:0:0:0:
116,272,25081,1,8,0:0:0:0:
112,188,25246,1,0,1:0:0:0:
196,43,25576,6,0,P|275:133|242:215,1,210,8|8,0:0|0:0,0:0:0:0:
19,312,26565,1,8,0:0:0:0:
88,159,26894,5,0,1:0:0:0:
88,159,27059,1,0,0:0:0:0:
238,234,27389,1,0,1:0:0:0:
238,234,27554,1,0,0:0:0:0:
301,78,27883,1,0,1:0:0:0:
301,78,28048,1,0,0:0:0:0:
301,78,28213,5,0,1:0:0:0:
136,48,28543,1,8,0:0:0:0:
136,48,28708,2,0,P|87:96|89:164,1,140,0|0,1:0|0:0,0:0:0:0:
120,240,29202,1,8,0:0:0:0:
272,312,29532,6,0,P|289:245|340:199,1,140,0|8,1:0|0:0,0:0:0:0:
424,168,30026,1,0,1:0:0:0:
280,80,30356,1,8,0:0:0:0:
208,32,30521,1,0,1:0:0:0:
112,168,30850,1,8,0:0:0:0:
320,64,31675,6,0,L|256:96,1,70,0|8,1:0|0:0,0:0:0:0:
111,168,32169,1,0,1:0:0:0:
224,288,32499,1,8,0:0:0:0:
200,208,32664,2,0,L|190:173,1,35,0|8,1:0|0:0,0:0:0:0:
274,168,32911,2,0,L|302:121,1,35,0|8,0:0|0:0,0:0:0:0:
220,94,33158,2,0,L|216:53,3,35
256,192,33488,12,0,35466,0:0:0:0:
