osu file format v14

[General]
AudioFilename: [SDVX II ] Nyan Cat [INF].mp3
AudioLeadIn: 0
PreviewTime: 42241
Countdown: 0
SampleSet: Soft
StackLeniency: 0.7
Mode: 3
LetterboxInBreaks: 0
SpecialStyle: 0
WidescreenStoryboard: 0

[Editor]
Bookmarks: 24811,31255,38860,52593,67698,89565
DistanceSpacing: 0.9
BeatDivisor: 8
GridSize: 32
TimelineZoom: 1.5

[Metadata]
Title:Nyan Cat
TitleUnicode:Nyan Cat
Artist:daniwellP feat. Momone Momo
ArtistUnicode:daniwellP feat. 桃音モモ
Creator:Midge
Version:Ruminya~ MX
Source:SOUND VOLTEX BOOTH
Tags:Haneure Pew Rumia- NessieSP Murako Izuriha Kuo Kyoka Nukedboom meow pop tart meme remix TEK-A-RHYTHM utau Nyanyanyanyanyanyanya!
BeatmapID:455241
BeatmapSetID:165533

[Difficulty]
HPDrainRate:8
CircleSize:7
OverallDifficulty:8
ApproachRate:9
SliderMultiplier:1.8
SliderTickRate:1

[Events]
//Background and Video events
0,0,"7f5eb44a9751a0cd44c5e75321f1b1cf.png",0,0
//Break Periods
//Storyboard Layer 0 (Background)
//Storyboard Layer 1 (Fail)
//Storyboard Layer 2 (Pass)
//Storyboard Layer 3 (Foreground)
//Storyboard Sound Samples

[TimingPoints]
5058,422.535211267606,4,2,1,30,1,0
10128,-100,4,2,1,30,0,0
10973,-100,4,2,1,30,0,0
13508,-100,4,2,1,30,0,0
14142,-100,4,2,1,30,0,0
14565,-100,4,2,1,30,0,0
15621,-100,4,2,1,30,0,0
16255,-100,4,2,1,30,0,0
17100,-100,4,2,1,30,0,0
21114,-100,4,2,1,30,0,0
22170,-100,4,2,1,30,0,0
27029,-100,4,2,1,30,0,0
27452,-100,4,2,1,30,0,0
28508,-100,4,2,1,30,0,0
28931,-100,4,2,1,30,0,0
31255,-100,4,2,1,30,0,0
32945,-100,4,2,1,30,0,0
35903,-400,4,2,1,30,0,0
36114,-100,4,2,1,30,0,0
37170,-100,4,2,1,30,0,0
40550,-100,4,2,1,30,0,0
41396,-100,4,2,1,30,0,0
53649,-100,4,2,1,30,0,0
54494,-100,4,2,1,30,0,0
55550,-100,4,2,1,30,0,0
56607,-100,4,2,1,30,0,0
58297,-100,4,2,1,30,0,0
59987,-100,4,2,1,30,0,0
61677,-100,4,2,1,30,0,0
62945,-100,4,2,1,30,0,0
64001,-100,4,2,1,30,0,0
64424,-100,4,2,1,30,0,0
67170,-100,4,2,1,30,0,0
67381,-100,4,2,1,30,0,0
68649,-100,4,2,1,30,0,0
68860,-100,4,2,1,30,0,0
69072,-100,4,2,1,30,0,0
69705,-100,4,2,1,30,0,0
70340,-200,4,2,1,30,0,0
70551,-100,4,2,1,30,0,0
73508,-100,4,2,1,30,0,0
74142,-100,4,2,1,30,0,0
75198,-100,4,2,1,30,0,0
76255,-100,4,2,1,30,0,0
81959,-100,4,2,1,30,0,0
83015,-100,4,2,1,30,0,0
84917,-100,4,2,1,30,0,0
85973,-100,4,2,1,30,0,0
86396,-100,4,2,1,30,0,0
86818,-100,4,2,1,30,0,0
87452,-100,4,2,1,30,0,0
88297,-100,4,2,1,30,0,0
92945,-100,4,2,1,10,0,0

[HitObjects]
256,192,410,5,0,0:0:0:0:
256,192,1255,1,0,0:0:0:0:
256,192,1413,1,0,0:0:0:0:
475,192,2417,1,4,0:0:0:0:
36,192,2417,1,0,0:0:0:0:
475,192,2839,1,4,0:0:0:0:
36,192,2839,1,4,0:0:0:0:
329,192,2945,1,0,0:0:0:0:
182,192,3262,1,0,0:0:0:0:
475,192,3737,1,0,0:0:0:0:
36,192,3737,1,0,0:0:0:0:
109,192,4212,1,0,0:0:0:0:
256,192,4265,1,0,0:0:0:0:
402,192,4318,1,0,0:0:0:0:
36,192,4635,1,0,0:0:0:0:
182,192,4661,1,0,0:0:0:0:
329,192,4688,1,0,0:0:0:0:
475,192,4714,1,0,0:0:0:0:
36,192,5057,1,0,0:0:0:0:
182,192,5057,128,0,5163:0:0:0:0:
256,192,5163,128,0,5269:0:0:0:0:
329,192,5269,128,0,5374:0:0:0:0:
475,192,5480,128,0,5691:0:0:0:0:
36,192,5480,1,0,0:0:0:0:
182,192,5586,128,0,5691:0:0:0:0:
36,192,5691,128,0,5797:0:0:0:0:
182,192,5797,128,0,5903:0:0:0:0:
256,192,5903,128,0,6008:0:0:0:0:
329,192,6008,128,0,6114:0:0:0:0:
402,192,6114,128,0,6219:0:0:0:0:
475,192,6219,128,0,6325:0:0:0:0:
402,192,6325,128,0,6431:0:0:0:0:
109,192,6325,1,0,0:0:0:0:
256,192,6431,128,0,6536:0:0:0:0:
402,192,6536,128,0,6642:0:0:0:0:
36,192,6748,1,4,0:0:0:0:
109,192,6800,1,0,0:0:0:0:
256,192,6853,1,0,0:0:0:0:
402,192,6906,1,0,0:0:0:0:
475,192,6959,1,0,0:0:0:0:
329,192,7065,128,0,7170:0:0:0:0:
182,192,7170,128,0,7276:0:0:0:0:
36,192,7170,1,0,0:0:0:0:
475,192,7170,1,0,0:0:0:0:
329,192,7381,128,0,7487:0:0:0:0:
256,192,7381,1,0,0:0:0:0:
109,192,7487,1,0,0:0:0:0:
475,192,7593,128,0,7698:0:0:0:0:
36,192,7593,1,0,0:0:0:0:
402,192,7593,1,0,0:0:0:0:
256,192,7698,128,0,7804:0:0:0:0:
402,192,7804,128,0,7910:0:0:0:0:
182,192,7804,1,0,0:0:0:0:
109,192,7910,128,0,8015:0:0:0:0:
329,192,7910,1,0,0:0:0:0:
256,192,8015,128,0,8121:0:0:0:0:
36,192,8015,1,0,0:0:0:0:
475,192,8015,1,0,0:0:0:0:
182,192,8121,128,0,8227:0:0:0:0:
329,192,8227,128,0,8332:0:0:0:0:
109,192,8227,1,0,0:0:0:0:
475,192,8332,128,0,8438:0:0:0:0:
109,192,8332,1,0,0:0:0:0:
256,192,8438,1,4,0:0:0:0:
36,192,8438,1,0,0:0:0:0:
402,192,8438,1,0,0:0:0:0:
182,192,8649,1,0,0:0:0:0:
329,192,8860,1,0,0:0:0:0:
475,192,8860,1,0,0:0:0:0:
36,192,8860,1,0,0:0:0:0:
182,192,8966,1,0,0:0:0:0:
109,192,9072,1,0,0:0:0:0:
256,192,9177,1,0,0:0:0:0:
182,192,9283,1,4,0:0:0:0:
329,192,9388,1,0,0:0:0:0:
475,192,9388,1,0,0:0:0:0:
256,192,9494,1,0,0:0:0:0:
475,192,9705,1,0,0:0:0:0:
329,192,9705,1,0,0:0:0:0:
36,192,9705,1,0,0:0:0:0:
182,192,9917,1,0,0:0:0:0:
402,192,10128,128,4,10339:0:0:0:0:
256,192,10128,1,4,0:0:0:0:
475,192,10128,1,0,0:0:0:0:
109,192,10339,1,0,0:0:0:0:
329,192,10445,1,0,0:0:0:0:
182,192,10550,1,0,0:0:0:0:
475,192,10550,1,0,0:0:0:0:
36,192,10550,1,0,0:0:0:0:
402,192,10656,1,0,0:0:0:0:
109,192,10762,1,0,0:0:0:0:
329,192,10867,1,0,0:0:0:0:
182,192,10973,1,4,0:0:0:0:
475,192,10973,1,0,0:0:0:0:
402,192,11079,1,0,0:0:0:0:
109,192,11184,1,0,0:0:0:0:
329,192,11290,1,0,0:0:0:0:
256,192,11396,1,0,0:0:0:0:
36,192,11396,1,0,0:0:0:0:
475,192,11396,1,0,0:0:0:0:
109,192,11501,1,0,0:0:0:0:
329,192,11501,1,0,0:0:0:0:
182,192,11607,1,0,0:0:0:0:
402,192,11607,1,0,0:0:0:0:
329,192,11712,1,0,0:0:0:0:
109,192,11712,1,0,0:0:0:0:
36,192,11818,1,4,0:0:0:0:
256,192,11818,1,4,0:0:0:0:
475,192,11818,128,0,12029:0:0:0:0:
329,192,12029,128,0,12241:0:0:0:0:
182,192,12029,1,0,0:0:0:0:
36,192,12241,128,0,12346:0:0:0:0:
402,192,12241,1,0,0:0:0:0:
256,192,12346,128,0,12452:0:0:0:0:
109,192,12452,128,0,12558:0:0:0:0:
475,192,12452,1,0,0:0:0:0:
329,192,12558,128,0,12663:0:0:0:0:
182,192,12663,128,4,12769:0:0:0:0:
36,192,12663,1,0,0:0:0:0:
402,192,12769,128,0,12874:0:0:0:0:
256,192,12874,128,0,12980:0:0:0:0:
109,192,12874,1,0,0:0:0:0:
475,192,12980,128,0,13086:0:0:0:0:
329,192,13086,128,0,13191:0:0:0:0:
36,192,13086,1,0,0:0:0:0:
182,192,13191,128,0,13297:0:0:0:0:
36,192,13297,128,0,13403:0:0:0:0:
256,192,13297,1,0,0:0:0:0:
402,192,13403,128,0,13508:0:0:0:0:
109,192,13508,128,4,13719:0:0:0:0:
475,192,13508,1,0,0:0:0:0:
256,192,13508,1,0,0:0:0:0:
329,192,13719,1,0,0:0:0:0:
182,192,13825,1,0,0:0:0:0:
402,192,13931,1,0,0:0:0:0:
36,192,13931,1,0,0:0:0:0:
109,192,13931,1,0,0:0:0:0:
256,192,14036,1,0,0:0:0:0:
475,192,14142,1,0,0:0:0:0:
329,192,14248,1,0,0:0:0:0:
36,192,14353,1,4,0:0:0:0:
109,192,14406,1,0,0:0:0:0:
256,192,14459,1,0,0:0:0:0:
402,192,14512,1,0,0:0:0:0:
475,192,14565,1,0,0:0:0:0:
109,192,14670,1,0,0:0:0:0:
182,192,14670,1,0,0:0:0:0:
402,192,14776,1,0,0:0:0:0:
329,192,14776,1,0,0:0:0:0:
36,192,14881,1,0,0:0:0:0:
109,192,14881,1,0,0:0:0:0:
256,192,14987,1,0,0:0:0:0:
475,192,14987,1,0,0:0:0:0:
402,192,15093,1,0,0:0:0:0:
182,192,15093,1,0,0:0:0:0:
329,192,15198,1,4,0:0:0:0:
109,192,15198,1,4,0:0:0:0:
182,192,15410,1,0,0:0:0:0:
402,192,15621,1,0,0:0:0:0:
475,192,15621,1,0,0:0:0:0:
36,192,15621,1,0,0:0:0:0:
256,192,15727,1,0,0:0:0:0:
329,192,15938,1,0,0:0:0:0:
182,192,16043,1,4,0:0:0:0:
36,192,16043,1,0,0:0:0:0:
402,192,16149,1,0,0:0:0:0:
256,192,16255,1,0,0:0:0:0:
109,192,16255,128,0,16466:0:0:0:0:
329,192,16466,1,0,0:0:0:0:
475,192,16466,1,0,0:0:0:0:
36,192,16466,1,0,0:0:0:0:
182,192,16466,128,0,16888:0:0:0:0:
402,192,16677,128,4,16888:0:0:0:0:
36,192,16888,128,4,17311:0:0:0:0:
256,192,16888,1,4,0:0:0:0:
475,192,17100,1,0,0:0:0:0:
402,192,17205,1,0,0:0:0:0:
109,192,17311,1,0,0:0:0:0:
329,192,17311,1,0,0:0:0:0:
256,192,17311,1,0,0:0:0:0:
182,192,17417,1,0,0:0:0:0:
475,192,17522,1,0,0:0:0:0:
402,192,17628,1,0,0:0:0:0:
36,192,17734,1,4,0:0:0:0:
256,192,17734,1,0,0:0:0:0:
109,192,17839,1,0,0:0:0:0:
329,192,17839,1,0,0:0:0:0:
475,192,17945,1,0,0:0:0:0:
256,192,17945,1,0,0:0:0:0:
402,192,18050,1,0,0:0:0:0:
182,192,18050,1,0,0:0:0:0:
329,192,18156,128,0,18579:0:0:0:0:
36,192,18156,128,0,18579:0:0:0:0:
109,192,18156,1,0,0:0:0:0:
182,192,18367,128,4,18579:0:0:0:0:
475,192,18367,128,4,18579:0:0:0:0:
256,192,18473,1,0,0:0:0:0:
109,192,18579,128,4,18790:0:0:0:0:
402,192,18579,1,4,0:0:0:0:
402,192,18790,128,0,19001:0:0:0:0:
256,192,18790,1,0,0:0:0:0:
182,192,19001,128,0,19107:0:0:0:0:
329,192,19001,1,0,0:0:0:0:
475,192,19001,1,0,0:0:0:0:
36,192,19107,128,0,19212:0:0:0:0:
182,192,19212,128,0,19318:0:0:0:0:
256,192,19212,1,0,0:0:0:0:
36,192,19318,128,0,19424:0:0:0:0:
329,192,19424,128,4,19529:0:0:0:0:
109,192,19424,1,0,0:0:0:0:
475,192,19529,128,0,19635:0:0:0:0:
329,192,19635,128,0,19741:0:0:0:0:
256,192,19635,1,0,0:0:0:0:
475,192,19741,128,0,19846:0:0:0:0:
402,192,19846,1,0,0:0:0:0:
36,192,19846,1,0,0:0:0:0:
329,192,19899,1,0,0:0:0:0:
256,192,19952,1,0,0:0:0:0:
182,192,20005,1,0,0:0:0:0:
109,192,20058,1,4,0:0:0:0:
36,192,20110,1,0,0:0:0:0:
329,192,20163,1,0,0:0:0:0:
182,192,20269,1,4,0:0:0:0:
36,192,20269,1,4,0:0:0:0:
256,192,20480,1,0,0:0:0:0:
109,192,20586,1,0,0:0:0:0:
329,192,20691,1,0,0:0:0:0:
475,192,20691,1,0,0:0:0:0:
36,192,20691,1,0,0:0:0:0:
182,192,20797,1,0,0:0:0:0:
402,192,20903,1,0,0:0:0:0:
256,192,21008,1,0,0:0:0:0:
109,192,21114,128,4,21959:0:0:0:0:
475,192,21114,1,4,0:0:0:0:
36,192,21114,1,0,0:0:0:0:
329,192,21219,1,0,0:0:0:0:
402,192,21325,128,0,21959:0:0:0:0:
182,192,21325,1,0,0:0:0:0:
36,192,21536,1,0,0:0:0:0:
475,192,21536,1,0,0:0:0:0:
256,192,21536,1,0,0:0:0:0:
36,192,21748,1,4,0:0:0:0:
256,192,21748,1,4,0:0:0:0:
475,192,21748,1,0,0:0:0:0:
182,192,21959,1,4,0:0:0:0:
329,192,21959,1,4,0:0:0:0:
36,192,21959,1,0,0:0:0:0:
475,192,21959,1,0,0:0:0:0:
329,192,22170,128,0,22381:0:0:0:0:
256,192,22170,1,0,0:0:0:0:
402,192,22276,128,0,22381:0:0:0:0:
475,192,22381,1,0,0:0:0:0:
36,192,22381,1,0,0:0:0:0:
109,192,22381,1,0,0:0:0:0:
182,192,22593,128,0,22804:0:0:0:0:
256,192,22593,1,0,0:0:0:0:
109,192,22698,128,0,22804:0:0:0:0:
329,192,22804,128,4,23015:0:0:0:0:
475,192,22804,1,0,0:0:0:0:
402,192,22910,128,0,23015:0:0:0:0:
109,192,23015,128,0,23227:0:0:0:0:
256,192,23015,1,0,0:0:0:0:
36,192,23121,128,0,23227:0:0:0:0:
402,192,23227,128,0,23438:0:0:0:0:
182,192,23227,1,0,0:0:0:0:
329,192,23227,1,0,0:0:0:0:
475,192,23332,128,0,23438:0:0:0:0:
256,192,23438,128,0,23649:0:0:0:0:
109,192,23438,1,0,0:0:0:0:
329,192,23543,1,0,0:0:0:0:
182,192,23649,128,4,24072:0:0:0:0:
475,192,23649,1,4,0:0:0:0:
36,192,23649,1,0,0:0:0:0:
329,192,23860,128,0,24072:0:0:0:0:
475,192,24072,1,0,0:0:0:0:
36,192,24072,1,0,0:0:0:0:
109,192,24072,1,0,0:0:0:0:
329,192,24177,1,0,0:0:0:0:
36,192,24283,1,0,0:0:0:0:
182,192,24388,1,0,0:0:0:0:
475,192,24494,1,4,0:0:0:0:
36,192,24494,1,4,0:0:0:0:
182,192,24600,1,0,0:0:0:0:
329,192,24600,1,0,0:0:0:0:
36,192,24705,1,0,0:0:0:0:
475,192,24705,1,0,0:0:0:0:
329,192,24811,1,0,0:0:0:0:
182,192,24811,1,0,0:0:0:0:
109,192,24917,1,0,0:0:0:0:
402,192,24917,1,0,0:0:0:0:
109,192,25058,1,0,0:0:0:0:
402,192,25058,1,0,0:0:0:0:
109,192,25198,1,0,0:0:0:0:
402,192,25198,1,0,0:0:0:0:
182,192,25339,1,4,0:0:0:0:
329,192,25339,1,0,0:0:0:0:
256,192,25550,1,0,0:0:0:0:
402,192,25656,1,0,0:0:0:0:
36,192,25762,1,0,0:0:0:0:
182,192,25762,1,0,0:0:0:0:
475,192,25762,1,0,0:0:0:0:
256,192,25973,1,0,0:0:0:0:
402,192,26079,1,0,0:0:0:0:
182,192,26184,1,4,0:0:0:0:
475,192,26184,1,0,0:0:0:0:
329,192,26290,1,0,0:0:0:0:
109,192,26396,1,0,0:0:0:0:
256,192,26501,1,0,0:0:0:0:
36,192,26607,1,0,0:0:0:0:
475,192,26607,1,0,0:0:0:0:
329,192,26607,1,0,0:0:0:0:
182,192,26712,1,0,0:0:0:0:
329,192,26818,1,0,0:0:0:0:
182,192,26924,1,0,0:0:0:0:
36,192,27029,128,4,27452:0:0:0:0:
402,192,27029,1,0,0:0:0:0:
475,192,27029,1,0,0:0:0:0:
256,192,27241,1,0,0:0:0:0:
182,192,27346,1,0,0:0:0:0:
109,192,27452,1,0,0:0:0:0:
475,192,27452,1,0,0:0:0:0:
329,192,27452,1,0,0:0:0:0:
182,192,27558,1,0,0:0:0:0:
402,192,27558,1,0,0:0:0:0:
256,192,27663,1,0,0:0:0:0:
182,192,27769,1,0,0:0:0:0:
402,192,27769,1,0,0:0:0:0:
109,192,27874,1,4,0:0:0:0:
329,192,27874,1,4,0:0:0:0:
36,192,27874,128,0,27980:0:0:0:0:
182,192,27980,128,0,28086:0:0:0:0:
109,192,28086,128,0,28191:0:0:0:0:
256,192,28191,128,0,28297:0:0:0:0:
329,192,28297,1,0,0:0:0:0:
475,192,28297,1,0,0:0:0:0:
36,192,28297,1,0,0:0:0:0:
182,192,28508,128,4,28719:0:0:0:0:
402,192,28508,128,4,28719:0:0:0:0:
475,192,28719,1,4,0:0:0:0:
36,192,28719,1,0,0:0:0:0:
256,192,28719,1,0,0:0:0:0:
182,192,28931,128,0,29142:0:0:0:0:
256,192,29036,128,0,29142:0:0:0:0:
475,192,29142,1,0,0:0:0:0:
329,192,29142,128,0,29353:0:0:0:0:
36,192,29142,1,0,0:0:0:0:
182,192,29353,128,0,29565:0:0:0:0:
109,192,29353,1,0,0:0:0:0:
256,192,29459,128,0,29565:0:0:0:0:
329,192,29565,128,4,29776:0:0:0:0:
402,192,29565,1,0,0:0:0:0:
256,192,29670,128,0,29776:0:0:0:0:
182,192,29776,128,0,29987:0:0:0:0:
109,192,29776,1,0,0:0:0:0:
256,192,29881,128,0,29987:0:0:0:0:
329,192,29987,128,0,30410:0:0:0:0:
36,192,29987,1,0,0:0:0:0:
475,192,30093,1,0,0:0:0:0:
182,192,30198,128,0,30410:0:0:0:0:
109,192,30198,1,0,0:0:0:0:
402,192,30304,1,0,0:0:0:0:
109,192,30410,128,4,30832:0:0:0:0:
36,192,30410,1,4,0:0:0:0:
475,192,30410,1,0,0:0:0:0:
402,192,30621,128,4,30832:0:0:0:0:
475,192,30621,1,4,0:0:0:0:
36,192,30621,1,0,0:0:0:0:
329,192,30832,1,0,0:0:0:0:
182,192,30832,1,0,0:0:0:0:
256,192,30832,1,0,0:0:0:0:
36,192,31043,1,4,0:0:0:0:
329,192,31043,1,4,0:0:0:0:
109,192,31149,1,0,0:0:0:0:
402,192,31149,1,0,0:0:0:0:
182,192,31255,128,4,32100:0:0:0:0:
475,192,31255,128,0,32100:0:0:0:0:
402,192,31360,1,0,0:0:0:0:
329,192,31466,1,0,0:0:0:0:
36,192,31572,1,0,0:0:0:0:
109,192,31677,1,0,0:0:0:0:
402,192,31783,1,0,0:0:0:0:
329,192,31888,1,0,0:0:0:0:
36,192,31994,1,0,0:0:0:0:
109,192,32100,1,4,0:0:0:0:
402,192,32100,1,4,0:0:0:0:
329,192,32311,1,4,0:0:0:0:
182,192,32311,1,4,0:0:0:0:
402,192,32417,1,0,0:0:0:0:
109,192,32417,1,0,0:0:0:0:
36,192,32522,1,0,0:0:0:0:
475,192,32522,1,0,0:0:0:0:
256,192,32522,128,0,32945:0:0:0:0:
182,192,32734,1,4,0:0:0:0:
329,192,32734,1,4,0:0:0:0:
109,192,32839,1,0,0:0:0:0:
402,192,32839,1,0,0:0:0:0:
475,192,32945,1,4,0:0:0:0:
36,192,32945,128,4,33262:0:0:0:0:
182,192,33050,128,0,33367:0:0:0:0:
329,192,33156,128,0,33473:0:0:0:0:
475,192,33262,128,0,33579:0:0:0:0:
36,192,33367,128,0,33790:0:0:0:0:
182,192,33473,128,0,33790:0:0:0:0:
329,192,33579,128,0,33790:0:0:0:0:
475,192,33684,128,0,33790:0:0:0:0:
256,192,33790,128,4,34212:0:0:0:0:
109,192,34001,1,0,0:0:0:0:
182,192,34107,1,0,0:0:0:0:
329,192,34212,1,0,0:0:0:0:
475,192,34212,1,0,0:0:0:0:
36,192,34212,128,0,34318:0:0:0:0:
402,192,34318,128,0,34424:0:0:0:0:
109,192,34424,128,0,34529:0:0:0:0:
256,192,34424,1,0,0:0:0:0:
475,192,34529,128,0,34635:0:0:0:0:
182,192,34635,128,4,34741:0:0:0:0:
329,192,34635,1,0,0:0:0:0:
402,192,34741,128,0,34846:0:0:0:0:
109,192,34846,128,0,34952:0:0:0:0:
256,192,34846,1,0,0:0:0:0:
329,192,34952,128,0,35058:0:0:0:0:
36,192,35058,128,0,35480:0:0:0:0:
475,192,35058,128,0,35480:0:0:0:0:
182,192,35058,1,0,0:0:0:0:
182,192,35269,128,0,35480:0:0:0:0:
329,192,35374,128,0,35480:0:0:0:0:
402,192,35480,1,4,0:0:0:0:
109,192,35480,1,4,0:0:0:0:
256,192,35480,1,0,0:0:0:0:
329,192,35691,1,0,0:0:0:0:
182,192,35903,128,2,36114:0:0:0:0:
36,192,35903,128,2,36114:0:0:0:0:
475,192,35903,1,0,0:0:0:0:
329,192,36325,1,4,0:0:0:0:
475,192,36325,1,0,0:0:0:0:
256,192,36431,1,0,0:0:0:0:
182,192,36536,1,0,0:0:0:0:
36,192,36748,1,0,0:0:0:0:
329,192,36748,1,0,0:0:0:0:
402,192,36748,1,0,0:0:0:0:
182,192,36959,1,0,0:0:0:0:
475,192,37170,1,4,0:0:0:0:
36,192,37170,1,0,0:0:0:0:
329,192,37381,128,0,37487:0:0:0:0:
256,192,37487,128,0,37593:0:0:0:0:
36,192,37593,1,0,0:0:0:0:
475,192,37593,1,0,0:0:0:0:
182,192,37593,128,0,37698:0:0:0:0:
256,192,37698,128,0,37804:0:0:0:0:
109,192,37804,1,0,0:0:0:0:
402,192,37804,1,0,0:0:0:0:
109,192,37910,1,0,0:0:0:0:
402,192,37910,1,0,0:0:0:0:
182,192,38015,1,4,0:0:0:0:
329,192,38015,1,0,0:0:0:0:
36,192,38121,1,0,0:0:0:0:
475,192,38227,1,0,0:0:0:0:
109,192,38332,1,0,0:0:0:0:
402,192,38438,1,0,0:0:0:0:
256,192,38438,1,0,0:0:0:0:
36,192,38438,1,0,0:0:0:0:
182,192,38543,1,0,0:0:0:0:
109,192,38649,1,0,0:0:0:0:
256,192,38755,1,0,0:0:0:0:
329,192,38860,1,0,0:0:0:0:
475,192,38860,1,0,0:0:0:0:
36,192,38860,1,0,0:0:0:0:
36,192,38966,1,0,0:0:0:0:
182,192,39072,128,0,39283:0:0:0:0:
329,192,39283,1,0,0:0:0:0:
475,192,39283,1,0,0:0:0:0:
36,192,39283,1,0,0:0:0:0:
256,192,39388,1,0,0:0:0:0:
109,192,39494,1,0,0:0:0:0:
182,192,39547,1,0,0:0:0:0:
256,192,39600,1,0,0:0:0:0:
329,192,39653,1,0,0:0:0:0:
402,192,39705,1,4,0:0:0:0:
36,192,39705,128,0,40128:0:0:0:0:
109,192,39917,128,0,40128:0:0:0:0:
182,192,40128,1,0,0:0:0:0:
475,192,40128,1,0,0:0:0:0:
329,192,40128,128,0,40550:0:0:0:0:
182,192,40339,128,0,40550:0:0:0:0:
36,192,40550,128,4,41396:0:0:0:0:
475,192,40550,128,4,41396:0:0:0:0:
256,192,40550,1,0,0:0:0:0:
109,192,40656,1,0,0:0:0:0:
402,192,40762,1,0,0:0:0:0:
109,192,40867,1,0,0:0:0:0:
402,192,40973,1,0,0:0:0:0:
182,192,41079,1,0,0:0:0:0:
329,192,41184,1,0,0:0:0:0:
182,192,41290,1,0,0:0:0:0:
109,192,41396,1,4,0:0:0:0:
402,192,41396,1,4,0:0:0:0:
109,192,41501,1,0,0:0:0:0:
402,192,41501,1,0,0:0:0:0:
182,192,41607,1,0,0:0:0:0:
329,192,41607,1,0,0:0:0:0:
329,192,41712,1,0,0:0:0:0:
182,192,41712,1,0,0:0:0:0:
256,192,41818,1,0,0:0:0:0:
36,192,41818,128,0,42241:0:0:0:0:
475,192,41818,128,0,42241:0:0:0:0:
109,192,42029,128,4,42241:0:0:0:0:
402,192,42029,128,4,42241:0:0:0:0:
182,192,42241,1,4,0:0:0:0:
329,192,42241,1,4,0:0:0:0:
256,192,42241,128,0,42663:0:0:0:0:
109,192,42452,128,0,42663:0:0:0:0:
402,192,42452,128,0,42663:0:0:0:0:
36,192,42663,1,0,0:0:0:0:
182,192,42663,1,0,0:0:0:0:
329,192,42769,1,0,0:0:0:0:
402,192,42769,1,0,0:0:0:0:
256,192,42874,1,0,0:0:0:0:
109,192,42874,1,0,0:0:0:0:
402,192,42980,1,0,0:0:0:0:
475,192,42980,1,0,0:0:0:0:
182,192,43086,1,4,0:0:0:0:
36,192,43086,1,0,0:0:0:0:
256,192,43191,1,0,0:0:0:0:
329,192,43297,1,0,0:0:0:0:
475,192,43297,1,0,0:0:0:0:
36,192,43508,1,0,0:0:0:0:
402,192,43508,1,0,0:0:0:0:
109,192,43561,1,0,0:0:0:0:
182,192,43614,1,0,0:0:0:0:
256,192,43667,1,0,0:0:0:0:
329,192,43719,1,0,0:0:0:0:
475,192,43719,1,0,0:0:0:0:
36,192,43931,1,4,0:0:0:0:
182,192,43931,1,0,0:0:0:0:
182,192,44036,1,0,0:0:0:0:
36,192,44036,1,0,0:0:0:0:
402,192,44142,1,0,0:0:0:0:
256,192,44248,1,0,0:0:0:0:
36,192,44353,1,0,0:0:0:0:
182,192,44459,1,0,0:0:0:0:
475,192,44565,1,0,0:0:0:0:
329,192,44670,1,0,0:0:0:0:
36,192,44776,128,4,45198:0:0:0:0:
182,192,44776,1,0,0:0:0:0:
256,192,44881,1,0,0:0:0:0:
402,192,44987,1,0,0:0:0:0:
402,192,45093,1,0,0:0:0:0:
475,192,45198,1,0,0:0:0:0:
329,192,45198,1,0,0:0:0:0:
109,192,45410,1,0,0:0:0:0:
182,192,45462,1,0,0:0:0:0:
256,192,45515,1,0,0:0:0:0:
329,192,45568,1,0,0:0:0:0:
402,192,45621,1,4,0:0:0:0:
475,192,45621,128,4,45832:0:0:0:0:
182,192,45832,1,0,0:0:0:0:
36,192,45832,1,0,0:0:0:0:
109,192,45938,1,0,0:0:0:0:
256,192,45938,1,0,0:0:0:0:
182,192,46043,1,0,0:0:0:0:
329,192,46043,1,0,0:0:0:0:
182,192,46255,1,0,0:0:0:0:
329,192,46255,1,0,0:0:0:0:
182,192,46360,1,0,0:0:0:0:
329,192,46360,1,0,0:0:0:0:
109,192,46466,128,4,46572:0:0:0:0:
402,192,46572,128,0,46677:0:0:0:0:
182,192,46677,128,0,46783:0:0:0:0:
329,192,46783,128,0,46888:0:0:0:0:
109,192,46888,128,0,46994:0:0:0:0:
475,192,46888,1,0,0:0:0:0:
36,192,46888,1,0,0:0:0:0:
402,192,46994,128,0,47100:0:0:0:0:
256,192,47100,128,0,47311:0:0:0:0:
36,192,47311,128,4,47628:0:0:0:0:
475,192,47311,1,4,0:0:0:0:
182,192,47522,128,0,47734:0:0:0:0:
329,192,47628,128,0,47734:0:0:0:0:
475,192,47734,1,0,0:0:0:0:
36,192,47734,1,0,0:0:0:0:
182,192,47839,1,0,0:0:0:0:
329,192,47839,1,0,0:0:0:0:
256,192,47945,1,0,0:0:0:0:
182,192,48156,1,4,0:0:0:0:
329,192,48156,1,0,0:0:0:0:
36,192,48156,128,0,48473:0:0:0:0:
475,192,48156,128,0,48473:0:0:0:0:
109,192,48262,128,0,48579:0:0:0:0:
402,192,48262,128,0,48579:0:0:0:0:
182,192,48367,128,0,48579:0:0:0:0:
329,192,48367,128,0,48579:0:0:0:0:
475,192,48579,1,0,0:0:0:0:
36,192,48579,1,0,0:0:0:0:
36,192,48790,1,0,0:0:0:0:
329,192,48790,1,0,0:0:0:0:
109,192,48896,1,0,0:0:0:0:
402,192,48896,1,0,0:0:0:0:
182,192,49001,1,4,0:0:0:0:
475,192,49001,1,4,0:0:0:0:
36,192,49001,1,0,0:0:0:0:
109,192,49212,1,0,0:0:0:0:
329,192,49212,1,0,0:0:0:0:
402,192,49318,1,0,0:0:0:0:
182,192,49318,1,0,0:0:0:0:
256,192,49424,1,0,0:0:0:0:
475,192,49424,1,0,0:0:0:0:
36,192,49424,1,0,0:0:0:0:
402,192,49635,128,0,49846:0:0:0:0:
182,192,49635,1,0,0:0:0:0:
109,192,49741,128,0,49952:0:0:0:0:
475,192,49846,128,4,50058:0:0:0:0:
329,192,49846,1,0,0:0:0:0:
36,192,49952,128,0,50163:0:0:0:0:
402,192,50058,128,0,50269:0:0:0:0:
182,192,50058,1,0,0:0:0:0:
109,192,50163,128,0,50269:0:0:0:0:
256,192,50269,128,0,50480:0:0:0:0:
182,192,50480,1,0,0:0:0:0:
329,192,50480,1,0,0:0:0:0:
182,192,50586,1,0,0:0:0:0:
329,192,50586,1,0,0:0:0:0:
36,192,50691,128,4,51114:0:0:0:0:
475,192,50691,128,4,51114:0:0:0:0:
402,192,50691,1,0,0:0:0:0:
109,192,50691,1,0,0:0:0:0:
109,192,50903,128,4,51114:0:0:0:0:
402,192,50903,128,4,51114:0:0:0:0:
182,192,51114,1,0,0:0:0:0:
329,192,51114,1,0,0:0:0:0:
182,192,51325,1,0,0:0:0:0:
329,192,51325,1,0,0:0:0:0:
36,192,51536,1,4,0:0:0:0:
256,192,51536,1,0,0:0:0:0:
109,192,51642,1,0,0:0:0:0:
329,192,51642,1,0,0:0:0:0:
182,192,51748,1,0,0:0:0:0:
402,192,51748,1,0,0:0:0:0:
256,192,51853,1,0,0:0:0:0:
475,192,51853,1,0,0:0:0:0:
402,192,51959,1,0,0:0:0:0:
182,192,51959,1,0,0:0:0:0:
182,192,52100,1,0,0:0:0:0:
402,192,52100,1,0,0:0:0:0:
402,192,52241,1,0,0:0:0:0:
182,192,52241,1,0,0:0:0:0:
329,192,52381,1,4,0:0:0:0:
36,192,52381,1,0,0:0:0:0:
36,192,52487,1,0,0:0:0:0:
329,192,52487,1,0,0:0:0:0:
182,192,52593,1,0,0:0:0:0:
475,192,52593,1,0,0:0:0:0:
402,192,52698,1,0,0:0:0:0:
109,192,52698,1,0,0:0:0:0:
329,192,52804,1,0,0:0:0:0:
36,192,52804,1,0,0:0:0:0:
36,192,52910,1,0,0:0:0:0:
329,192,52910,1,0,0:0:0:0:
109,192,53015,1,0,0:0:0:0:
402,192,53015,1,0,0:0:0:0:
182,192,53121,1,0,0:0:0:0:
475,192,53121,1,0,0:0:0:0:
402,192,53227,1,4,0:0:0:0:
109,192,53227,1,0,0:0:0:0:
109,192,53332,1,0,0:0:0:0:
402,192,53332,1,0,0:0:0:0:
36,192,53438,128,0,53649:0:0:0:0:
329,192,53438,128,0,53649:0:0:0:0:
109,192,53543,128,0,53649:0:0:0:0:
402,192,53543,128,0,53649:0:0:0:0:
475,192,53649,1,0,0:0:0:0:
182,192,53649,1,0,0:0:0:0:
36,192,53860,128,0,54072:0:0:0:0:
475,192,53966,128,0,54072:0:0:0:0:
256,192,54072,128,4,54283:0:0:0:0:
182,192,54072,1,4,0:0:0:0:
329,192,54072,1,0,0:0:0:0:
109,192,54283,128,0,54494:0:0:0:0:
402,192,54283,1,0,0:0:0:0:
475,192,54494,1,0,0:0:0:0:
402,192,54547,1,0,0:0:0:0:
109,192,54600,1,0,0:0:0:0:
36,192,54653,1,0,0:0:0:0:
182,192,54705,1,0,0:0:0:0:
329,192,54705,1,0,0:0:0:0:
182,192,54811,1,0,0:0:0:0:
329,192,54811,1,0,0:0:0:0:
256,192,54917,1,4,0:0:0:0:
475,192,54917,1,0,0:0:0:0:
36,192,54917,128,0,55128:0:0:0:0:
402,192,55022,128,0,55234:0:0:0:0:
109,192,55128,128,0,55339:0:0:0:0:
329,192,55234,128,0,55339:0:0:0:0:
182,192,55339,1,0,0:0:0:0:
36,192,55339,1,0,0:0:0:0:
475,192,55339,1,0,0:0:0:0:
402,192,55550,128,4,55762:0:0:0:0:
109,192,55550,128,4,55762:0:0:0:0:
256,192,55550,1,0,0:0:0:0:
256,192,55656,1,0,0:0:0:0:
36,192,55762,128,4,55973:0:0:0:0:
475,192,55762,128,0,55973:0:0:0:0:
182,192,55973,128,0,56184:0:0:0:0:
329,192,55973,128,0,56184:0:0:0:0:
109,192,56079,128,0,56184:0:0:0:0:
402,192,56079,128,0,56184:0:0:0:0:
36,192,56184,128,0,56607:0:0:0:0:
475,192,56184,128,0,56607:0:0:0:0:
256,192,56184,1,0,0:0:0:0:
182,192,56396,1,0,0:0:0:0:
329,192,56396,1,0,0:0:0:0:
329,192,56501,1,0,0:0:0:0:
182,192,56501,1,0,0:0:0:0:
109,192,56607,1,4,0:0:0:0:
402,192,56712,1,0,0:0:0:0:
182,192,56818,1,0,0:0:0:0:
329,192,56924,1,0,0:0:0:0:
475,192,57029,128,0,57452:0:0:0:0:
402,192,57135,128,0,57452:0:0:0:0:
36,192,57241,128,0,57452:0:0:0:0:
109,192,57346,128,0,57452:0:0:0:0:
256,192,57452,128,4,57874:0:0:0:0:
182,192,57452,1,4,0:0:0:0:
329,192,57452,1,0,0:0:0:0:
329,192,57663,128,4,57874:0:0:0:0:
182,192,57663,128,4,57874:0:0:0:0:
36,192,57874,1,0,0:0:0:0:
475,192,57874,1,0,0:0:0:0:
109,192,58086,1,4,0:0:0:0:
402,192,58086,1,4,0:0:0:0:
182,192,58191,1,0,0:0:0:0:
475,192,58191,1,0,0:0:0:0:
36,192,58297,1,4,0:0:0:0:
329,192,58297,1,0,0:0:0:0:
402,192,58403,1,0,0:0:0:0:
109,192,58508,1,0,0:0:0:0:
475,192,58614,1,0,0:0:0:0:
182,192,58719,1,0,0:0:0:0:
36,192,58719,1,0,0:0:0:0:
329,192,58719,1,0,0:0:0:0:
402,192,58825,1,0,0:0:0:0:
475,192,58931,1,0,0:0:0:0:
402,192,59036,1,0,0:0:0:0:
329,192,59142,1,4,0:0:0:0:
36,192,59142,128,4,59565:0:0:0:0:
182,192,59142,1,0,0:0:0:0:
109,192,59353,128,4,59565:0:0:0:0:
256,192,59353,1,4,0:0:0:0:
402,192,59459,1,0,0:0:0:0:
182,192,59565,1,0,0:0:0:0:
329,192,59565,1,0,0:0:0:0:
475,192,59565,1,0,0:0:0:0:
256,192,59776,1,4,0:0:0:0:
36,192,59776,1,0,0:0:0:0:
109,192,59881,1,0,0:0:0:0:
329,192,59881,1,0,0:0:0:0:
182,192,59987,128,4,60410:0:0:0:0:
475,192,59987,128,0,60410:0:0:0:0:
402,192,60093,128,0,60410:0:0:0:0:
329,192,60198,128,0,60410:0:0:0:0:
256,192,60304,128,0,60410:0:0:0:0:
36,192,60410,128,0,60832:0:0:0:0:
109,192,60515,128,0,60832:0:0:0:0:
182,192,60621,128,0,60832:0:0:0:0:
256,192,60727,128,0,60832:0:0:0:0:
475,192,60832,128,4,61255:0:0:0:0:
256,192,61043,128,0,61149:0:0:0:0:
36,192,61149,128,0,61255:0:0:0:0:
329,192,61255,128,0,61360:0:0:0:0:
109,192,61360,128,0,61466:0:0:0:0:
402,192,61466,128,0,61677:0:0:0:0:
182,192,61572,128,0,61783:0:0:0:0:
329,192,61677,128,4,61888:0:0:0:0:
109,192,61783,128,0,61994:0:0:0:0:
256,192,61888,128,0,62100:0:0:0:0:
36,192,61994,128,0,62100:0:0:0:0:
182,192,62100,1,0,0:0:0:0:
402,192,62100,1,0,0:0:0:0:
475,192,62100,1,0,0:0:0:0:
329,192,62311,1,0,0:0:0:0:
109,192,62311,1,0,0:0:0:0:
182,192,62417,1,0,0:0:0:0:
402,192,62417,1,0,0:0:0:0:
475,192,62522,1,4,0:0:0:0:
256,192,62522,1,4,0:0:0:0:
36,192,62522,1,0,0:0:0:0:
36,192,62734,1,0,0:0:0:0:
475,192,62734,1,0,0:0:0:0:
256,192,62734,1,0,0:0:0:0:
109,192,62945,1,0,0:0:0:0:
402,192,62945,1,0,0:0:0:0:
182,192,63050,1,0,0:0:0:0:
329,192,63050,1,0,0:0:0:0:
36,192,63156,1,0,0:0:0:0:
475,192,63156,1,0,0:0:0:0:
109,192,63209,1,0,0:0:0:0:
402,192,63209,1,0,0:0:0:0:
256,192,63262,1,0,0:0:0:0:
329,192,63315,1,0,0:0:0:0:
182,192,63315,1,0,0:0:0:0:
109,192,63367,1,4,0:0:0:0:
402,192,63367,1,0,0:0:0:0:
36,192,63367,128,0,63790:0:0:0:0:
475,192,63367,128,0,63790:0:0:0:0:
182,192,63579,128,0,63790:0:0:0:0:
329,192,63579,128,0,63790:0:0:0:0:
256,192,63790,1,0,0:0:0:0:
402,192,63790,128,0,64212:0:0:0:0:
109,192,63790,128,0,64212:0:0:0:0:
256,192,64001,128,0,64212:0:0:0:0:
36,192,64212,128,4,64635:0:0:0:0:
475,192,64212,128,4,64635:0:0:0:0:
402,192,64424,1,0,0:0:0:0:
256,192,64529,1,0,0:0:0:0:
109,192,64635,1,0,0:0:0:0:
402,192,64635,1,0,0:0:0:0:
329,192,64741,1,0,0:0:0:0:
182,192,64846,1,0,0:0:0:0:
402,192,64952,1,0,0:0:0:0:
256,192,65058,1,4,0:0:0:0:
36,192,65058,128,0,65480:0:0:0:0:
475,192,65163,128,0,65480:0:0:0:0:
109,192,65269,128,0,65480:0:0:0:0:
402,192,65374,128,0,65480:0:0:0:0:
182,192,65480,128,0,65903:0:0:0:0:
256,192,65586,128,0,65903:0:0:0:0:
402,192,65691,128,0,65903:0:0:0:0:
329,192,65797,128,0,65903:0:0:0:0:
36,192,65903,1,4,0:0:0:0:
109,192,65955,1,0,0:0:0:0:
256,192,66008,1,0,0:0:0:0:
402,192,66061,1,0,0:0:0:0:
475,192,66114,1,0,0:0:0:0:
109,192,66114,128,0,66325:0:0:0:0:
182,192,66325,1,0,0:0:0:0:
36,192,66325,1,0,0:0:0:0:
475,192,66325,1,0,0:0:0:0:
329,192,66431,1,0,0:0:0:0:
109,192,66536,1,0,0:0:0:0:
402,192,66642,1,0,0:0:0:0:
182,192,66748,1,4,0:0:0:0:
475,192,66853,1,0,0:0:0:0:
256,192,66959,1,0,0:0:0:0:
36,192,67065,1,0,0:0:0:0:
109,192,67170,1,0,0:0:0:0:
329,192,67170,1,0,0:0:0:0:
475,192,67170,1,0,0:0:0:0:
182,192,67276,1,0,0:0:0:0:
402,192,67276,1,0,0:0:0:0:
402,192,67381,1,0,0:0:0:0:
182,192,67381,1,0,0:0:0:0:
329,192,67487,1,0,0:0:0:0:
109,192,67487,1,0,0:0:0:0:
256,192,67593,128,4,69283:0:0:0:0:
36,192,67593,128,4,67698:0:0:0:0:
475,192,67593,128,0,67698:0:0:0:0:
109,192,67698,128,0,67804:0:0:0:0:
402,192,67804,128,0,67910:0:0:0:0:
182,192,67910,128,0,68015:0:0:0:0:
329,192,68015,128,0,68121:0:0:0:0:
109,192,68121,128,0,68227:0:0:0:0:
402,192,68227,128,0,68332:0:0:0:0:
36,192,68332,128,0,68438:0:0:0:0:
475,192,68438,1,4,0:0:0:0:
402,192,68491,1,0,0:0:0:0:
329,192,68543,1,0,0:0:0:0:
182,192,68596,1,0,0:0:0:0:
109,192,68649,1,0,0:0:0:0:
36,192,68649,1,0,0:0:0:0:
36,192,68860,1,0,0:0:0:0:
109,192,68860,1,0,0:0:0:0:
402,192,68966,1,0,0:0:0:0:
475,192,68966,1,0,0:0:0:0:
109,192,69072,128,0,69283:0:0:0:0:
36,192,69072,128,0,69283:0:0:0:0:
329,192,69283,1,4,0:0:0:0:
402,192,69283,1,0,0:0:0:0:
182,192,69494,1,0,0:0:0:0:
329,192,69705,1,0,0:0:0:0:
475,192,69705,1,0,0:0:0:0:
36,192,69705,1,0,0:0:0:0:
182,192,69811,1,0,0:0:0:0:
402,192,69917,1,0,0:0:0:0:
256,192,70022,1,0,0:0:0:0:
36,192,70128,1,4,0:0:0:0:
329,192,70128,1,0,0:0:0:0:
402,192,70234,1,0,0:0:0:0:
109,192,70339,128,0,70550:0:0:0:0:
182,192,70550,1,0,0:0:0:0:
329,192,70550,1,0,0:0:0:0:
475,192,70550,1,0,0:0:0:0:
402,192,70762,1,4,0:0:0:0:
256,192,70762,1,4,0:0:0:0:
329,192,70973,1,4,0:0:0:0:
182,192,70973,1,4,0:0:0:0:
36,192,71184,128,0,71290:0:0:0:0:
402,192,71290,128,0,71396:0:0:0:0:
109,192,71396,128,0,71501:0:0:0:0:
329,192,71396,1,0,0:0:0:0:
256,192,71396,1,0,0:0:0:0:
475,192,71501,128,0,71607:0:0:0:0:
182,192,71607,128,0,71712:0:0:0:0:
402,192,71607,1,0,0:0:0:0:
256,192,71712,128,0,71818:0:0:0:0:
329,192,71818,128,4,71924:0:0:0:0:
36,192,71818,128,0,72241:0:0:0:0:
256,192,71924,128,0,72029:0:0:0:0:
182,192,72029,128,0,72135:0:0:0:0:
475,192,72029,128,0,72241:0:0:0:0:
109,192,72241,1,0,0:0:0:0:
182,192,72293,1,0,0:0:0:0:
256,192,72346,1,0,0:0:0:0:
329,192,72399,1,0,0:0:0:0:
402,192,72452,1,0,0:0:0:0:
475,192,72505,1,0,0:0:0:0:
109,192,72558,1,0,0:0:0:0:
36,192,72558,1,0,0:0:0:0:
329,192,72663,128,4,73086:0:0:0:0:
182,192,72874,128,0,73086:0:0:0:0:
36,192,73086,1,0,0:0:0:0:
475,192,73086,1,0,0:0:0:0:
402,192,73191,1,0,0:0:0:0:
109,192,73191,1,0,0:0:0:0:
182,192,73297,1,0,0:0:0:0:
329,192,73297,1,0,0:0:0:0:
109,192,73403,1,0,0:0:0:0:
402,192,73403,1,0,0:0:0:0:
36,192,73508,128,4,73931:0:0:0:0:
475,192,73508,128,0,73931:0:0:0:0:
182,192,73719,128,0,73931:0:0:0:0:
329,192,73719,128,0,73931:0:0:0:0:
109,192,73931,1,0,0:0:0:0:
402,192,73931,1,0,0:0:0:0:
256,192,73931,1,0,0:0:0:0:
182,192,74142,1,4,0:0:0:0:
475,192,74142,1,0,0:0:0:0:
109,192,74248,1,0,0:0:0:0:
402,192,74248,1,0,0:0:0:0:
329,192,74353,1,4,0:0:0:0:
36,192,74353,128,0,74776:0:0:0:0:
182,192,74565,128,0,74776:0:0:0:0:
256,192,74565,1,0,0:0:0:0:
402,192,74670,1,0,0:0:0:0:
329,192,74776,128,0,75198:0:0:0:0:
256,192,74776,1,0,0:0:0:0:
475,192,74776,1,0,0:0:0:0:
109,192,74881,1,0,0:0:0:0:
475,192,74987,128,0,75198:0:0:0:0:
256,192,74987,1,0,0:0:0:0:
402,192,75093,1,0,0:0:0:0:
36,192,75198,1,4,0:0:0:0:
109,192,75251,1,0,0:0:0:0:
256,192,75304,1,0,0:0:0:0:
402,192,75357,1,0,0:0:0:0:
475,192,75410,1,0,0:0:0:0:
329,192,75462,1,0,0:0:0:0:
182,192,75515,1,0,0:0:0:0:
36,192,75568,1,0,0:0:0:0:
402,192,75621,1,0,0:0:0:0:
109,192,75621,1,0,0:0:0:0:
109,192,75832,1,4,0:0:0:0:
402,192,75832,1,4,0:0:0:0:
36,192,76043,1,4,0:0:0:0:
475,192,76043,1,4,0:0:0:0:
402,192,76043,1,0,0:0:0:0:
109,192,76043,1,0,0:0:0:0:
182,192,76255,128,0,76466:0:0:0:0:
329,192,76360,128,0,76466:0:0:0:0:
109,192,76466,1,0,0:0:0:0:
36,192,76466,1,0,0:0:0:0:
402,192,76466,1,0,0:0:0:0:
475,192,76677,128,0,76888:0:0:0:0:
256,192,76677,1,0,0:0:0:0:
329,192,76783,128,0,76888:0:0:0:0:
36,192,76888,128,4,77100:0:0:0:0:
109,192,76888,1,0,0:0:0:0:
182,192,76994,128,0,77100:0:0:0:0:
402,192,77100,128,0,77311:0:0:0:0:
329,192,77100,1,0,0:0:0:0:
109,192,77205,128,0,77311:0:0:0:0:
329,192,77311,1,0,0:0:0:0:
182,192,77311,1,0,0:0:0:0:
475,192,77311,1,0,0:0:0:0:
36,192,77522,1,0,0:0:0:0:
256,192,77522,1,0,0:0:0:0:
109,192,77628,1,0,0:0:0:0:
329,192,77628,1,0,0:0:0:0:
182,192,77734,128,4,78156:0:0:0:0:
402,192,77734,128,4,78156:0:0:0:0:
475,192,77734,1,0,0:0:0:0:
36,192,77734,1,0,0:0:0:0:
329,192,77945,128,0,78156:0:0:0:0:
109,192,77945,128,0,78156:0:0:0:0:
36,192,78156,128,0,78367:0:0:0:0:
475,192,78156,128,0,78367:0:0:0:0:
256,192,78156,1,0,0:0:0:0:
109,192,78262,128,0,78473:0:0:0:0:
402,192,78262,128,0,78473:0:0:0:0:
182,192,78367,128,0,78579:0:0:0:0:
329,192,78367,128,0,78579:0:0:0:0:
256,192,78473,128,0,78579:0:0:0:0:
36,192,78579,1,4,0:0:0:0:
475,192,78579,1,0,0:0:0:0:
109,192,78631,1,0,0:0:0:0:
402,192,78684,1,0,0:0:0:0:
256,192,78684,1,0,0:0:0:0:
475,192,78737,1,0,0:0:0:0:
109,192,78790,1,0,0:0:0:0:
402,192,78790,1,0,0:0:0:0:
182,192,78790,128,0,79001:0:0:0:0:
329,192,78790,128,0,79001:0:0:0:0:
36,192,79001,1,0,0:0:0:0:
475,192,79001,1,0,0:0:0:0:
36,192,79107,1,0,0:0:0:0:
475,192,79107,1,0,0:0:0:0:
109,192,79212,128,0,79424:0:0:0:0:
402,192,79212,128,0,79424:0:0:0:0:
256,192,79318,128,0,79424:0:0:0:0:
36,192,79424,1,4,0:0:0:0:
475,192,79424,1,4,0:0:0:0:
182,192,79424,1,0,0:0:0:0:
329,192,79424,1,0,0:0:0:0:
182,192,79635,1,0,0:0:0:0:
402,192,79635,1,0,0:0:0:0:
109,192,79741,1,0,0:0:0:0:
329,192,79741,1,0,0:0:0:0:
36,192,79846,1,0,0:0:0:0:
256,192,79846,1,0,0:0:0:0:
475,192,79846,1,0,0:0:0:0:
109,192,80058,1,0,0:0:0:0:
329,192,80058,1,0,0:0:0:0:
182,192,80163,1,0,0:0:0:0:
402,192,80163,1,0,0:0:0:0:
256,192,80269,1,4,0:0:0:0:
475,192,80269,1,4,0:0:0:0:
402,192,80410,1,0,0:0:0:0:
182,192,80410,1,0,0:0:0:0:
109,192,80550,1,0,0:0:0:0:
329,192,80550,1,0,0:0:0:0:
256,192,80691,128,0,80903:0:0:0:0:
36,192,80691,128,0,80903:0:0:0:0:
475,192,80691,128,0,80903:0:0:0:0:
329,192,80903,128,0,81114:0:0:0:0:
182,192,80903,128,0,81114:0:0:0:0:
402,192,81008,128,0,81114:0:0:0:0:
109,192,81008,128,0,81114:0:0:0:0:
36,192,81114,1,4,0:0:0:0:
475,192,81114,1,4,0:0:0:0:
36,192,81325,128,0,81431:0:0:0:0:
475,192,81325,1,0,0:0:0:0:
182,192,81431,128,0,81536:0:0:0:0:
475,192,81536,128,0,81642:0:0:0:0:
256,192,81536,1,0,0:0:0:0:
109,192,81536,1,0,0:0:0:0:
402,192,81536,1,0,0:0:0:0:
329,192,81642,128,0,81748:0:0:0:0:
36,192,81748,128,0,81853:0:0:0:0:
182,192,81748,1,0,0:0:0:0:
182,192,81959,128,4,82065:0:0:0:0:
402,192,81959,1,0,0:0:0:0:
329,192,82065,128,0,82170:0:0:0:0:
109,192,82170,128,0,82276:0:0:0:0:
256,192,82276,128,0,82381:0:0:0:0:
36,192,82381,128,0,82804:0:0:0:0:
402,192,82381,1,0,0:0:0:0:
475,192,82381,1,0,0:0:0:0:
475,192,82593,128,0,82804:0:0:0:0:
182,192,82593,1,0,0:0:0:0:
256,192,82698,1,0,0:0:0:0:
329,192,82804,1,4,0:0:0:0:
402,192,82804,1,0,0:0:0:0:
402,192,82910,1,0,0:0:0:0:
109,192,83015,1,0,0:0:0:0:
109,192,83121,1,0,0:0:0:0:
256,192,83227,1,0,0:0:0:0:
475,192,83227,1,0,0:0:0:0:
36,192,83227,1,0,0:0:0:0:
256,192,83332,1,0,0:0:0:0:
402,192,83438,1,0,0:0:0:0:
402,192,83543,1,0,0:0:0:0:
402,192,83649,1,4,0:0:0:0:
329,192,83649,128,4,83755:0:0:0:0:
109,192,83649,1,0,0:0:0:0:
182,192,83755,128,0,83860:0:0:0:0:
36,192,83966,128,0,84072:0:0:0:0:
329,192,84072,1,0,0:0:0:0:
109,192,84072,1,0,0:0:0:0:
182,192,84177,1,0,0:0:0:0:
402,192,84177,1,0,0:0:0:0:
256,192,84283,1,0,0:0:0:0:
475,192,84283,1,0,0:0:0:0:
402,192,84388,1,0,0:0:0:0:
182,192,84388,1,0,0:0:0:0:
109,192,84494,128,4,84917:0:0:0:0:
329,192,84494,128,4,84917:0:0:0:0:
402,192,84705,128,0,84917:0:0:0:0:
182,192,84705,128,0,84917:0:0:0:0:
475,192,84917,128,0,85339:0:0:0:0:
36,192,84917,128,0,85339:0:0:0:0:
256,192,85022,1,0,0:0:0:0:
182,192,85128,1,0,0:0:0:0:
329,192,85234,1,0,0:0:0:0:
109,192,85339,1,4,0:0:0:0:
402,192,85445,1,0,0:0:0:0:
182,192,85550,1,0,0:0:0:0:
109,192,85550,1,0,0:0:0:0:
329,192,85656,1,0,0:0:0:0:
402,192,85656,1,0,0:0:0:0:
109,192,85762,1,0,0:0:0:0:
36,192,85762,1,0,0:0:0:0:
402,192,85867,1,0,0:0:0:0:
475,192,85867,1,0,0:0:0:0:
329,192,85973,1,0,0:0:0:0:
256,192,86079,1,0,0:0:0:0:
182,192,86184,1,4,0:0:0:0:
36,192,86184,1,0,0:0:0:0:
109,192,86396,128,0,86607:0:0:0:0:
256,192,86501,128,0,86607:0:0:0:0:
402,192,86607,1,0,0:0:0:0:
475,192,86818,1,0,0:0:0:0:
182,192,86818,1,0,0:0:0:0:
109,192,86924,1,0,0:0:0:0:
402,192,86924,1,0,0:0:0:0:
36,192,87029,1,4,0:0:0:0:
329,192,87029,1,0,0:0:0:0:
182,192,87135,1,0,0:0:0:0:
475,192,87135,1,0,0:0:0:0:
36,192,87241,1,0,0:0:0:0:
329,192,87241,1,0,0:0:0:0:
109,192,87346,1,0,0:0:0:0:
402,192,87346,1,0,0:0:0:0:
182,192,87452,128,0,87663:0:0:0:0:
475,192,87452,128,0,87663:0:0:0:0:
402,192,87558,128,0,87663:0:0:0:0:
109,192,87558,128,0,87663:0:0:0:0:
329,192,87663,128,0,87874:0:0:0:0:
36,192,87663,128,0,87874:0:0:0:0:
256,192,87769,128,0,87874:0:0:0:0:
182,192,87874,128,4,88297:0:0:0:0:
402,192,87874,128,4,88297:0:0:0:0:
475,192,88086,128,4,88297:0:0:0:0:
109,192,88086,128,4,88297:0:0:0:0:
256,192,88297,1,0,0:0:0:0:
36,192,88297,1,0,0:0:0:0:
329,192,88403,1,0,0:0:0:0:
109,192,88403,1,0,0:0:0:0:
402,192,88508,1,0,0:0:0:0:
329,192,88614,1,0,0:0:0:0:
109,192,88614,1,0,0:0:0:0:
36,192,88719,1,4,0:0:0:0:
475,192,88719,1,0,0:0:0:0:
402,192,88825,1,0,0:0:0:0:
109,192,88825,1,0,0:0:0:0:
36,192,88931,1,0,0:0:0:0:
109,192,88931,1,0,0:0:0:0:
256,192,89036,1,0,0:0:0:0:
402,192,89142,1,0,0:0:0:0:
475,192,89142,1,0,0:0:0:0:
36,192,89142,1,0,0:0:0:0:
182,192,89142,1,0,0:0:0:0:
109,192,89353,1,4,0:0:0:0:
256,192,89353,1,4,0:0:0:0:
402,192,89353,1,0,0:0:0:0:
182,192,89565,1,4,0:0:0:0:
36,192,89565,1,0,0:0:0:0:
329,192,89565,1,0,0:0:0:0:
475,192,89565,1,0,0:0:0:0:
256,192,89776,1,0,0:0:0:0:
182,192,89987,1,0,0:0:0:0:
36,192,89987,1,0,0:0:0:0:
475,192,89987,1,0,0:0:0:0:
402,192,90093,1,0,0:0:0:0:
329,192,90198,1,0,0:0:0:0:
109,192,90198,1,0,0:0:0:0:
402,192,90304,1,0,0:0:0:0:
475,192,90410,1,4,0:0:0:0:
182,192,90410,1,0,0:0:0:0:
109,192,90515,1,0,0:0:0:0:
402,192,90515,1,0,0:0:0:0:
329,192,90621,1,0,0:0:0:0:
36,192,90621,1,0,0:0:0:0:
109,192,90832,1,0,0:0:0:0:
475,192,90832,1,0,0:0:0:0:
256,192,90832,1,0,0:0:0:0:
329,192,91043,1,0,0:0:0:0:
36,192,91043,1,0,0:0:0:0:
109,192,91255,1,4,0:0:0:0:
256,192,91255,1,0,0:0:0:0:
475,192,91255,1,0,0:0:0:0:
182,192,91466,1,0,0:0:0:0:
329,192,91466,1,0,0:0:0:0:
109,192,91572,1,0,0:0:0:0:
36,192,91572,1,0,0:0:0:0:
256,192,91677,1,0,0:0:0:0:
402,192,91677,1,0,0:0:0:0:
182,192,91783,1,0,0:0:0:0:
109,192,91783,1,0,0:0:0:0:
329,192,91888,1,0,0:0:0:0:
475,192,91888,1,0,0:0:0:0:
256,192,91994,1,0,0:0:0:0:
182,192,91994,1,0,0:0:0:0:
329,192,92100,1,4,0:0:0:0:
36,192,92100,1,0,0:0:0:0:
109,192,92205,1,0,0:0:0:0:
402,192,92205,1,0,0:0:0:0:
182,192,92311,1,0,0:0:0:0:
475,192,92311,1,0,0:0:0:0:
109,192,92417,1,0,0:0:0:0:
402,192,92417,1,0,0:0:0:0:
475,192,92522,1,0,0:0:0:0:
182,192,92522,1,0,0:0:0:0:
329,192,92522,1,0,0:0:0:0:
402,192,92628,1,0,0:0:0:0:
109,192,92628,1,0,0:0:0:0:
36,192,92734,1,0,0:0:0:0:
256,192,92734,1,0,0:0:0:0:
109,192,92839,1,0,0:0:0:0:
329,192,92839,1,0,0:0:0:0:
182,192,92945,1,4,0:0:0:0:
402,192,92945,1,0,0:0:0:0:
