osu file format v14

[General]
AudioFilename: [SDVX II ] Nyan Cat [INF].mp3
AudioLeadIn: 0
PreviewTime: 42241
Countdown: 0
SampleSet: Soft
StackLeniency: 0.7
Mode: 3
LetterboxInBreaks: 0
SpecialStyle: 0
WidescreenStoryboard: 0

[Editor]
Bookmarks: 67698,89565
DistanceSpacing: 0.9
BeatDivisor: 4
GridSize: 32
TimelineZoom: 1.2

[Metadata]
Title:Nyan Cat
TitleUnicode:Nyan Cat
Artist:daniwellP feat. Momone Momo
ArtistUnicode:daniwellP feat. 桃音モモ
Creator:Midge
Version:Nessienya~ HD
Source:SOUND VOLTEX BOOTH
Tags:Haneure Pew Rumia- NessieSP Murako Izuriha Kuo Kyoka Nukedboom meow pop tart meme remix TEK-A-RHYTHM utau Nyanyanyanyanyanyanya!
BeatmapID:455237
BeatmapSetID:165533

[Difficulty]
HPDrainRate:8
CircleSize:7
OverallDifficulty:8
ApproachRate:9
SliderMultiplier:1.8
SliderTickRate:1

[Events]
//Background and Video events
0,0,"7f5eb44a9751a0cd44c5e75321f1b1cf.png",0,0
//Break Periods
//Storyboard Layer 0 (Background)
//Storyboard Layer 1 (Fail)
//Storyboard Layer 2 (Pass)
//Storyboard Layer 3 (Foreground)
//Storyboard Sound Samples

[TimingPoints]
5058,422.535211267606,4,2,1,30,1,0
35903,-1000,4,2,1,30,0,0
36114,-83.3333333333333,4,2,1,30,0,0
36536,-100,4,2,1,30,0,0
63367,-105.263157894737,4,2,1,30,0,0
63579,-117.647058823529,4,2,1,30,0,0
63790,-133.333333333333,4,2,1,30,0,0
64001,-100,4,2,1,30,0,0
92945,-100,4,2,1,10,0,0

[HitObjects]
256,192,410,5,0,0:0:0:0:
256,192,1255,1,0,0:0:0:0:
256,192,1413,1,0,0:0:0:0:
475,192,2417,1,4,0:0:0:0:
36,192,2417,1,0,0:0:0:0:
475,192,2839,1,4,0:0:0:0:
36,192,2839,1,0,0:0:0:0:
256,192,3262,1,0,0:0:0:0:
109,192,3790,1,0,0:0:0:0:
182,192,4212,1,0,0:0:0:0:
256,192,4635,1,0,0:0:0:0:
36,192,5057,5,0,0:0:0:0:
475,192,5057,1,0,0:0:0:0:
109,192,5163,1,0,0:0:0:0:
182,192,5269,1,0,0:0:0:0:
329,192,5480,1,0,0:0:0:0:
475,192,5480,1,0,0:0:0:0:
182,192,5586,1,0,0:0:0:0:
256,192,5691,1,0,0:0:0:0:
329,192,5797,1,0,0:0:0:0:
402,192,5903,1,0,0:0:0:0:
475,192,6008,1,0,0:0:0:0:
329,192,6114,1,0,0:0:0:0:
182,192,6219,1,0,0:0:0:0:
36,192,6325,1,0,0:0:0:0:
475,192,6325,1,0,0:0:0:0:
182,192,6431,1,0,0:0:0:0:
329,192,6536,1,0,0:0:0:0:
475,192,6748,1,4,0:0:0:0:
182,192,6748,1,4,0:0:0:0:
36,192,6959,1,0,0:0:0:0:
182,192,7065,1,0,0:0:0:0:
475,192,7170,1,0,0:0:0:0:
256,192,7170,1,0,0:0:0:0:
36,192,7381,1,0,0:0:0:0:
36,192,7593,1,0,0:0:0:0:
109,192,7698,1,0,0:0:0:0:
182,192,7804,1,0,0:0:0:0:
256,192,7910,1,0,0:0:0:0:
475,192,8015,1,0,0:0:0:0:
329,192,8121,1,0,0:0:0:0:
182,192,8227,1,0,0:0:0:0:
36,192,8332,1,0,0:0:0:0:
256,192,8438,1,4,0:0:0:0:
402,192,8649,1,0,0:0:0:0:
475,192,8860,1,0,0:0:0:0:
329,192,8966,1,0,0:0:0:0:
256,192,9177,1,0,0:0:0:0:
109,192,9283,1,4,0:0:0:0:
402,192,9388,1,0,0:0:0:0:
36,192,9494,128,0,9705:0:0:0:0:
182,192,9705,128,0,9917:0:0:0:0:
329,192,9917,1,0,0:0:0:0:
36,192,10128,1,4,0:0:0:0:
475,192,10128,1,4,0:0:0:0:
36,192,10339,1,0,0:0:0:0:
475,192,10339,1,0,0:0:0:0:
256,192,10445,1,0,0:0:0:0:
182,192,10550,1,0,0:0:0:0:
109,192,10656,1,0,0:0:0:0:
182,192,10762,1,0,0:0:0:0:
256,192,10867,1,0,0:0:0:0:
329,192,10973,1,4,0:0:0:0:
475,192,11079,1,0,0:0:0:0:
329,192,11184,1,0,0:0:0:0:
182,192,11290,1,0,0:0:0:0:
36,192,11396,1,0,0:0:0:0:
109,192,11396,1,0,0:0:0:0:
402,192,11501,1,0,0:0:0:0:
329,192,11501,1,0,0:0:0:0:
109,192,11607,1,0,0:0:0:0:
182,192,11607,1,0,0:0:0:0:
402,192,11712,1,0,0:0:0:0:
475,192,11712,1,0,0:0:0:0:
36,192,11818,1,4,0:0:0:0:
182,192,11818,1,4,0:0:0:0:
329,192,12029,1,0,0:0:0:0:
182,192,12029,1,0,0:0:0:0:
475,192,12241,1,0,0:0:0:0:
256,192,12346,1,0,0:0:0:0:
475,192,12452,1,0,0:0:0:0:
182,192,12558,1,0,0:0:0:0:
402,192,12663,1,4,0:0:0:0:
109,192,12769,1,0,0:0:0:0:
402,192,12874,1,0,0:0:0:0:
36,192,12980,1,0,0:0:0:0:
329,192,13086,1,0,0:0:0:0:
182,192,13191,1,0,0:0:0:0:
329,192,13297,1,0,0:0:0:0:
109,192,13403,1,0,0:0:0:0:
182,192,13508,128,4,13719:0:0:0:0:
329,192,13719,1,0,0:0:0:0:
402,192,13825,1,0,0:0:0:0:
475,192,13931,1,0,0:0:0:0:
402,192,14036,1,0,0:0:0:0:
329,192,14142,1,0,0:0:0:0:
256,192,14248,1,0,0:0:0:0:
36,192,14353,128,4,14565:0:0:0:0:
329,192,14565,1,0,0:0:0:0:
182,192,14565,128,0,14776:0:0:0:0:
256,192,14776,1,0,0:0:0:0:
402,192,14987,1,0,0:0:0:0:
182,192,15198,1,4,0:0:0:0:
329,192,15198,1,4,0:0:0:0:
402,192,15410,1,0,0:0:0:0:
475,192,15621,1,0,0:0:0:0:
329,192,15727,128,0,15938:0:0:0:0:
36,192,15938,1,0,0:0:0:0:
182,192,16043,1,4,0:0:0:0:
475,192,16149,1,0,0:0:0:0:
329,192,16255,1,0,0:0:0:0:
36,192,16466,128,0,16677:0:0:0:0:
475,192,16466,128,0,16677:0:0:0:0:
182,192,16677,1,0,0:0:0:0:
329,192,16677,1,4,0:0:0:0:
109,192,16888,1,4,0:0:0:0:
402,192,16888,1,4,0:0:0:0:
109,192,17100,1,0,0:0:0:0:
475,192,17205,1,0,0:0:0:0:
182,192,17311,1,0,0:0:0:0:
256,192,17417,1,0,0:0:0:0:
329,192,17522,1,0,0:0:0:0:
402,192,17628,1,0,0:0:0:0:
329,192,17734,1,4,0:0:0:0:
256,192,17839,1,0,0:0:0:0:
182,192,17945,1,0,0:0:0:0:
109,192,18050,1,0,0:0:0:0:
36,192,18156,128,0,18367:0:0:0:0:
475,192,18156,128,0,18367:0:0:0:0:
182,192,18367,1,0,0:0:0:0:
329,192,18367,1,4,0:0:0:0:
36,192,18579,1,4,0:0:0:0:
109,192,18579,1,4,0:0:0:0:
402,192,18790,1,0,0:0:0:0:
475,192,19001,1,0,0:0:0:0:
109,192,19107,1,0,0:0:0:0:
402,192,19212,1,0,0:0:0:0:
109,192,19318,1,0,0:0:0:0:
329,192,19424,1,4,0:0:0:0:
36,192,19529,1,0,0:0:0:0:
256,192,19635,128,0,19846:0:0:0:0:
36,192,19846,128,0,20058:0:0:0:0:
475,192,19846,128,0,20058:0:0:0:0:
182,192,20058,1,0,0:0:0:0:
329,192,20058,1,4,0:0:0:0:
109,192,20269,1,4,0:0:0:0:
402,192,20269,1,4,0:0:0:0:
329,192,20480,1,0,0:0:0:0:
182,192,20586,1,0,0:0:0:0:
109,192,20691,1,0,0:0:0:0:
36,192,20797,1,0,0:0:0:0:
109,192,20903,1,0,0:0:0:0:
182,192,21008,1,0,0:0:0:0:
109,192,21114,128,4,21536:0:0:0:0:
402,192,21114,128,4,21536:0:0:0:0:
182,192,21536,1,0,0:0:0:0:
329,192,21536,1,0,0:0:0:0:
36,192,21748,128,0,21959:0:0:0:0:
475,192,21748,128,4,21959:0:0:0:0:
182,192,21959,128,4,22170:0:0:0:0:
329,192,21959,1,4,0:0:0:0:
329,192,22170,1,0,0:0:0:0:
475,192,22276,1,0,0:0:0:0:
329,192,22381,1,0,0:0:0:0:
36,192,22593,1,0,0:0:0:0:
256,192,22698,1,0,0:0:0:0:
36,192,22804,1,4,0:0:0:0:
329,192,22910,1,0,0:0:0:0:
109,192,23015,1,0,0:0:0:0:
256,192,23121,1,0,0:0:0:0:
475,192,23227,1,0,0:0:0:0:
402,192,23332,1,0,0:0:0:0:
329,192,23438,1,0,0:0:0:0:
256,192,23543,1,0,0:0:0:0:
329,192,23649,128,4,23860:0:0:0:0:
475,192,23649,128,4,23860:0:0:0:0:
36,192,23860,1,0,0:0:0:0:
182,192,23860,128,0,24072:0:0:0:0:
329,192,24072,1,0,0:0:0:0:
475,192,24283,1,0,0:0:0:0:
109,192,24494,1,4,0:0:0:0:
36,192,24494,1,4,0:0:0:0:
36,192,24600,1,0,0:0:0:0:
109,192,24600,1,0,0:0:0:0:
402,192,24705,1,0,0:0:0:0:
475,192,24705,1,0,0:0:0:0:
402,192,24811,1,0,0:0:0:0:
475,192,24811,1,0,0:0:0:0:
182,192,24917,1,0,0:0:0:0:
329,192,24917,1,0,0:0:0:0:
329,192,25058,1,0,0:0:0:0:
182,192,25058,1,0,0:0:0:0:
402,192,25198,1,0,0:0:0:0:
109,192,25198,1,0,0:0:0:0:
329,192,25339,1,4,0:0:0:0:
182,192,25550,1,0,0:0:0:0:
109,192,25656,1,0,0:0:0:0:
36,192,25762,1,0,0:0:0:0:
182,192,25973,1,0,0:0:0:0:
109,192,26079,1,0,0:0:0:0:
36,192,26184,1,4,0:0:0:0:
109,192,26290,1,0,0:0:0:0:
182,192,26396,1,0,0:0:0:0:
109,192,26501,1,0,0:0:0:0:
475,192,26607,1,0,0:0:0:0:
402,192,26712,1,0,0:0:0:0:
329,192,26818,1,0,0:0:0:0:
402,192,26924,1,0,0:0:0:0:
256,192,27029,128,4,27663:0:0:0:0:
36,192,27241,1,0,0:0:0:0:
182,192,27346,1,0,0:0:0:0:
329,192,27452,1,0,0:0:0:0:
36,192,27558,1,0,0:0:0:0:
475,192,27663,1,0,0:0:0:0:
329,192,27769,1,0,0:0:0:0:
36,192,27874,128,4,28508:0:0:0:0:
402,192,27874,1,4,0:0:0:0:
256,192,28086,1,0,0:0:0:0:
256,192,28297,1,0,0:0:0:0:
109,192,28508,1,0,0:0:0:0:
329,192,28508,128,4,28719:0:0:0:0:
475,192,28719,1,4,0:0:0:0:
256,192,28931,1,0,0:0:0:0:
182,192,29036,1,0,0:0:0:0:
109,192,29142,1,0,0:0:0:0:
36,192,29353,1,0,0:0:0:0:
402,192,29459,1,0,0:0:0:0:
109,192,29565,1,4,0:0:0:0:
402,192,29670,1,0,0:0:0:0:
182,192,29776,1,0,0:0:0:0:
475,192,29881,1,0,0:0:0:0:
256,192,29987,128,0,30410:0:0:0:0:
36,192,29987,1,0,0:0:0:0:
402,192,30093,1,0,0:0:0:0:
109,192,30198,1,0,0:0:0:0:
475,192,30304,1,0,0:0:0:0:
36,192,30410,128,0,30621:0:0:0:0:
182,192,30410,128,4,30621:0:0:0:0:
109,192,30621,1,0,0:0:0:0:
256,192,30621,1,4,0:0:0:0:
182,192,30832,128,0,31043:0:0:0:0:
329,192,30832,128,0,31043:0:0:0:0:
256,192,31043,1,0,0:0:0:0:
402,192,31043,1,4,0:0:0:0:
475,192,31255,1,4,0:0:0:0:
329,192,31360,1,0,0:0:0:0:
182,192,31466,1,0,0:0:0:0:
109,192,31572,1,0,0:0:0:0:
402,192,31677,1,0,0:0:0:0:
256,192,31783,1,0,0:0:0:0:
182,192,31888,1,0,0:0:0:0:
36,192,31994,1,0,0:0:0:0:
329,192,32100,128,4,32311:0:0:0:0:
475,192,32100,128,4,32311:0:0:0:0:
256,192,32311,1,0,0:0:0:0:
402,192,32311,1,4,0:0:0:0:
256,192,32522,128,0,32734:0:0:0:0:
402,192,32522,128,0,32734:0:0:0:0:
182,192,32734,1,0,0:0:0:0:
329,192,32734,1,4,0:0:0:0:
36,192,32945,128,4,35480:0:0:0:0:
182,192,32945,1,4,0:0:0:0:
256,192,33050,1,0,0:0:0:0:
329,192,33156,1,0,0:0:0:0:
402,192,33262,1,0,0:0:0:0:
256,192,33367,1,0,0:0:0:0:
329,192,33473,1,0,0:0:0:0:
402,192,33579,1,0,0:0:0:0:
475,192,33684,1,0,0:0:0:0:
182,192,33790,128,4,35058:0:0:0:0:
329,192,33790,1,4,0:0:0:0:
329,192,34001,1,0,0:0:0:0:
402,192,34107,1,0,0:0:0:0:
475,192,34212,1,0,0:0:0:0:
402,192,34318,1,0,0:0:0:0:
329,192,34424,1,0,0:0:0:0:
256,192,34529,1,0,0:0:0:0:
475,192,34635,1,4,0:0:0:0:
402,192,34741,1,0,0:0:0:0:
329,192,34846,1,0,0:0:0:0:
256,192,34952,1,0,0:0:0:0:
475,192,35058,128,0,35480:0:0:0:0:
256,192,35269,1,0,0:0:0:0:
109,192,35480,1,4,0:0:0:0:
402,192,35480,1,4,0:0:0:0:
256,192,35691,1,0,0:0:0:0:
182,192,35903,1,0,0:0:0:0:
329,192,35903,1,2,0:0:0:0:
36,192,36325,1,4,0:0:0:0:
182,192,36431,1,0,0:0:0:0:
329,192,36536,1,0,0:0:0:0:
402,192,36748,1,0,0:0:0:0:
329,192,36959,1,0,0:0:0:0:
256,192,37170,1,4,0:0:0:0:
36,192,37381,1,0,0:0:0:0:
182,192,37487,1,0,0:0:0:0:
329,192,37593,1,0,0:0:0:0:
36,192,37698,1,0,0:0:0:0:
109,192,37698,1,0,0:0:0:0:
329,192,37804,1,0,0:0:0:0:
475,192,37804,1,0,0:0:0:0:
109,192,37910,1,0,0:0:0:0:
182,192,37910,1,0,0:0:0:0:
475,192,38015,1,4,0:0:0:0:
402,192,38121,1,0,0:0:0:0:
329,192,38227,1,0,0:0:0:0:
402,192,38332,1,0,0:0:0:0:
329,192,38438,1,0,0:0:0:0:
256,192,38543,1,0,0:0:0:0:
182,192,38649,1,0,0:0:0:0:
109,192,38755,1,0,0:0:0:0:
182,192,38860,1,0,0:0:0:0:
329,192,38860,1,0,0:0:0:0:
182,192,38966,1,0,0:0:0:0:
329,192,38966,1,0,0:0:0:0:
475,192,39072,1,0,0:0:0:0:
109,192,39072,1,0,0:0:0:0:
36,192,39283,1,0,0:0:0:0:
182,192,39388,1,0,0:0:0:0:
329,192,39494,128,0,39705:0:0:0:0:
475,192,39705,128,4,40128:0:0:0:0:
329,192,39917,1,0,0:0:0:0:
256,192,40022,1,0,0:0:0:0:
109,192,40128,1,0,0:0:0:0:
182,192,40339,1,0,0:0:0:0:
256,192,40550,1,4,0:0:0:0:
402,192,40550,128,4,41184:0:0:0:0:
475,192,40550,128,4,41184:0:0:0:0:
182,192,40762,1,0,0:0:0:0:
109,192,40973,1,0,0:0:0:0:
182,192,41184,1,0,0:0:0:0:
36,192,41396,1,4,0:0:0:0:
109,192,41396,1,4,0:0:0:0:
329,192,41501,1,0,0:0:0:0:
402,192,41501,1,0,0:0:0:0:
109,192,41607,1,0,0:0:0:0:
182,192,41607,1,0,0:0:0:0:
402,192,41712,1,0,0:0:0:0:
475,192,41712,1,0,0:0:0:0:
182,192,41818,128,0,42029:0:0:0:0:
329,192,41818,128,0,42029:0:0:0:0:
36,192,42029,1,0,0:0:0:0:
475,192,42029,1,4,0:0:0:0:
182,192,42241,128,4,42452:0:0:0:0:
402,192,42241,1,4,0:0:0:0:
329,192,42452,1,0,0:0:0:0:
475,192,42663,128,0,43086:0:0:0:0:
36,192,42663,128,0,43086:0:0:0:0:
329,192,42769,1,0,0:0:0:0:
182,192,42874,1,0,0:0:0:0:
329,192,42980,1,0,0:0:0:0:
182,192,43086,1,4,0:0:0:0:
256,192,43191,1,0,0:0:0:0:
329,192,43297,1,0,0:0:0:0:
36,192,43508,1,0,0:0:0:0:
109,192,43614,1,0,0:0:0:0:
256,192,43719,128,0,43931:0:0:0:0:
182,192,43719,1,0,0:0:0:0:
36,192,43931,1,4,0:0:0:0:
475,192,44036,1,0,0:0:0:0:
182,192,44142,1,0,0:0:0:0:
256,192,44248,1,0,0:0:0:0:
402,192,44353,128,0,46466:0:0:0:0:
329,192,44353,1,0,0:0:0:0:
182,192,44565,1,0,0:0:0:0:
109,192,44776,1,4,0:0:0:0:
36,192,44987,1,0,0:0:0:0:
109,192,45198,1,0,0:0:0:0:
182,192,45410,1,0,0:0:0:0:
36,192,45621,128,4,46466:0:0:0:0:
329,192,45621,1,4,0:0:0:0:
256,192,45832,1,0,0:0:0:0:
182,192,46043,1,0,0:0:0:0:
109,192,46255,1,0,0:0:0:0:
256,192,46466,1,4,0:0:0:0:
109,192,46572,1,0,0:0:0:0:
329,192,46677,1,0,0:0:0:0:
36,192,46783,1,0,0:0:0:0:
402,192,46888,1,0,0:0:0:0:
109,192,46994,1,0,0:0:0:0:
475,192,47100,128,0,47311:0:0:0:0:
109,192,47205,1,0,0:0:0:0:
256,192,47311,1,4,0:0:0:0:
329,192,47311,1,4,0:0:0:0:
182,192,47522,1,0,0:0:0:0:
256,192,47628,1,0,0:0:0:0:
36,192,47734,1,0,0:0:0:0:
475,192,47734,1,0,0:0:0:0:
36,192,47839,1,0,0:0:0:0:
475,192,47839,1,0,0:0:0:0:
256,192,47945,1,0,0:0:0:0:
256,192,48156,1,4,0:0:0:0:
182,192,48262,1,0,0:0:0:0:
109,192,48367,1,0,0:0:0:0:
182,192,48579,1,0,0:0:0:0:
256,192,48790,1,0,0:0:0:0:
109,192,49001,1,4,0:0:0:0:
402,192,49001,1,4,0:0:0:0:
329,192,49212,1,0,0:0:0:0:
256,192,49318,1,0,0:0:0:0:
182,192,49424,1,0,0:0:0:0:
402,192,49635,1,0,0:0:0:0:
256,192,49741,1,0,0:0:0:0:
182,192,49846,1,4,0:0:0:0:
109,192,49952,1,0,0:0:0:0:
182,192,50058,1,0,0:0:0:0:
256,192,50163,1,0,0:0:0:0:
475,192,50269,1,0,0:0:0:0:
402,192,50374,1,0,0:0:0:0:
329,192,50480,1,0,0:0:0:0:
182,192,50480,128,0,50691:0:0:0:0:
36,192,50691,128,4,50903:0:0:0:0:
475,192,50691,128,4,50903:0:0:0:0:
109,192,50903,1,0,0:0:0:0:
402,192,50903,1,4,0:0:0:0:
256,192,51114,1,0,0:0:0:0:
256,192,51325,1,0,0:0:0:0:
109,192,51536,1,4,0:0:0:0:
182,192,51642,1,0,0:0:0:0:
256,192,51748,1,0,0:0:0:0:
109,192,51853,1,0,0:0:0:0:
402,192,51853,1,0,0:0:0:0:
109,192,51959,1,0,0:0:0:0:
402,192,51959,1,0,0:0:0:0:
182,192,52100,1,0,0:0:0:0:
256,192,52241,1,0,0:0:0:0:
402,192,52381,1,4,0:0:0:0:
109,192,52381,1,0,0:0:0:0:
109,192,52487,1,0,0:0:0:0:
402,192,52487,1,0,0:0:0:0:
182,192,52593,1,0,0:0:0:0:
256,192,52698,1,0,0:0:0:0:
475,192,52804,1,0,0:0:0:0:
36,192,52804,1,0,0:0:0:0:
475,192,52910,1,0,0:0:0:0:
36,192,52910,1,0,0:0:0:0:
329,192,53015,1,0,0:0:0:0:
256,192,53121,1,0,0:0:0:0:
36,192,53227,1,4,0:0:0:0:
182,192,53332,1,0,0:0:0:0:
329,192,53438,1,0,0:0:0:0:
36,192,53543,1,0,0:0:0:0:
475,192,53543,1,0,0:0:0:0:
182,192,53649,128,0,53860:0:0:0:0:
475,192,53860,1,0,0:0:0:0:
402,192,53966,1,0,0:0:0:0:
256,192,54072,1,4,0:0:0:0:
109,192,54072,1,4,0:0:0:0:
256,192,54283,1,0,0:0:0:0:
109,192,54283,1,0,0:0:0:0:
36,192,54388,1,0,0:0:0:0:
109,192,54494,1,0,0:0:0:0:
182,192,54547,1,0,0:0:0:0:
256,192,54600,1,0,0:0:0:0:
329,192,54653,1,0,0:0:0:0:
402,192,54705,1,0,0:0:0:0:
475,192,54811,1,0,0:0:0:0:
256,192,54917,1,4,0:0:0:0:
182,192,55022,1,0,0:0:0:0:
109,192,55128,1,0,0:0:0:0:
36,192,55234,1,0,0:0:0:0:
402,192,55339,1,0,0:0:0:0:
109,192,55339,1,0,0:0:0:0:
182,192,55550,128,0,55762:0:0:0:0:
329,192,55550,128,4,55762:0:0:0:0:
256,192,55762,1,4,0:0:0:0:
475,192,55973,1,0,0:0:0:0:
402,192,56079,1,0,0:0:0:0:
329,192,56184,1,0,0:0:0:0:
329,192,56396,1,0,0:0:0:0:
182,192,56501,1,0,0:0:0:0:
36,192,56607,1,4,0:0:0:0:
109,192,56712,1,0,0:0:0:0:
182,192,56818,1,0,0:0:0:0:
256,192,56924,1,0,0:0:0:0:
402,192,57029,128,0,57452:0:0:0:0:
109,192,57029,1,0,0:0:0:0:
182,192,57241,1,0,0:0:0:0:
36,192,57452,128,4,57663:0:0:0:0:
475,192,57452,128,4,57663:0:0:0:0:
109,192,57663,1,0,0:0:0:0:
182,192,57663,1,4,0:0:0:0:
36,192,57874,128,0,58086:0:0:0:0:
475,192,57874,128,0,58086:0:0:0:0:
329,192,58086,1,0,0:0:0:0:
402,192,58086,1,4,0:0:0:0:
256,192,58297,1,4,0:0:0:0:
329,192,58403,1,0,0:0:0:0:
402,192,58508,1,0,0:0:0:0:
475,192,58614,1,0,0:0:0:0:
402,192,58719,1,0,0:0:0:0:
256,192,58825,1,0,0:0:0:0:
109,192,58931,1,0,0:0:0:0:
256,192,59036,1,0,0:0:0:0:
475,192,59142,128,4,59353:0:0:0:0:
36,192,59142,128,4,59353:0:0:0:0:
182,192,59353,1,0,0:0:0:0:
329,192,59353,1,4,0:0:0:0:
402,192,59565,128,0,59776:0:0:0:0:
109,192,59565,128,0,59776:0:0:0:0:
329,192,59776,1,4,0:0:0:0:
182,192,59776,1,0,0:0:0:0:
475,192,59987,1,4,0:0:0:0:
402,192,60093,1,0,0:0:0:0:
329,192,60198,1,0,0:0:0:0:
256,192,60304,1,0,0:0:0:0:
402,192,60410,1,0,0:0:0:0:
329,192,60515,1,0,0:0:0:0:
256,192,60621,1,0,0:0:0:0:
182,192,60727,1,0,0:0:0:0:
36,192,60832,1,4,0:0:0:0:
475,192,60832,1,4,0:0:0:0:
182,192,61043,1,0,0:0:0:0:
329,192,61043,1,0,0:0:0:0:
109,192,61255,1,0,0:0:0:0:
402,192,61360,1,0,0:0:0:0:
109,192,61466,1,0,0:0:0:0:
402,192,61572,1,0,0:0:0:0:
256,192,61677,128,4,62100:0:0:0:0:
182,192,61677,1,4,0:0:0:0:
36,192,61783,1,0,0:0:0:0:
402,192,61888,1,0,0:0:0:0:
182,192,61994,1,0,0:0:0:0:
475,192,62100,1,0,0:0:0:0:
36,192,62100,1,0,0:0:0:0:
402,192,62311,1,0,0:0:0:0:
109,192,62522,1,4,0:0:0:0:
402,192,62522,1,4,0:0:0:0:
475,192,62734,1,0,0:0:0:0:
36,192,62734,1,0,0:0:0:0:
402,192,62945,1,0,0:0:0:0:
109,192,62945,1,0,0:0:0:0:
475,192,63050,1,0,0:0:0:0:
36,192,63050,1,0,0:0:0:0:
402,192,63156,1,0,0:0:0:0:
109,192,63156,1,0,0:0:0:0:
329,192,63262,1,0,0:0:0:0:
182,192,63367,1,4,0:0:0:0:
36,192,63579,1,0,0:0:0:0:
182,192,63790,1,0,0:0:0:0:
256,192,64001,128,0,64212:0:0:0:0:
329,192,64212,1,4,0:0:0:0:
475,192,64212,1,4,0:0:0:0:
256,192,64424,1,0,0:0:0:0:
36,192,64529,1,0,0:0:0:0:
329,192,64635,1,0,0:0:0:0:
109,192,64741,1,0,0:0:0:0:
402,192,64846,1,0,0:0:0:0:
182,192,64952,1,0,0:0:0:0:
475,192,65058,1,4,0:0:0:0:
329,192,65163,1,0,0:0:0:0:
182,192,65269,1,0,0:0:0:0:
329,192,65374,1,0,0:0:0:0:
36,192,65480,1,0,0:0:0:0:
109,192,65586,1,0,0:0:0:0:
475,192,65691,1,0,0:0:0:0:
402,192,65797,1,0,0:0:0:0:
109,192,65903,128,4,66114:0:0:0:0:
475,192,66114,1,0,0:0:0:0:
329,192,66114,1,0,0:0:0:0:
256,192,66325,1,0,0:0:0:0:
475,192,66431,1,0,0:0:0:0:
182,192,66536,1,0,0:0:0:0:
475,192,66642,1,0,0:0:0:0:
109,192,66748,1,4,0:0:0:0:
402,192,66853,1,0,0:0:0:0:
36,192,66959,1,0,0:0:0:0:
402,192,67065,1,0,0:0:0:0:
36,192,67170,128,0,67381:0:0:0:0:
109,192,67381,1,0,0:0:0:0:
182,192,67487,1,0,0:0:0:0:
329,192,67593,128,4,68227:0:0:0:0:
475,192,67593,128,4,68227:0:0:0:0:
36,192,67593,1,4,0:0:0:0:
36,192,67804,1,0,0:0:0:0:
109,192,68015,1,0,0:0:0:0:
182,192,68227,1,0,0:0:0:0:
36,192,68438,1,4,0:0:0:0:
182,192,68491,1,0,0:0:0:0:
329,192,68543,1,0,0:0:0:0:
475,192,68649,128,0,68860:0:0:0:0:
36,192,68860,1,0,0:0:0:0:
109,192,68860,1,0,0:0:0:0:
256,192,68966,1,0,0:0:0:0:
329,192,68966,1,0,0:0:0:0:
402,192,69072,128,0,69283:0:0:0:0:
475,192,69072,128,0,69283:0:0:0:0:
182,192,69283,1,4,0:0:0:0:
256,192,69494,1,0,0:0:0:0:
329,192,69705,1,0,0:0:0:0:
256,192,69811,1,0,0:0:0:0:
109,192,70022,1,0,0:0:0:0:
329,192,70128,1,4,0:0:0:0:
402,192,70234,1,0,0:0:0:0:
329,192,70339,128,0,70550:0:0:0:0:
36,192,70550,128,0,70762:0:0:0:0:
182,192,70550,128,0,70762:0:0:0:0:
109,192,70762,1,0,0:0:0:0:
256,192,70762,1,4,0:0:0:0:
109,192,70973,1,4,0:0:0:0:
402,192,70973,1,4,0:0:0:0:
182,192,71184,1,0,0:0:0:0:
256,192,71290,1,0,0:0:0:0:
329,192,71396,1,0,0:0:0:0:
402,192,71501,1,0,0:0:0:0:
329,192,71607,1,0,0:0:0:0:
256,192,71712,1,0,0:0:0:0:
36,192,71818,1,4,0:0:0:0:
329,192,71924,1,0,0:0:0:0:
36,192,72029,1,0,0:0:0:0:
329,192,72135,1,0,0:0:0:0:
36,192,72241,128,0,72452:0:0:0:0:
182,192,72241,128,0,72452:0:0:0:0:
329,192,72452,1,0,0:0:0:0:
475,192,72452,1,0,0:0:0:0:
256,192,72663,1,4,0:0:0:0:
182,192,72874,1,0,0:0:0:0:
36,192,73086,1,0,0:0:0:0:
109,192,73191,1,0,0:0:0:0:
182,192,73297,1,0,0:0:0:0:
256,192,73403,1,0,0:0:0:0:
109,192,73508,128,4,73719:0:0:0:0:
329,192,73719,128,0,73931:0:0:0:0:
475,192,73931,128,0,74142:0:0:0:0:
256,192,73931,128,0,74142:0:0:0:0:
402,192,74142,1,4,0:0:0:0:
182,192,74142,1,0,0:0:0:0:
182,192,74353,1,4,0:0:0:0:
329,192,74565,1,0,0:0:0:0:
256,192,74670,1,0,0:0:0:0:
182,192,74776,1,0,0:0:0:0:
256,192,74881,1,0,0:0:0:0:
329,192,74987,1,0,0:0:0:0:
402,192,75093,1,0,0:0:0:0:
36,192,75198,1,4,0:0:0:0:
109,192,75251,1,0,0:0:0:0:
182,192,75304,1,0,0:0:0:0:
256,192,75357,1,0,0:0:0:0:
475,192,75410,1,0,0:0:0:0:
402,192,75462,1,0,0:0:0:0:
329,192,75515,1,0,0:0:0:0:
256,192,75568,1,0,0:0:0:0:
36,192,75621,128,0,75832:0:0:0:0:
475,192,75621,128,0,75832:0:0:0:0:
182,192,75832,1,0,0:0:0:0:
329,192,75832,1,4,0:0:0:0:
329,192,76043,128,4,76466:0:0:0:0:
475,192,76043,128,4,76466:0:0:0:0:
109,192,76255,1,0,0:0:0:0:
402,192,76466,128,0,77734:0:0:0:0:
182,192,76466,1,0,0:0:0:0:
182,192,76677,1,0,0:0:0:0:
256,192,76888,1,4,0:0:0:0:
182,192,76994,1,0,0:0:0:0:
109,192,77100,1,0,0:0:0:0:
256,192,77205,1,0,0:0:0:0:
109,192,77311,1,0,0:0:0:0:
36,192,77417,1,0,0:0:0:0:
109,192,77522,1,0,0:0:0:0:
109,192,77734,128,4,77945:0:0:0:0:
256,192,77734,128,4,77945:0:0:0:0:
182,192,77945,1,0,0:0:0:0:
329,192,77945,1,0,0:0:0:0:
329,192,78156,1,0,0:0:0:0:
402,192,78262,1,0,0:0:0:0:
475,192,78367,1,0,0:0:0:0:
402,192,78473,1,0,0:0:0:0:
36,192,78579,1,4,0:0:0:0:
109,192,78631,1,0,0:0:0:0:
182,192,78684,1,0,0:0:0:0:
329,192,78790,1,0,0:0:0:0:
36,192,78896,1,0,0:0:0:0:
475,192,79001,1,0,0:0:0:0:
475,192,79107,1,0,0:0:0:0:
256,192,79212,1,0,0:0:0:0:
182,192,79318,1,0,0:0:0:0:
109,192,79424,1,4,0:0:0:0:
402,192,79424,1,4,0:0:0:0:
182,192,79635,1,0,0:0:0:0:
109,192,79741,1,0,0:0:0:0:
36,192,79846,1,0,0:0:0:0:
256,192,79846,1,0,0:0:0:0:
256,192,80058,1,0,0:0:0:0:
109,192,80269,1,0,0:0:0:0:
402,192,80269,1,4,0:0:0:0:
109,192,80374,1,0,0:0:0:0:
402,192,80374,1,0,0:0:0:0:
109,192,80586,1,0,0:0:0:0:
402,192,80586,1,0,0:0:0:0:
182,192,80691,128,0,81114:0:0:0:0:
475,192,80797,1,0,0:0:0:0:
402,192,80903,1,0,0:0:0:0:
329,192,81008,1,0,0:0:0:0:
36,192,81114,128,4,81325:0:0:0:0:
475,192,81114,128,4,81325:0:0:0:0:
182,192,81325,1,0,0:0:0:0:
329,192,81325,1,0,0:0:0:0:
402,192,81536,1,0,0:0:0:0:
256,192,81642,1,0,0:0:0:0:
329,192,81748,1,0,0:0:0:0:
36,192,81853,1,0,0:0:0:0:
475,192,81959,1,4,0:0:0:0:
109,192,82065,1,0,0:0:0:0:
402,192,82170,1,0,0:0:0:0:
182,192,82276,1,0,0:0:0:0:
329,192,82381,128,0,82593:0:0:0:0:
36,192,82593,1,0,0:0:0:0:
182,192,82593,1,0,0:0:0:0:
256,192,82804,1,4,0:0:0:0:
182,192,82910,1,0,0:0:0:0:
36,192,83015,1,0,0:0:0:0:
109,192,83121,1,0,0:0:0:0:
182,192,83227,1,0,0:0:0:0:
329,192,83332,1,0,0:0:0:0:
402,192,83332,1,0,0:0:0:0:
109,192,83438,1,0,0:0:0:0:
182,192,83438,1,0,0:0:0:0:
329,192,83543,1,0,0:0:0:0:
475,192,83543,1,0,0:0:0:0:
182,192,83649,1,4,0:0:0:0:
36,192,83649,1,4,0:0:0:0:
402,192,83755,1,0,0:0:0:0:
329,192,83860,1,0,0:0:0:0:
256,192,83966,1,0,0:0:0:0:
109,192,84072,1,0,0:0:0:0:
402,192,84177,1,0,0:0:0:0:
109,192,84283,1,0,0:0:0:0:
402,192,84388,1,0,0:0:0:0:
182,192,84494,128,4,84705:0:0:0:0:
329,192,84494,128,4,84705:0:0:0:0:
36,192,84705,1,0,0:0:0:0:
475,192,84705,1,0,0:0:0:0:
182,192,84917,128,0,85973:0:0:0:0:
475,192,84917,1,0,0:0:0:0:
329,192,85128,1,0,0:0:0:0:
475,192,85339,1,4,0:0:0:0:
329,192,85445,5,0,0:0:0:0:
109,192,85550,1,0,0:0:0:0:
36,192,85656,1,0,0:0:0:0:
475,192,85762,1,0,0:0:0:0:
329,192,85867,1,0,0:0:0:0:
36,192,85973,1,0,0:0:0:0:
36,192,86184,1,4,0:0:0:0:
36,192,86396,1,0,0:0:0:0:
182,192,86501,1,0,0:0:0:0:
402,192,86607,128,0,86818:0:0:0:0:
36,192,86818,1,0,0:0:0:0:
182,192,86924,1,0,0:0:0:0:
402,192,87029,1,4,0:0:0:0:
36,192,87135,1,0,0:0:0:0:
109,192,87241,1,0,0:0:0:0:
256,192,87346,1,0,0:0:0:0:
182,192,87452,128,0,87874:0:0:0:0:
329,192,87452,128,0,87874:0:0:0:0:
109,192,87874,128,4,88086:0:0:0:0:
402,192,87874,128,4,88086:0:0:0:0:
182,192,88086,1,0,0:0:0:0:
329,192,88086,1,4,0:0:0:0:
182,192,88297,1,0,0:0:0:0:
256,192,88403,1,0,0:0:0:0:
329,192,88508,1,0,0:0:0:0:
36,192,88719,1,4,0:0:0:0:
109,192,88772,1,0,0:0:0:0:
182,192,88825,1,0,0:0:0:0:
256,192,88878,1,0,0:0:0:0:
475,192,88931,1,0,0:0:0:0:
402,192,88984,1,0,0:0:0:0:
329,192,89036,1,0,0:0:0:0:
256,192,89089,1,0,0:0:0:0:
36,192,89142,128,0,89353:0:0:0:0:
475,192,89142,128,0,89353:0:0:0:0:
182,192,89353,1,0,0:0:0:0:
329,192,89353,1,4,0:0:0:0:
182,192,89565,5,4,0:0:0:0:
402,192,89776,1,0,0:0:0:0:
475,192,89987,1,0,0:0:0:0:
329,192,90093,1,0,0:0:0:0:
256,192,90304,1,0,0:0:0:0:
109,192,90410,1,4,0:0:0:0:
402,192,90515,1,0,0:0:0:0:
109,192,90621,1,0,0:0:0:0:
182,192,90832,1,0,0:0:0:0:
256,192,90832,1,0,0:0:0:0:
329,192,91043,1,0,0:0:0:0:
475,192,91255,1,4,0:0:0:0:
475,192,91466,1,0,0:0:0:0:
256,192,91572,1,0,0:0:0:0:
182,192,91677,1,0,0:0:0:0:
109,192,91783,1,0,0:0:0:0:
182,192,91888,1,0,0:0:0:0:
256,192,91994,1,0,0:0:0:0:
329,192,92100,1,4,0:0:0:0:
109,192,92205,1,0,0:0:0:0:
402,192,92311,1,0,0:0:0:0:
182,192,92417,1,0,0:0:0:0:
329,192,92522,1,0,0:0:0:0:
109,192,92628,1,0,0:0:0:0:
402,192,92734,1,0,0:0:0:0:
182,192,92839,1,0,0:0:0:0:
256,192,92945,1,4,0:0:0:0:
