osu file format v14

[General]
AudioFilename: [SDVX II ] Nyan Cat [INF].mp3
AudioLeadIn: 0
PreviewTime: 42241
Countdown: 0
SampleSet: Soft
StackLeniency: 0.7
Mode: 0
LetterboxInBreaks: 0
WidescreenStoryboard: 0

[Editor]
Bookmarks: 18050,24811,31255,38860,52593,67698,89565
DistanceSpacing: 0.9
BeatDivisor: 4
GridSize: 4
TimelineZoom: 2.400005

[Metadata]
Title:Nyan Cat
TitleUnicode:Nyan Cat
Artist:daniwellP feat. Momone Momo
ArtistUnicode:daniwellP feat. 桃音モモ
Creator:Midge
Version:Insanya~
Source:SOUND VOLTEX BOOTH
Tags:Haneure Pew Rumia- NessieSP Murako Izuriha Kuo Kyoka Nukedboom meow pop tart meme remix TEK-A-RHYTHM utau Nyanyanyanyanyanyanya!
BeatmapID:455233
BeatmapSetID:165533

[Difficulty]
HPDrainRate:6
CircleSize:4
OverallDifficulty:7
ApproachRate:8.8
SliderMultiplier:1.8
SliderTickRate:1

[Events]
//Background and Video events
0,0,"7f5eb44a9751a0cd44c5e75321f1b1cf.png",0,0
//Break Periods
//Storyboard Layer 0 (Background)
//Storyboard Layer 1 (Fail)
//Storyboard Layer 2 (Pass)
//Storyboard Layer 3 (Foreground)
//Storyboard Sound Samples

[TimingPoints]
5058,422.535211267606,4,2,1,80,1,0
8649,-100,4,2,1,80,0,0
10128,-71.4285714285714,4,2,1,80,0,0
10973,-100,4,2,1,80,0,0
13508,-71.4285714285714,4,2,1,80,0,0
14353,-100,4,2,1,80,0,0
14565,-133.333333333333,4,2,1,80,0,0
15198,-100,4,2,1,80,0,0
16360,-133.333333333333,4,2,1,80,0,0
17734,-100,4,2,1,80,0,0
18050,-66.6666666666667,4,2,1,80,0,0
18367,-100,4,2,1,80,0,0
19424,-66.6666666666667,4,2,1,80,0,0
21114,-133.333333333333,4,2,1,80,0,0
21536,-89.2857142857143,4,2,1,80,0,0
22804,-100,4,2,1,80,0,0
24072,-100,4,2,1,60,0,0
24494,-100,4,2,1,60,0,0
25339,-100,4,2,1,60,0,0
27241,-200,4,2,1,60,0,0
27452,-133.333333333333,4,2,1,60,0,0
27663,-100,4,2,1,60,0,0
29353,-66.6666666666667,4,2,1,60,0,0
31255,-133.333333333333,4,2,1,60,0,0
33367,-200,4,2,1,60,0,0
34001,-100,4,2,1,60,0,0
35903,-133.333333333333,4,2,1,60,0,0
36536,-100,4,2,1,60,0,0
40550,-200,4,2,1,60,0,0
41396,-133.333333333333,4,2,1,60,0,0
41607,-100,4,2,1,60,0,0
46466,-133.333333333333,4,2,1,60,0,0
46888,-200,4,2,1,60,0,0
48367,-133.333333333333,4,2,1,60,0,0
48579,-100,4,2,1,60,0,0
51536,-100,4,2,1,60,0,0
53649,-133.333333333333,4,2,1,60,0,0
54072,-100,4,2,1,60,0,0
58297,-100,4,2,1,60,0,0
61677,-200,4,2,1,60,0,0
62945,-133.333333333333,4,2,1,60,0,0
64001,-133.333333333333,4,2,1,80,0,0
64424,-100,4,2,1,80,0,0
65480,-80,4,2,1,80,0,0
65903,-100,4,2,1,80,0,0
67170,-133.333333333333,4,2,1,80,0,0
71184,-200,4,2,1,80,0,0
71396,-133.333333333333,4,2,1,80,0,0
71607,-100,4,2,1,80,0,0
73508,-133.333333333333,4,2,1,80,0,0
74142,-100,4,2,1,80,0,0
75198,-50,4,2,1,80,0,0
76255,-100,4,2,1,80,0,0
76677,-133.333333333333,4,2,1,80,0,0
78579,-100,4,2,1,80,0,0
84072,-80,4,2,1,80,0,0
84917,-200,4,2,1,80,0,0
85339,-133.333333333333,4,2,1,80,0,0
85762,-100,4,2,1,80,0,0
86818,-133.333333333333,4,2,1,80,0,0
87452,-80,4,2,1,80,0,0
88297,-200,4,2,1,80,0,0
88508,-133.333333333333,4,2,1,80,0,0
88719,-100,4,2,1,80,0,0
88931,-80,4,2,1,80,0,0

[Colours]
Combo1 : 180,157,247
Combo2 : 255,102,102
Combo3 : 255,176,98
Combo4 : 231,233,133
Combo5 : 151,223,154
Combo6 : 140,190,232

[HitObjects]
124,128,5057,5,8,0:0:0:0:
120,116,5163,1,0,0:0:0:0:
116,104,5269,1,0,0:0:0:0:
160,244,5480,1,8,0:0:0:0:
272,312,5691,5,0,0:0:0:0:
280,292,5797,1,0,0:0:0:0:
288,272,5903,1,4,0:0:0:0:
296,252,6008,1,0,0:0:0:0:
304,232,6114,2,0,L|325:176,1,45,0|0,0:0|0:0,0:0:0:0:
380,344,6325,5,8,0:0:0:0:
380,344,6431,1,0,0:0:0:0:
380,344,6536,1,0,0:0:0:0:
258,173,6748,6,0,L|252:145,2,22.5,4|0|0,0:0|0:0|0:0,0:0:0:0:
231,201,6959,1,0,0:0:0:0:
191,206,7065,1,0,0:0:0:0:
160,192,7170,2,0,P|131:162|115:253,1,180,8|8,0:0|0:0,0:0:0:0:
123,263,7698,1,0,0:0:0:0:
152,288,7804,1,0,0:0:0:0:
168,319,7910,1,0,0:0:0:0:
176,352,8015,1,8,0:0:0:0:
204,340,8121,1,0,0:0:0:0:
239,334,8227,2,0,P|283:334|295:338,1,45,8|8,0:0|0:0,0:0:0:0:
388,352,8438,5,4,0:0:0:0:
364,68,8649,1,0,0:0:0:0:
280,195,8860,2,0,P|252:215|224:223,1,45,8|0,0:0|0:0,0:0:0:0:
404,244,9177,6,0,P|386:274|365:293,3,45,0|4|0|0,0:0|0:0|0:0|0:0,0:0:0:0:
300,324,9705,1,8,0:0:0:0:
244,248,9917,1,0,0:0:0:0:
111,307,10128,6,0,P|153:342|184:286,1,125.999996154785,4|0,0:0|0:0,0:0:0:0:
170,261,10445,1,0,0:0:0:0:
160,225,10550,1,8,0:0:0:0:
164,186,10656,1,0,0:0:0:0:
185,155,10762,1,0,0:0:0:0:
216,134,10867,1,0,0:0:0:0:
250,123,10973,6,0,P|314:111|346:115,1,90,4|0,0:0|0:0,0:0:0:0:
376,128,11290,1,0,0:0:0:0:
404,152,11396,1,8,0:0:0:0:
419,184,11501,1,0,0:0:0:0:
420,220,11607,1,0,0:0:0:0:
407,253,11712,1,0,0:0:0:0:
375,270,11818,6,0,P|335:242|311:206,1,90,4|0,0:0|0:0,0:0:0:0:
184,68,12241,2,0,P|224:96|248:132,1,90,8|0,0:0|0:0,0:0:0:0:
256,152,12558,1,0,0:0:0:0:
256,174,12663,2,0,P|276:214|288:226,3,45,4|0|0|0,0:0|0:0|0:0|0:0,0:0:0:0:
317,234,13086,2,0,P|329:252|336:273,3,45,8|0|0|0,0:0|0:0|0:0|0:0,0:0:0:0:
368,288,13508,6,0,P|424:264|436:200,1,125.999996154785,4|0,0:0|0:0,0:0:0:0:
422,163,13825,1,0,0:0:0:0:
388,133,13931,2,0,P|371:99|381:31,1,62.9999980773926,8|0,0:0|0:0,0:0:0:0:
276,20,14142,2,0,P|293:54|283:122,1,62.9999980773926,0|0,0:0|0:0,0:0:0:0:
256,140,14353,6,0,L|238:154,2,22.5,4|0|0,0:0|0:0|0:0,0:0:0:0:
232,188,14565,6,0,P|212:220|181:232,2,67.5000025749208,0|8|0,0:0|0:0|0:0,0:0:0:0:
124,136,15198,5,4,0:0:0:0:
88,48,15410,1,0,0:0:0:0:
46,155,15621,2,0,P|70:199|86:207,1,45,8|0,0:0|0:0,0:0:0:0:
224,220,15938,1,0,0:0:0:0:
232,240,16043,1,0,0:0:0:0:
240,256,16148,1,0,0:0:0:0:
248,276,16255,2,0,P|280:320|248:344,1,90,0|8,0:0|0:0,0:0:0:0:
144,316,16677,1,0,0:0:0:0:
248,276,16888,6,0,P|291:271|330:307,1,67.5000025749208,4|0,0:0|0:0,0:0:0:0:
325,292,17205,1,0,0:0:0:0:
343,299,17311,1,8,0:0:0:0:
366,300,17417,1,0,0:0:0:0:
390,288,17522,1,0,0:0:0:0:
405,261,17628,1,0,0:0:0:0:
392,217,17734,2,0,B|406:196|346:164|375:132,2,90,4|0|8,0:0|0:0|0:0,0:0:0:0:
328,76,18367,2,0,P|364:64|393:66,2,45,0|0|4,0:0|0:0|0:0,0:0:0:0:
269,167,18790,1,0,0:0:0:0:
257,60,19001,6,0,L|207:89,1,45,8|0,0:0|0:0,0:0:0:0:
157,146,19212,2,0,L|114:128,1,45,0|0,0:0|0:0,0:0:0:0:
68,65,19424,1,4,0:0:0:0:
68,65,19529,1,0,0:0:0:0:
68,65,19635,6,0,P|41:29|93:47,1,135.000005149842,0|8,0:0|0:0,0:0:0:0:
0,114,20058,2,0,L|69:153,2,67.5000025749208,0|0|4,0:0|0:0|0:0,0:0:0:0:
0,201,20480,5,0,0:0:0:0:
7,219,20586,1,0,0:0:0:0:
20,233,20691,1,8,0:0:0:0:
39,239,20797,1,0,0:0:0:0:
56,249,20903,1,0,0:0:0:0:
70,262,21008,1,0,0:0:0:0:
74,276,21114,6,0,P|78:326|113:366,1,101.250003862381,4|0,0:0|0:0,0:0:0:0:
183,383,21536,6,0,P|179:333|144:293,2,101.250003862381,8|8|0,0:0|0:0|0:0,0:0:0:0:
237,249,22170,5,0,0:0:0:0:
244,272,22276,1,0,0:0:0:0:
262,289,22381,1,8,0:0:0:0:
237,138,22593,5,0,0:0:0:0:
261,170,22699,1,0,0:0:0:0:
304,179,22804,2,0,L|368:172,1,45,4|0,0:0|0:0,0:0:0:0:
464,152,23015,2,0,L|396:143,1,45,0|0,0:0|0:0,0:0:0:0:
302,110,23227,2,0,L|366:103,1,45,8|0,0:0|0:0,0:0:0:0:
457,82,23438,2,0,L|389:73,1,45,0|0,0:0|0:0,0:0:0:0:
315,29,23649,5,4,0:0:0:0:
246,49,23860,1,0,0:0:0:0:
187,90,24072,2,0,P|167:110|139:122,3,45,8|0|0|0,0:0|0:0|0:0|0:0,0:0:0:0:
146,163,24494,6,0,P|134:193|117:215,1,45,4|0,0:0|0:0,0:0:0:0:
203,232,24705,2,0,P|191:262|174:284,1,45,0|0,0:0|0:0,0:0:0:0:
265,297,24917,2,0,P|253:327|229:354,2,60,8|0|0,0:0|0:0|0:0,0:0:0:0:
336,344,25339,5,4,0:0:0:0:
382,280,25550,5,0,0:0:0:0:
382,280,25656,1,0,0:0:0:0:
382,280,25762,1,8,0:0:0:0:
397,193,25973,5,0,0:0:0:0:
397,193,26079,1,0,0:0:0:0:
397,193,26184,2,0,L|351:140,1,45,4|0,0:0|0:0,0:0:0:0:
282,157,26396,2,0,L|236:104,1,45,0|0,0:0|0:0,0:0:0:0:
361,261,26607,2,0,L|390:294,1,45,8|0,0:0|0:0,0:0:0:0:
229,224,26818,2,0,L|258:257,1,45,0|0,0:0|0:0,0:0:0:0:
100,170,27029,1,4,0:0:0:0:
100,170,27241,6,0,L|127:147,1,22.5,0|0,0:0|0:0,0:0:0:0:
165,220,27452,2,0,L|217:205,1,33.7500012874604,8|0,0:0|0:0,0:0:0:0:
207,292,27663,2,0,L|262:313,1,45,0|0,0:0|0:0,0:0:0:0:
355,245,27874,5,4,0:0:0:0:
358,200,27980,1,0,0:0:0:0:
315,185,28086,1,0,0:0:0:0:
288,219,28191,1,0,0:0:0:0:
312,258,28297,1,8,0:0:0:0:
505,351,28508,1,0,0:0:0:0:
312,258,28719,5,4,0:0:0:0:
312,258,28931,2,0,P|270:249|232:248,2,45,0|0|8,0:0|0:0|0:0,0:0:0:0:
202,301,29353,6,0,P|156:293|113:295,1,67.5000025749208,0|0,0:0|0:0,0:0:0:0:
235,309,29565,1,4,0:0:0:0:
262,328,29670,1,0,0:0:0:0:
293,341,29776,1,0,0:0:0:0:
326,342,29881,1,0,0:0:0:0:
357,329,29987,5,8,0:0:0:0:
381,305,30093,1,0,0:0:0:0:
392,273,30198,1,0,0:0:0:0:
395,239,30304,1,0,0:0:0:0:
382,207,30410,5,4,0:0:0:0:
254,115,30621,1,8,0:0:0:0:
312,258,30832,1,4,0:0:0:0:
355,110,31043,1,8,0:0:0:0:
218,193,31255,6,0,B|171:243|84:240|40:190|60:140|118:128|127:152|118:177,1,236.250009012223,4|0,0:0|0:0,0:0:0:0:
120,166,32100,5,4,0:0:0:0:
100,319,32311,1,8,0:0:0:0:
247,338,32522,1,4,0:0:0:0:
266,185,32733,1,8,0:0:0:0:
120,166,32945,6,0,P|103:200|33:216,1,101.250003862381,4|0,0:0|0:0,0:0:0:0:
108,242,33367,6,0,P|81:262|67:293,1,67.5,8|0,0:0|0:0,0:0:0:0:
136,305,33790,5,4,0:0:0:0:
272,244,34001,2,0,L|223:271,1,45,0|0,0:0|0:0,0:0:0:0:
324,190,34212,2,0,L|336:145,1,45,8|0,0:0|0:0,0:0:0:0:
344,260,34424,2,0,L|376:311,1,45,0|0,0:0|0:0,0:0:0:0:
420,245,34635,6,0,P|446:233|473:237,1,45,0|0,0:0|0:0,0:0:0:0:
425,168,34846,2,0,P|445:143|494:128,1,45,0|0,0:0|0:0,0:0:0:0:
385,96,35058,6,0,P|392:44|415:2,1,90,8|0,0:0|0:0,0:0:0:0:
323,128,35480,5,4,0:0:0:0:
213,59,35691,1,0,0:0:0:0:
323,128,35903,6,0,L|222:65,1,101.250003862381,8|0,0:0|0:0,0:0:0:0:
213,59,36325,5,4,0:0:0:0:
180,48,36431,1,0,0:0:0:0:
150,62,36536,2,0,P|140:101|105:140,2,90,0|8|0,0:0|0:0|0:0,0:0:0:0:
168,131,37170,6,0,B|165:154|165:154|180:168|180:168|168:175|168:175|194:206|184:224|192:221,1,90,4|0,0:0|0:0,0:0:0:0:
213,224,37487,1,0,0:0:0:0:
243,203,37593,2,0,P|269:241|316:272,1,90,8|0,0:0|0:0,0:0:0:0:
336,283,37910,1,0,0:0:0:0:
372,300,38015,6,0,L|411:331,1,45,4|0,0:0|0:0,0:0:0:0:
468,275,38227,2,0,L|429:244,1,45,0|0,0:0|0:0,0:0:0:0:
354,183,38438,2,0,L|366:230,1,45,8|0,0:0|0:0,0:0:0:0:
494,384,38649,2,0,L|467:325,1,45,0|0,0:0|0:0,0:0:0:0:
381,372,38860,5,4,0:0:0:0:
328,358,38966,1,0,0:0:0:0:
292,322,39072,2,0,P|240:288|179:290,1,90,0|8,0:0|0:0,0:0:0:0:
154,332,39388,1,0,0:0:0:0:
81,320,39494,2,0,L|46:310,2,22.5,0|0|0,0:0|0:0|0:0,0:0:0:0:
42,285,39705,6,0,L|24:237,1,45,4|0,0:0|0:0,0:0:0:0:
118,175,39917,2,0,L|102:225,1,45,0|0,0:0|0:0,0:0:0:0:
200,157,40128,2,0,L|185:93,1,45,8|0,0:0|0:0,0:0:0:0:
277,48,40339,5,0,0:0:0:0:
277,48,40445,1,0,0:0:0:0:
277,48,40550,2,0,L|269:223,1,157.5,4|0,0:0|0:0,0:0:0:0:
246,235,41396,6,0,L|294:280,1,33.7500012874604,12|0,0:0|0:0,0:0:0:0:
349,306,41607,2,0,L|275:335,1,45,0|0,0:0|0:0,0:0:0:0:
216,304,41818,1,8,0:0:0:0:
358,378,42029,1,8,0:0:0:0:
200,352,42241,5,4,0:0:0:0:
382,293,42452,1,0,0:0:0:0:
246,235,42663,2,0,L|189:226,1,45,8|0,0:0|0:0,0:0:0:0:
192,158,42874,2,0,L|135:149,1,45,0|0,0:0|0:0,0:0:0:0:
148,80,43086,1,4,0:0:0:0:
125,76,43191,1,0,0:0:0:0:
103,72,43297,1,0,0:0:0:0:
258,104,43508,6,0,L|290:98,2,22.5,8|0|0,0:0|0:0|0:0,0:0:0:0:
308,110,43719,1,0,0:0:0:0:
228,206,43931,6,0,L|270:192,1,45,4|0,0:0|0:0,0:0:0:0:
319,199,44142,1,0,0:0:0:0:
359,204,44248,1,0,0:0:0:0:
395,221,44353,5,8,0:0:0:0:
412,258,44459,1,0,0:0:0:0:
406,298,44565,1,0,0:0:0:0:
384,332,44670,1,0,0:0:0:0:
345,343,44776,6,0,L|298:331,1,45,0|0,0:0|0:0,0:0:0:0:
340,268,44987,2,0,L|285:255,1,45,0|0,0:0|0:0,0:0:0:0:
328,192,45198,2,0,L|273:179,1,45,8|0,0:0|0:0,0:0:0:0:
321,114,45410,2,0,L|282:105,2,22.5,0|0|0,0:0|0:0|0:0,0:0:0:0:
292,75,45621,5,4,0:0:0:0:
433,112,45832,2,0,L|378:95,1,45,0|0,0:0|0:0,0:0:0:0:
231,134,46043,2,0,L|176:117,1,45,8|0,0:0|0:0,0:0:0:0:
372,205,46255,1,0,0:0:0:0:
372,205,46360,1,0,0:0:0:0:
372,205,46466,6,0,L|326:191,1,33.7500012874604,4|0,0:0|0:0,0:0:0:0:
170,227,46677,2,0,L|126:213,1,33.7500012874604,0|0,0:0|0:0,0:0:0:0:
311,308,46888,6,0,L|285:299,1,22.5,8|0,0:0|0:0,0:0:0:0:
124,323,47100,1,0,0:0:0:0:
234,384,47311,5,4,0:0:0:0:
124,323,47522,2,0,L|151:332,1,22.5,0|0,0:0|0:0,0:0:0:0:
310,308,47734,2,0,L|331:315,1,22.5,8|0,0:0|0:0,0:0:0:0:
170,226,47945,1,0,0:0:0:0:
372,205,48156,6,0,L|399:214,1,22.5,4|0,0:0|0:0,0:0:0:0:
230,134,48367,6,0,L|265:145,1,33.7500012874604,0|0,0:0|0:0,0:0:0:0:
433,112,48579,6,0,L|475:125,1,45,8|0,0:0|0:0,0:0:0:0:
299,77,48790,5,0,0:0:0:0:
297,81,48896,1,0,0:0:0:0:
296,85,49001,1,4,0:0:0:0:
213,88,49212,5,0,0:0:0:0:
204,98,49318,1,0,0:0:0:0:
198,110,49424,1,8,0:0:0:0:
112,107,49635,5,0,0:0:0:0:
95,128,49741,1,0,0:0:0:0:
87,156,49846,2,0,L|84:209,1,45,4|0,0:0|0:0,0:0:0:0:
144,263,50058,2,0,L|156:206,1,45,0|0,0:0|0:0,0:0:0:0:
218,94,50269,2,0,L|228:151,1,45,8|0,0:0|0:0,0:0:0:0:
267,302,50480,2,0,L|275:248,1,45,0|0,0:0|0:0,0:0:0:0:
323,66,50691,5,4,0:0:0:0:
323,66,50903,1,0,0:0:0:0:
323,66,51114,1,8,0:0:0:0:
323,66,51325,1,0,0:0:0:0:
323,66,51536,2,0,L|342:117,1,45,4|0,0:0|0:0,0:0:0:0:
413,114,51748,2,0,L|414:180,1,45,0|0,0:0|0:0,0:0:0:0:
484,202,51959,6,0,L|470:263,2,60,8|0|0,0:0|0:0|0:0,0:0:0:0:
476,337,52381,5,4,0:0:0:0:
476,337,52487,1,0,0:0:0:0:
476,337,52593,2,0,L|428:368,1,45,0|0,0:0|0:0,0:0:0:0:
314,351,52804,1,8,0:0:0:0:
314,351,52910,1,0,0:0:0:0:
314,351,53016,2,0,L|362:320,1,45,0|0,0:0|0:0,0:0:0:0:
451,257,53227,6,0,L|403:288,1,45,4|0,0:0|0:0,0:0:0:0:
289,271,53438,2,0,L|337:240,1,45,0|0,0:0|0:0,0:0:0:0:
330,150,53649,6,0,L|256:199,1,67.5000025749208,8|0,0:0|0:0,0:0:0:0:
257,198,53966,5,0,0:0:0:0:
242,208,54072,1,4,0:0:0:0:
135,277,54283,2,0,L|188:240,1,45,0|0,0:0|0:0,0:0:0:0:
136,185,54494,2,0,L|167:164,2,22.5,8|0|0,0:0|0:0|0:0,0:0:0:0:
112,159,54705,2,0,L|52:138,1,45,0|0,0:0|0:0,0:0:0:0:
131,78,54917,6,0,L|97:46,1,45,4|0,0:0|0:0,0:0:0:0:
211,137,55128,2,0,L|266:151,1,45,0|0,0:0|0:0,0:0:0:0:
228,41,55339,1,8,0:0:0:0:
112,159,55550,1,0,0:0:0:0:
228,41,55762,5,4,0:0:0:0:
298,111,55973,2,0,L|336:70,2,45,0|0|8,0:0|0:0|0:0,0:0:0:0:
231,160,56396,5,0,0:0:0:0:
231,160,56501,1,0,0:0:0:0:
203,181,56607,5,4,0:0:0:0:
189,212,56712,1,0,0:0:0:0:
191,245,56818,1,0,0:0:0:0:
209,273,56923,1,0,0:0:0:0:
240,290,57029,5,8,0:0:0:0:
277,264,57134,1,0,0:0:0:0:
320,251,57240,1,0,0:0:0:0:
364,251,57345,1,0,0:0:0:0:
415,273,57452,5,4,0:0:0:0:
364,81,57663,1,8,0:0:0:0:
348,326,57874,1,4,0:0:0:0:
285,128,58085,1,8,0:0:0:0:
270,368,58297,6,0,B|230:343|218:289|211:237|275:210|336:244|327:340|271:327|233:322|175:258|162:325,1,315,4|0,0:0|0:0,0:0:0:0:
153,328,59142,5,4,0:0:0:0:
265,195,59353,1,8,0:0:0:0:
75,336,59565,1,4,0:0:0:0:
187,204,59776,1,8,0:0:0:0:
47,216,59987,6,0,L|102:189,3,45,4|0|0|0,0:0|0:0|0:0|0:0,0:0:0:0:
107,160,60410,2,0,L|162:133,3,45,8|0|0|0,0:0|0:0|0:0|0:0,0:0:0:0:
166,104,60832,5,4,0:0:0:0:
326,133,61043,1,0,0:0:0:0:
239,181,61255,1,8,0:0:0:0:
317,23,61466,1,0,0:0:0:0:
370,163,61677,6,0,L|393:144,1,22.5,4|0,0:0|0:0,0:0:0:0:
436,207,61888,2,0,L|473:207,1,22.5,0|0,0:0|0:0,0:0:0:0:
454,284,62100,5,8,0:0:0:0:
292,176,62311,1,0,0:0:0:0:
311,321,62522,5,4,0:0:0:0:
192,218,62733,1,0,0:0:0:0:
274,330,62945,2,0,L|246:308,1,33.7500012874604,8|0,0:0|0:0,0:0:0:0:
161,241,63156,2,0,L|139:234,2,16.8750006437302,0|0|0,0:0|0:0|0:0,0:0:0:0:
132,266,63367,5,4,0:0:0:0:
237,341,63578,1,0,0:0:0:0:
104,288,63790,5,8,0:0:0:0:
202,350,64001,1,0,0:0:0:0:
67,348,64212,5,4,0:0:0:0:
67,348,64424,2,0,L|104:318,1,45,0|0,0:0|0:0,0:0:0:0:
165,357,64635,2,0,L|184:310,1,45,8|0,0:0|0:0,0:0:0:0:
257,314,64846,2,0,L|236:253,1,45,0|0,0:0|0:0,0:0:0:0:
127,202,65058,6,0,L|177:233,1,45,4|0,0:0|0:0,0:0:0:0:
304,222,65269,2,0,L|265:198,1,45,4|0,0:0|0:0,0:0:0:0:
100,271,65480,6,0,L|154:303,1,56.25,8|0,0:0|0:0,0:0:0:0:
333,323,65691,2,0,L|270:287,1,56.25
193,220,65903,6,0,L|172:229,2,22.5,4|0|0,0:0|0:0|0:0,0:0:0:0:
224,243,66114,2,0,L|301:214,1,67.5,0|0,0:0|0:0,0:0:0:0:
318,233,66325,2,0,L|369:229,1,45,8|0,0:0|0:0,0:0:0:0:
339,158,66536,2,0,L|390:154,1,45,0|0,0:0|0:0,0:0:0:0:
291,89,66748,6,0,L|342:85,1,45,4|0,0:0|0:0,0:0:0:0:
212,89,66959,2,0,L|261:69,1,45,0|0,0:0|0:0,0:0:0:0:
127,105,67170,6,0,L|180:58,1,67.5000025749208,8|0,0:0|0:0,0:0:0:0:
189,53,67487,1,0,0:0:0:0:
200,45,67593,1,4,0:0:0:0:
50,176,68438,6,0,L|75:184,2,16.8750006437302,8|0|0,0:0|0:0|0:0,0:0:0:0:
91,162,68649,1,0,0:0:0:0:
54,258,68860,6,0,L|94:275,1,33.7500012874604,8|0,0:0|0:0,0:0:0:0:
95,243,69072,1,8,0:0:0:0:
58,345,69283,5,4,0:0:0:0:
205,306,69494,1,0,0:0:0:0:
58,345,69705,2,0,L|99:332,1,33.7500012874604,8|0,0:0|0:0,0:0:0:0:
280,277,70022,6,0,L|321:264,2,33.7500012874604,0|4|0,0:0|0:0|0:0,0:0:0:0:
205,306,70339,1,0,0:0:0:0:
43,268,70550,5,8,0:0:0:0:
267,376,70762,1,0,0:0:0:0:
292,260,70973,1,4,0:0:0:0:
292,260,71184,6,0,L|302:233,1,22.5,0|0,0:0|0:0,0:0:0:0:
239,199,71396,2,0,L|258:154,1,33.7500012874604,8|0,0:0|0:0,0:0:0:0:
189,133,71607,2,0,L|213:74,1,45,0|0,0:0|0:0,0:0:0:0:
125,83,71818,5,4,0:0:0:0:
130,69,71923,1,0,0:0:0:0:
135,56,72029,1,0,0:0:0:0:
140,43,72134,1,0,0:0:0:0:
146,31,72241,2,0,L|157:1,2,22.5,8|0|0,0:0|0:0|0:0,0:0:0:0:
72,25,72452,6,0,L|51:75,1,45,0|0,0:0|0:0,0:0:0:0:
3,174,72663,1,4,0:0:0:0:
181,264,72874,1,0,0:0:0:0:
0,285,73086,6,0,L|50:272,1,45,8|0,0:0|0:0,0:0:0:0:
198,163,73297,2,0,L|147:177,1,45,0|0,0:0|0:0,0:0:0:0:
75,212,73508,6,0,L|138:247,2,67.5000025749208,4|0|8,0:0|0:0|0:0,0:0:0:0:
257,306,74142,6,0,L|302:327,1,45,0|0,0:0|0:0,0:0:0:0:
394,370,74353,1,4,0:0:0:0:
253,291,74565,6,0,L|298:312,1,45,0|0,0:0|0:0,0:0:0:0:
181,208,74776,2,0,L|154:164,1,45,8|0,0:0|0:0,0:0:0:0:
179,307,74987,2,0,L|162:363,1,45,0|0,0:0|0:0,0:0:0:0:
263,207,75198,6,0,L|289:151,6,45,4|0|0|0|0|0|0,0:0|0:0|0:0|0:0|0:0|0:0|0:0,0:0:0:0:
313,155,75621,5,8,0:0:0:0:
157,338,75832,1,8,0:0:0:0:
76,163,76043,1,4,0:0:0:0:
167,313,76255,6,0,L|140:258,1,45,0|0,0:0|0:0,0:0:0:0:
86,138,76466,1,8,0:0:0:0:
181,286,76677,6,0,L|165:254,1,33.7500012874604,0|0,0:0|0:0,0:0:0:0:
130,183,76888,2,0,L|112:151,1,33.7500012874604,4|0,0:0|0:0,0:0:0:0:
160,80,77100,2,0,L|181:115,1,33.7500012874604,0|0,0:0|0:0,0:0:0:0:
304,188,77311,2,0,L|281:156,1,33.7500012874604,8|0,0:0|0:0,0:0:0:0:
280,8,77522,2,0,L|303:47,1,33.7500012874604,0|0,0:0|0:0,0:0:0:0:
406,151,77734,5,4,0:0:0:0:
475,10,77945,1,0,0:0:0:0:
406,151,78156,5,8,0:0:0:0:
375,172,78262,1,0,0:0:0:0:
338,176,78367,1,0,0:0:0:0:
302,165,78473,1,0,0:0:0:0:
279,135,78579,6,0,L|261:98,2,22.5,4|0|0,0:0|0:0|0:0,0:0:0:0:
242,128,78790,2,0,L|208:165,1,45,0|0,0:0|0:0,0:0:0:0:
247,229,79001,5,8,0:0:0:0:
247,229,79107,1,0,0:0:0:0:
247,229,79212,2,0,L|213:266,1,45,0|0,0:0|0:0,0:0:0:0:
266,312,79424,1,4,0:0:0:0:
206,218,79635,6,0,L|172:255,1,45,0|0,0:0|0:0,0:0:0:0:
297,331,79846,1,8,0:0:0:0:
167,209,80058,6,0,L|133:246,1,45,0|0,0:0|0:0,0:0:0:0:
325,346,80269,2,0,L|367:301,2,60,4|0|0,0:0|0:0|0:0,0:0:0:0:
417,246,80691,1,8,0:0:0:0:
135,200,80903,6,0,L|101:237,1,45,0|0,0:0|0:0,0:0:0:0:
358,365,81114,1,4,0:0:0:0:
358,365,81325,2,0,L|309:337,1,45,0|0,0:0|0:0,0:0:0:0:
244,351,81536,2,0,L|195:323,1,45,8|0,0:0|0:0,0:0:0:0:
188,234,81748,2,0,L|227:256,1,45,0|0,0:0|0:0,0:0:0:0:
193,161,81959,6,0,L|144:133,1,45,4|0,0:0|0:0,0:0:0:0:
114,67,82170,2,0,L|65:39,1,45,0|0,0:0|0:0,0:0:0:0:
215,195,82381,5,8,0:0:0:0:
95,31,82593,1,0,0:0:0:0:
215,195,82804,5,4,0:0:0:0:
246,200,82910,1,0,0:0:0:0:
277,199,83015,1,0,0:0:0:0:
308,191,83121,1,0,0:0:0:0:
336,176,83227,2,0,L|378:154,3,45,8|0|0|0,0:0|0:0|0:0|0:0,0:0:0:0:
356,268,83649,5,4,0:0:0:0:
313,282,83755,1,0,0:0:0:0:
268,285,83860,1,0,0:0:0:0:
223,278,83966,1,0,0:0:0:0:
185,259,84072,2,0,L|137:216,3,56.25,8|0|0|0,0:0|0:0|0:0|0:0,0:0:0:0:
111,293,84494,5,4,0:0:0:0:
364,115,84705,1,0,0:0:0:0:
215,202,84917,6,0,L|192:221,1,22.5,8|0,0:0|0:0,0:0:0:0:
291,200,85128,2,0,L|308:185,1,22.5,0|0,0:0|0:0,0:0:0:0:
186,199,85339,6,0,L|157:221,1,33.7500012874604,4|0,0:0|0:0,0:0:0:0:
329,208,85550,2,0,L|358:186,1,33.7500012874604,0|0,0:0|0:0,0:0:0:0:
155,194,85762,6,0,L|112:231,1,45,8|0,0:0|0:0,0:0:0:0:
360,213,85973,2,0,L|398:181,1,45,0|0,0:0|0:0,0:0:0:0:
255,202,86184,5,4,0:0:0:0:
323,116,86396,2,0,P|279:91|299:127,1,90,0|8,0:0|0:0,0:0:0:0:
166,296,86818,2,0,P|191:328|206:291,1,67.5000025749208,0|4,0:0|0:0,0:0:0:0:
255,202,87241,1,0,0:0:0:0:
255,202,87452,6,0,B|243:179|304:155|337:234|287:302|181:261|181:219|195:172|206:157,1,225,8|4,0:0|0:0,0:0:0:0:
258,82,88086,1,0,0:0:0:0:
100,101,88297,6,0,L|77:71,1,22.5,8|0,0:0|0:0,0:0:0:0:
134,197,88508,2,0,L|158:226,1,33.7500012874604,0|0,0:0|0:0,0:0:0:0:
170,71,88719,2,0,L|217:20,1,45,4|0,0:0|0:0,0:0:0:0:
59,219,88931,2,0,L|16:265,1,56.25,0|0,0:0|0:0,0:0:0:0:
208,203,89142,5,8,0:0:0:0:
372,253,89353,5,8,0:0:0:0:
224,84,89565,5,4,0:0:0:0:
