osu file format v14

[General]
AudioFilename: [SDVX II ] Nyan Cat [INF].mp3
AudioLeadIn: 0
PreviewTime: 42241
Countdown: 0
SampleSet: Soft
StackLeniency: 0.7
Mode: 0
LetterboxInBreaks: 0
WidescreenStoryboard: 0

[Editor]
Bookmarks: 18050,24811,31255,38860,52593,67698,89565
DistanceSpacing: 1
BeatDivisor: 4
GridSize: 32
TimelineZoom: 2.4

[Metadata]
Title:Nyan Cat
TitleUnicode:Nyan Cat
Artist:daniwellP feat. Momone Momo
ArtistUnicode:daniwellP feat. 桃音モモ
Creator:Midge
Version:Exnya~
Source:SOUND VOLTEX BOOTH
Tags:Haneure Pew Rumia- NessieSP Murako Izuriha Kuo Kyoka Nukedboom meow pop tart meme remix TEK-A-RHYTHM utau Nyanyanyanyanyanyanya!
BeatmapID:455235
BeatmapSetID:165533

[Difficulty]
HPDrainRate:6
CircleSize:4
OverallDifficulty:8
ApproachRate:9
SliderMultiplier:1.8
SliderTickRate:1

[Events]
//Background and Video events
0,0,"7f5eb44a9751a0cd44c5e75321f1b1cf.png",0,0
//Break Periods
//Storyboard Layer 0 (Background)
//Storyboard Layer 1 (Fail)
//Storyboard Layer 2 (Pass)
//Storyboard Layer 3 (Foreground)
//Storyboard Sound Samples

[TimingPoints]
5058,422.535211267606,4,2,1,80,1,0
10128,-66.6666666666667,4,2,1,80,0,0
10973,-100,4,2,1,80,0,0
13508,-66.6666666666667,4,2,1,80,0,0
14142,-100,4,2,1,80,0,0
14565,-133.333333333333,4,2,1,80,0,0
15621,-100,4,2,1,80,0,0
16255,-66.6666666666667,4,2,1,80,0,0
17100,-100,4,2,1,80,0,0
17734,-133.333333333333,4,2,1,80,0,0
18367,-100,4,2,1,80,0,0
21114,-133.333333333333,4,2,1,80,0,0
22170,-100,4,2,1,80,0,0
24072,-100,4,2,1,60,0,0
25339,-100,4,2,1,60,0,0
27029,-50,4,2,1,60,0,0
27452,-100,4,2,1,60,0,0
28508,-50,4,2,1,60,0,0
28931,-100,4,2,1,60,0,0
31255,-200,4,2,1,60,0,0
32945,-100,4,2,1,60,0,0
35903,-125,4,2,1,60,0,0
37170,-100,4,2,1,60,0,0
40550,-200,4,2,1,60,0,0
41396,-100,4,2,1,60,0,0
53649,-117.647058823529,4,2,1,60,0,0
54494,-100,4,2,1,60,0,0
55550,-66.6666666666667,4,2,1,60,0,0
56607,-100,4,2,1,60,0,0
59987,-100,4,2,1,60,0,0
61677,-133.333333333333,4,2,1,60,0,0
62945,-100,4,2,1,60,0,0
64001,-50,4,2,1,80,0,0
64424,-100,4,2,1,80,0,0
67170,-111.111111111111,4,2,1,80,0,0
67381,-100,4,2,1,80,0,0
68649,-50,4,2,1,80,0,0
68860,-100,4,2,1,80,0,0
69072,-66.6666666666667,4,2,1,80,0,0
69705,-100,4,2,1,80,0,0
73508,-200,4,2,1,80,0,0
74142,-100,4,2,1,80,0,0
75198,-50,4,2,1,80,0,0
76255,-100,4,2,1,80,0,0
83015,-100,4,2,1,80,0,0
85339,-200,4,2,1,80,0,0
85550,-166.666666666667,4,2,1,80,0,0
85762,-125,4,2,1,80,0,0
85973,-100,4,2,1,80,0,0
86396,-66.6666666666667,4,2,1,80,0,0
86818,-100,4,2,1,80,0,0
87452,-133.333333333333,4,2,1,80,0,0
88297,-100,4,2,1,80,0,0

[Colours]
Combo1 : 180,157,247
Combo2 : 255,102,102
Combo3 : 255,176,98
Combo4 : 231,233,133
Combo5 : 151,223,154
Combo6 : 140,190,232

[HitObjects]
154,211,5057,5,8,0:0:0:0:
179,186,5163,1,0,0:0:0:0:
210,175,5269,1,0,0:0:0:0:
46,184,5480,6,0,L|59:120,1,45,8|0,0:0|0:0,0:0:0:0:
90,124,5691,2,0,L|126:71,1,45,0|0,0:0|0:0,0:0:0:0:
162,87,5903,2,0,L|210:57,1,45,4|0,0:0|0:0,0:0:0:0:
257,103,6114,2,0,L|308:97,1,45,0|0,0:0|0:0,0:0:0:0:
360,141,6325,2,0,L|414:161,1,45,8|0,0:0|0:0,0:0:0:0:
481,236,6536,2,0,L|510:290,1,45,0|0,0:0|0:0,0:0:0:0:
512,352,6748,2,0,L|536:373,2,22.5,4|0|0,0:0|0:0|0:0,0:0:0:0:
503,336,6959,6,0,L|444:306,1,45,0|0,0:0|0:0,0:0:0:0:
389,259,7170,2,0,L|352:225,1,45,8|0,0:0|0:0,0:0:0:0:
285,321,7381,2,0,L|234:315,1,45,0|0,0:0|0:0,0:0:0:0:
227,139,7593,2,0,L|184:109,1,45,8|0,0:0|0:0,0:0:0:0:
83,275,7804,2,0,L|-3:264,1,45,0|0,0:0|0:0,0:0:0:0:
64,104,8015,1,8,0:0:0:0:
17,77,8121,1,0,0:0:0:0:
20,22,8227,1,8,0:0:0:0:
69,1,8332,1,8,0:0:0:0:
114,30,8438,5,4,0:0:0:0:
295,208,8649,1,0,0:0:0:0:
108,83,8860,2,0,L|142:116,1,45,8|0,0:0|0:0,0:0:0:0:
332,235,9177,1,0,0:0:0:0:
366,263,9283,1,4,0:0:0:0:
361,306,9388,1,0,0:0:0:0:
323,325,9494,2,0,L|273:310,1,45,0|0,0:0|0:0,0:0:0:0:
70,256,9705,1,8,0:0:0:0:
272,214,9917,1,0,0:0:0:0:
183,52,10128,6,0,P|124:55|99:72,1,67.5000025749208,4|0,0:0|0:0,0:0:0:0:
51,100,10339,1,0,0:0:0:0:
25,137,10445,1,0,0:0:0:0:
39,179,10550,1,8,0:0:0:0:
78,201,10656,1,0,0:0:0:0:
121,187,10762,1,0,0:0:0:0:
141,147,10867,1,0,0:0:0:0:
151,107,10973,6,0,L|193:146,1,45,4|0,0:0|0:0,0:0:0:0:
294,251,11184,2,0,L|278:179,1,45,0|0,0:0|0:0,0:0:0:0:
285,49,11396,2,0,L|260:100,1,45,8|0,0:0|0:0,0:0:0:0:
107,276,11607,2,0,L|171:269,1,45,0|0,0:0|0:0,0:0:0:0:
372,246,11818,5,4,0:0:0:0:
212,380,12029,1,0,0:0:0:0:
464,283,12241,2,0,L|481:224,1,45,8|0,0:0|0:0,0:0:0:0:
422,189,12452,2,0,L|418:137,1,45,0|0,0:0|0:0,0:0:0:0:
350,120,12663,5,4,0:0:0:0:
320,81,12769,1,0,0:0:0:0:
294,44,12874,1,0,0:0:0:0:
267,8,12980,1,0,0:0:0:0:
227,81,13086,5,8,0:0:0:0:
185,55,13191,1,0,0:0:0:0:
147,30,13297,1,0,0:0:0:0:
109,6,13403,1,0,0:0:0:0:
11,72,13508,6,0,P|45:105|82:120,1,67.5000025749208,4|0,0:0|0:0,0:0:0:0:
134,154,13719,1,0,0:0:0:0:
157,187,13825,1,0,0:0:0:0:
153,226,13931,1,8,0:0:0:0:
135,254,14036,1,0,0:0:0:0:
105,274,14142,6,0,L|59:291,1,45,0|0,0:0|0:0,0:0:0:0:
30,300,14353,2,0,L|-2:306,2,22.5,4|0|0,0:0|0:0|0:0,0:0:0:0:
66,310,14565,6,0,L|114:323,1,45.0000017166138,0|0,0:0|0:0,0:0:0:0:
196,352,14776,6,0,L|256:355,1,45.0000017166138,8|0,0:0|0:0,0:0:0:0:
332,336,14987,6,0,L|376:308,1,45.0000017166138,0|0,0:0|0:0,0:0:0:0:
475,271,15198,5,4,0:0:0:0:
312,228,15410,1,0,0:0:0:0:
475,271,15621,2,0,L|424:280,1,45,8|0,0:0|0:0,0:0:0:0:
196,252,15938,1,0,0:0:0:0:
158,236,16043,1,0,0:0:0:0:
120,220,16149,1,0,0:0:0:0:
84,200,16255,6,0,P|128:180|151:154,1,67.5000025749208,0|0,0:0|0:0,0:0:0:0:
178,90,16466,5,8,0:0:0:0:
419,62,16677,1,0,0:0:0:0:
81,118,16888,1,4,0:0:0:0:
356,109,17100,2,0,L|292:125,1,45,0|0,0:0|0:0,0:0:0:0:
306,264,17311,2,0,L|263:301,1,45,8|0,0:0|0:0,0:0:0:0:
144,142,17522,2,0,L|86:158,1,45,0|0,0:0|0:0,0:0:0:0:
158,314,17734,6,0,L|124:342,1,33.7500012874604,4|0,0:0|0:0,0:0:0:0:
40,318,17945,2,0,L|67:292,1,33.7500012874604,0|0,0:0|0:0,0:0:0:0:
127,226,18156,5,8,0:0:0:0:
174,49,18367,2,0,L|186:4,2,45,0|0|4,0:0|0:0|0:0,0:0:0:0:
127,226,18790,1,0,0:0:0:0:
174,49,19001,2,0,L|186:4,1,45,8|0,0:0|0:0,0:0:0:0:
253,42,19212,2,0,L|308:15,1,45,0|0,0:0|0:0,0:0:0:0:
341,91,19424,2,0,L|395:102,1,45,4|0,0:0|0:0,0:0:0:0:
437,203,19635,2,0,L|488:248,1,45,0|0,0:0|0:0,0:0:0:0:
392,323,19846,2,0,L|399:340,4,15,8|0|0|0|0,0:0|0:0|0:0|0:0|0:0,0:0:0:0:
364,305,20058,6,0,L|318:280,1,45,0|0,0:0|0:0,0:0:0:0:
91,146,20269,1,4,0:0:0:0:
364,305,20480,2,0,L|313:278,1,45,0|0,0:0|0:0,0:0:0:0:
326,247,20691,2,0,L|262:216,1,45,8|0,0:0|0:0,0:0:0:0:
276,191,20903,2,0,L|208:182,1,45,0|0,0:0|0:0,0:0:0:0:
225,141,21114,6,0,L|104:157,1,101.250003862381,4|0,0:0|0:0,0:0:0:0:
91,146,21536,5,8,0:0:0:0:
221,356,21748,1,8,0:0:0:0:
417,217,21959,1,0,0:0:0:0:
281,255,22170,6,0,L|312:208,1,45,0|0,0:0|0:0,0:0:0:0:
356,140,22381,1,8,0:0:0:0:
227,183,22593,6,0,L|258:136,1,45,0|0,0:0|0:0,0:0:0:0:
309,63,22804,1,4,0:0:0:0:
345,42,22910,1,0,0:0:0:0:
386,33,23015,2,0,L|443:33,1,45,0|0,0:0|0:0,0:0:0:0:
337,140,23227,5,8,0:0:0:0:
296,143,23332,1,0,0:0:0:0:
257,128,23438,2,0,L|210:97,1,45,0|0,0:0|0:0,0:0:0:0:
411,185,23649,5,4,0:0:0:0:
183,203,23860,1,0,0:0:0:0:
411,185,24072,6,0,L|362:231,1,45,8|0,0:0|0:0,0:0:0:0:
339,213,24283,2,0,L|278:247,1,45,0|0,0:0|0:0,0:0:0:0:
258,222,24494,2,0,L|197:232,3,45,4|0|0|0,0:0|0:0|0:0|0:0,0:0:0:0:
182,202,24917,2,0,L|111:211,2,60,8|0|0,0:0|0:0|0:0,0:0:0:0:
104,240,25339,5,4,0:0:0:0:
51,182,25550,5,0,0:0:0:0:
80,140,25656,1,0,0:0:0:0:
108,99,25762,1,8,0:0:0:0:
11,117,25973,5,0,0:0:0:0:
40,75,26079,1,0,0:0:0:0:
69,35,26184,2,0,L|123:23,1,45,4|0,0:0|0:0,0:0:0:0:
197,77,26396,2,0,L|254:95,1,45,0|0,0:0|0:0,0:0:0:0:
273,111,26607,5,8,0:0:0:0:
299,148,26712,1,0,0:0:0:0:
330,186,26818,1,0,0:0:0:0:
360,223,26924,1,0,0:0:0:0:
366,311,27029,6,0,P|388:326|370:294,1,90,4|0,0:0|0:0,0:0:0:0:
294,319,27241,5,0,0:0:0:0:
252,313,27346,1,0,0:0:0:0:
208,306,27452,2,0,L|147:296,1,45,8|0,0:0|0:0,0:0:0:0:
143,183,27663,5,0,0:0:0:0:
187,192,27769,1,0,0:0:0:0:
232,199,27874,2,0,L|282:208,1,45,4|0,0:0|0:0,0:0:0:0:
96,172,28086,6,0,L|31:159,1,45,0|0,0:0|0:0,0:0:0:0:
244,119,28297,1,8,0:0:0:0:
66,354,28508,6,0,P|37:307|33:254,1,90,0|0,0:0|0:0,0:0:0:0:
14,204,28719,1,4,0:0:0:0:
14,204,28931,6,0,L|38:147,1,45,0|0,0:0|0:0,0:0:0:0:
63,95,29142,1,8,0:0:0:0:
113,152,29353,6,0,L|137:95,1,45,0|0,0:0|0:0,0:0:0:0:
163,42,29565,2,0,L|222:58,1,45,4|0,0:0|0:0,0:0:0:0:
455,39,29776,2,0,L|384:55,1,45,0|0,0:0|0:0,0:0:0:0:
214,87,29987,2,0,L|285:102,1,45,8|0,0:0|0:0,0:0:0:0:
395,95,30198,2,0,L|315:113,1,45,0|0,0:0|0:0,0:0:0:0:
329,172,30410,5,4,0:0:0:0:
472,335,30621,1,8,0:0:0:0:
183,173,30832,1,4,0:0:0:0:
40,335,31043,1,8,0:0:0:0:
250,277,31255,6,0,B|242:253|286:239|312:278|298:338|226:339|201:288,1,157.5,4|0,0:0|0:0,0:0:0:0:
200,288,32100,5,4,0:0:0:0:
53,83,32311,1,8,0:0:0:0:
354,281,32522,1,4,0:0:0:0:
476,77,32734,1,8,0:0:0:0:
362,120,32945,6,0,L|303:145,1,45,4|0,0:0|0:0,0:0:0:0:
129,124,33156,2,0,L|188:149,1,45,0|0,0:0|0:0,0:0:0:0:
340,172,33367,2,0,L|297:203,1,45,8|0,0:0|0:0,0:0:0:0:
147,170,33579,2,0,L|190:201,1,45,0|0,0:0|0:0,0:0:0:0:
244,243,33790,5,4,0:0:0:0:
175,320,34001,1,0,0:0:0:0:
220,293,34107,1,0,0:0:0:0:
244,243,34212,2,0,L|260:176,1,45,8|0,0:0|0:0,0:0:0:0:
304,29,34424,2,0,L|317:80,1,45,0|0,0:0|0:0,0:0:0:0:
365,248,34635,2,0,L|312:218,1,45,0|0,0:0|0:0,0:0:0:0:
119,86,34846,2,0,L|119:149,1,45,0|0,0:0|0:0,0:0:0:0:
111,327,35058,2,0,L|158:281,1,45,8|0,0:0|0:0,0:0:0:0:
282,153,35269,1,0,0:0:0:0:
111,327,35480,5,4,0:0:0:0:
145,155,35691,1,0,0:0:0:0:
59,372,35903,6,0,L|101:268,1,108,8|0,0:0|0:0,0:0:0:0:
113,240,36325,5,4,0:0:0:0:
130,198,36431,1,0,0:0:0:0:
145,155,36536,1,0,0:0:0:0:
231,328,36748,1,8,0:0:0:0:
316,102,36959,1,0,0:0:0:0:
232,328,37170,6,0,B|234:312|243:302|243:302|237:293|237:293|247:288|247:288|243:277|243:277|252:274|252:274|255:260|266:248,1,90,4|0,0:0|0:0,0:0:0:0:
271,235,37487,1,0,0:0:0:0:
316,313,37593,6,0,L|362:220,1,90,8|0,0:0|0:0,0:0:0:0:
373,201,37910,1,0,0:0:0:0:
394,165,38015,2,0,L|417:120,1,45,4|0,0:0|0:0,0:0:0:0:
324,64,38227,2,0,L|301:109,1,45,0|0,0:0|0:0,0:0:0:0:
166,234,38438,2,0,L|189:189,1,45,8|0,0:0|0:0,0:0:0:0:
137,0,38649,2,0,L|114:45,1,45,0|0,0:0|0:0,0:0:0:0:
93,88,38860,6,0,L|65:146,2,45,4|0|0,0:0|0:0|0:0,0:0:0:0:
187,64,39283,5,8,0:0:0:0:
165,108,39388,1,0,0:0:0:0:
143,152,39494,2,0,L|131:180,2,22.5,0|0|0,0:0|0:0|0:0,0:0:0:0:
117,201,39705,2,0,L|124:259,1,45,4|0,0:0|0:0,0:0:0:0:
157,363,39917,2,0,L|184:300,1,45,0|0,0:0|0:0,0:0:0:0:
263,95,40128,2,0,L|277:172,1,45,8|0,0:0|0:0,0:0:0:0:
365,238,40339,2,0,L|374:181,1,45,0|0,0:0|0:0,0:0:0:0:
489,0,40550,6,0,L|459:180,1,180,4|12,0:0|0:0,0:0:0:0:
436,216,41501,1,0,0:0:0:0:
397,238,41607,1,0,0:0:0:0:
352,238,41712,1,0,0:0:0:0:
317,208,41818,1,8,0:0:0:0:
69,339,42029,1,8,0:0:0:0:
317,208,42241,6,12,B|350:154|350:154|222:172,1,180,4|8,0:0|0:0,0:0:0:0:
208,137,42769,2,0,L|131:147,2,45,0|0|0,0:0|0:0|0:0,0:0:0:0:
235,100,43086,1,4,0:0:0:0:
278,94,43191,1,0,0:0:0:0:
324,87,43297,1,0,0:0:0:0:
158,48,43508,6,0,L|126:54,2,22.5,8|0|0,0:0|0:0|0:0,0:0:0:0:
192,43,43719,1,0,0:0:0:0:
16,27,43931,6,0,L|68:17,1,45,4|0,0:0|0:0,0:0:0:0:
3,120,44142,1,0,0:0:0:0:
5,161,44248,1,0,0:0:0:0:
34,194,44353,1,8,0:0:0:0:
73,216,44459,1,0,0:0:0:0:
117,220,44565,6,0,L|178:222,1,45,0|0,0:0|0:0,0:0:0:0:
204,285,44776,2,0,L|269:266,1,45,0|0,0:0|0:0,0:0:0:0:
338,329,44987,2,0,L|363:274,1,45,0|0,0:0|0:0,0:0:0:0:
478,294,45198,2,0,L|460:223,1,45,8|0,0:0|0:0,0:0:0:0:
449,154,45410,2,0,L|438:125,2,22.5
436,117,45621,5,4,0:0:0:0:
462,321,45832,2,0,L|439:251,1,45
406,102,46043,2,0,L|363:63,1,45,8|0,0:0|0:0,0:0:0:0:
285,63,46255,1,0,0:0:0:0:
254,69,46360,1,0,0:0:0:0:
230,90,46466,2,0,L|205:138,1,45,4|0,0:0|0:0,0:0:0:0:
341,246,46677,5,0,0:0:0:0:
347,212,46783,1,0,0:0:0:0:
331,176,46888,2,0,L|294:138,1,45,8|0,0:0|0:0,0:0:0:0:
429,202,47100,5,0,0:0:0:0:
84,142,47311,1,4,0:0:0:0:
429,202,47522,2,0,L|385:184,1,45,0|0,0:0|0:0,0:0:0:0:
366,150,47734,2,0,L|313:152,1,45,8|0,0:0|0:0,0:0:0:0:
285,127,47945,1,0,0:0:0:0:
160,120,48156,2,0,L|119:150,1,45,4|0,0:0|0:0,0:0:0:0:
84,142,48367,5,0,0:0:0:0:
429,202,48579,1,8,0:0:0:0:
84,142,48790,1,0,0:0:0:0:
229,240,49001,1,4,0:0:0:0:
333,353,49212,6,0,L|314:301,1,45,0|0,0:0|0:0,0:0:0:0:
301,270,49424,1,8,0:0:0:0:
421,367,49635,6,0,L|402:315,1,45,0|0,0:0|0:0,0:0:0:0:
394,281,49846,1,4,0:0:0:0:
377,238,49952,1,0,0:0:0:0:
350,201,50058,1,0,0:0:0:0:
316,171,50163,1,0,0:0:0:0:
276,148,50269,2,0,L|229:122,1,45,8|0,0:0|0:0,0:0:0:0:
82,148,50480,2,0,L|129:122,1,45,0|0,0:0|0:0,0:0:0:0:
179,55,50691,5,4,0:0:0:0:
179,55,50903,1,0,0:0:0:0:
179,55,51114,1,8,0:0:0:0:
179,55,51325,1,0,0:0:0:0:
179,55,51536,6,4,L|232:84,1,45,4|0,0:0|0:0,0:0:0:0:
230,54,51748,2,0,L|287:87,1,45,0|0,0:0|0:0,0:0:0:0:
281,53,51959,2,8,L|358:96,2,60,8|0|0,0:0|0:0|0:0,0:0:0:0:
129,0,52381,5,4,0:0:0:0:
104,39,52486,1,0,0:0:0:0:
83,72,52593,2,0,L|60:110,1,45,0|0,0:0|0:0,0:0:0:0:
89,255,52804,5,8,0:0:0:0:
114,216,52909,1,0,0:0:0:0:
135,183,53016,2,0,L|158:145,1,45,0|0,0:0|0:0,0:0:0:0:
321,108,53227,6,0,L|372:90,1,45,4|0,0:0|0:0,0:0:0:0:
271,284,53438,2,0,L|213:307,1,45,0|0,0:0|0:0,0:0:0:0:
37,215,53649,6,0,L|122:181,1,76.5000014591217,8|0,0:0|0:0,0:0:0:0:
145,173,53966,5,0,0:0:0:0:
184,157,54072,1,4,0:0:0:0:
75,114,54283,5,0,0:0:0:0:
117,95,54388,1,0,0:0:0:0:
156,81,54494,2,0,L|179:70,2,22.5,8|0|0,0:0|0:0|0:0,0:0:0:0:
192,36,54705,2,0,L|237:15,1,45,0|0,0:0|0:0,0:0:0:0:
351,52,54917,2,0,L|328:103,1,45,4|0,0:0|0:0,0:0:0:0:
163,237,55128,2,0,L|243:229,1,45,0|0,0:0|0:0,0:0:0:0:
466,180,55339,2,0,L|414:218,1,45,8|0,0:0|0:0,0:0:0:0:
175,342,55550,6,0,P|208:359|258:352,1,67.5000025749208
414,323,55762,1,4,0:0:0:0:
509,328,55973,5,0,0:0:0:0:
486,286,56079,1,0,0:0:0:0:
466,241,56184,1,8,0:0:0:0:
414,323,56396,5,0,0:0:0:0:
397,284,56501,1,0,0:0:0:0:
377,239,56607,2,0,L|342:160,1,45,4|0,0:0|0:0,0:0:0:0:
303,84,56818,2,0,L|288:132,1,45,0|0,0:0|0:0,0:0:0:0:
238,296,57029,2,0,L|224:223,1,45,8|0,0:0|0:0,0:0:0:0:
118,84,57241,2,0,L|167:137,1,45,0|0,0:0|0:0,0:0:0:0:
377,239,57452,5,4,0:0:0:0:
303,84,57663,1,8,0:0:0:0:
238,296,57874,1,4,0:0:0:0:
118,84,58086,1,8,0:0:0:0:
319,286,58297,6,0,L|348:325,1,45,4|0,0:0|0:0,0:0:0:0:
440,306,58508,2,0,L|469:345,1,45,0|0,0:0|0:0,0:0:0:0:
377,207,58720,2,0,L|348:168,1,45,0|0,0:0|0:0,0:0:0:0:
256,187,58931,2,0,L|227:148,1,45,0|0,0:0|0:0,0:0:0:0:
181,301,59142,5,4,0:0:0:0:
382,287,59353,1,8,0:0:0:0:
96,128,59565,1,4,0:0:0:0:
414,101,59776,1,8,0:0:0:0:
166,227,59987,6,0,L|214:211,1,45,4|0,0:0|0:0,0:0:0:0:
351,165,60198,2,0,L|303:181,1,45,0|0,0:0|0:0,0:0:0:0:
151,284,60410,2,0,L|199:268,1,45,8|0,0:0|0:0,0:0:0:0:
369,109,60621,2,0,L|321:125,1,45,0|0,0:0|0:0,0:0:0:0:
282,227,60832,5,4,0:0:0:0:
230,162,61043,1,0,0:0:0:0:
393,292,61255,1,8,0:0:0:0:
105,96,61466,1,0,0:0:0:0:
483,221,61677,6,0,L|365:211,1,101.250003862381,4|0,0:0|0:0,0:0:0:0:
333,208,62100,5,8,0:0:0:0:
111,202,62311,1,0,0:0:0:0:
333,208,62522,1,4,0:0:0:0:
111,202,62734,1,0,0:0:0:0:
328,173,62945,6,0,L|265:193,1,45,8|0,0:0|0:0,0:0:0:0:
136,232,63156,2,0,L|106:245,2,22.5
166,220,63367,1,4,0:0:0:0:
308,133,63579,1,0,0:0:0:0:
195,253,63790,1,8,0:0:0:0:
264,101,64001,6,0,B|270:145|217:150|235:197,1,90,0|0,0:0|0:0,0:0:0:0:
195,253,64212,1,4,0:0:0:0:
194,94,64424,6,0,L|198:146,1,45,0|0,0:0|0:0,0:0:0:0:
271,276,64635,2,0,L|262:217,1,45,8|0,0:0|0:0,0:0:0:0:
147,149,64846,2,0,L|189:209,1,45,0|0,0:0|0:0,0:0:0:0:
329,237,65058,2,0,L|289:183,1,45,4|0,0:0|0:0,0:0:0:0:
117,179,65269,6,0,L|77:125,1,45,0|0,0:0|0:0,0:0:0:0:
342,173,65480,2,0,L|274:146,1,45,8|0,0:0|0:0,0:0:0:0:
80,200,65691,2,0,L|11:179,1,45,0|0,0:0|0:0,0:0:0:0:
47,238,65903,2,0,L|26:258,2,22.5,4|0|0,0:0|0:0|0:0,0:0:0:0:
35,288,66114,1,0,0:0:0:0:
147,284,66325,5,8,0:0:0:0:
177,314,66431,1,0,0:0:0:0:
215,336,66536,2,0,L|276:360,1,45,0|0,0:0|0:0,0:0:0:0:
326,247,66748,2,0,L|370:242,1,45,4|0,0:0|0:0,0:0:0:0:
147,198,66959,2,0,L|102:202,1,45,0|0,0:0|0:0,0:0:0:0:
326,247,67170,6,0,L|395:241,1,60.7499981460572,8|0,0:0|0:0,0:0:0:0:
426,238,67381,6,0,L|485:232,1,45,0|0,0:0|0:0,0:0:0:0:
504,232,67593,1,4,0:0:0:0:
430,37,68438,6,0,L|410:61,2,22.5,8|0|0,0:0|0:0|0:0,0:0:0:0:
403,72,68649,1,0,0:0:0:0:
345,158,68860,6,0,L|309:207,1,45,8|0,0:0|0:0,0:0:0:0:
247,226,69072,6,0,L|304:147,1,67.5000025749208,8|0,0:0|0:0,0:0:0:0:
334,115,69283,5,4,0:0:0:0:
168,321,69494,1,0,0:0:0:0:
334,115,69705,2,0,L|287:184,1,45,8|0,0:0|0:0,0:0:0:0:
168,321,70022,1,0,0:0:0:0:
124,329,70128,1,4,0:0:0:0:
86,311,70234,1,0,0:0:0:0:
75,270,70339,1,0,0:0:0:0:
98,61,70550,5,8,0:0:0:0:
353,327,70762,1,0,0:0:0:0:
159,136,70973,1,4,0:0:0:0:
294,268,71184,6,0,L|254:230,1,45,0|0,0:0|0:0,0:0:0:0:
159,136,71396,2,0,L|214:195,1,45,8|0,0:0|0:0,0:0:0:0:
387,253,71607,2,0,L|333:218,1,45,0|0,0:0|0:0,0:0:0:0:
67,149,71818,2,0,L|122:193,1,45,4|0,0:0|0:0,0:0:0:0:
62,205,72029,2,0,L|117:249,1,45,0|0,0:0|0:0,0:0:0:0:
62,258,72241,2,0,L|78:273,4,15,8|0|0|0|0,0:0|0:0|0:0|0:0|0:0,0:0:0:0:
59,311,72452,2,0,L|114:355,1,45,0|0,0:0|0:0,0:0:0:0:
57,362,72663,5,4,0:0:0:0:
279,233,72874,1,0,0:0:0:0:
148,335,73086,2,0,L|206:304,1,45,8|0,0:0|0:0,0:0:0:0:
403,210,73297,2,0,L|345:241,1,45,0|0,0:0|0:0,0:0:0:0:
221,297,73508,6,0,L|247:284,1,22.5,4|0,0:0|0:0,0:0:0:0:
328,249,73719,2,0,L|294:265,1,22.5,0|0,0:0|0:0,0:0:0:0:
276,273,73931,5,8,0:0:0:0:
221,216,74142,2,0,L|249:172,1,45,0|0,0:0|0:0,0:0:0:0:
289,108,74353,1,4,0:0:0:0:
170,148,74565,6,0,L|198:104,1,45,0|0,0:0|0:0,0:0:0:0:
238,40,74776,1,8,0:0:0:0:
276,21,74881,1,0,0:0:0:0:
321,23,74987,2,0,L|380:48,1,45,0|0,0:0|0:0,0:0:0:0:
390,65,75198,2,0,L|414:105,6,45,4|0|0|0|0|0|0,0:0|0:0|0:0|0:0|0:0|0:0|0:0,0:0:0:0:
421,133,75621,5,8,0:0:0:0:
440,317,75832,1,8,0:0:0:0:
421,133,76043,1,4,0:0:0:0:
357,284,76255,6,0,L|351:223,1,45,0|0,0:0|0:0,0:0:0:0:
336,86,76466,1,8,0:0:0:0:
271,245,76677,6,0,L|265:184,1,45,0|0,0:0|0:0,0:0:0:0:
250,47,76888,1,4,0:0:0:0:
221,19,76994,1,0,0:0:0:0:
184,10,77100,2,0,L|133:8,1,45,0|0,0:0|0:0,0:0:0:0:
77,139,77311,5,8,0:0:0:0:
118,139,77417,1,0,0:0:0:0:
150,119,77522,2,0,L|188:85,1,45,0|0,0:0|0:0,0:0:0:0:
87,235,77734,5,4,0:0:0:0:
340,328,77945,1,0,0:0:0:0:
120,247,78156,2,0,L|175:285,1,45,8|0,0:0|0:0,0:0:0:0:
360,164,78367,2,0,L|363:221,1,45,0|0,0:0|0:0,0:0:0:0:
340,328,78579,2,0,L|330:357,2,22.5,4|0|0,0:0|0:0|0:0,0:0:0:0:
320,308,78790,2,0,L|275:256,1,45,0|0,0:0|0:0,0:0:0:0:
263,85,79001,2,0,L|245:141,1,45,8|0,0:0|0:0,0:0:0:0:
119,275,79212,6,0,L|187:252,1,45,0|0,0:0|0:0,0:0:0:0:
406,203,79424,1,4,0:0:0:0:
124,224,79635,6,0,L|192:201,1,45,0|0,0:0|0:0,0:0:0:0:
411,152,79846,1,8,0:0:0:0:
129,174,80058,6,0,L|197:151,1,45,0|0,0:0|0:0,0:0:0:0:
416,102,80269,2,0,L|476:82,2,60,4|0|0,0:0|0:0|0:0,0:0:0:0:
376,116,80691,1,8,0:0:0:0:
131,127,80903,6,0,L|199:104,1,45,0|0,0:0|0:0,0:0:0:0:
418,55,81114,1,4,0:0:0:0:
119,275,81325,1,0,0:0:0:0:
90,307,81431,1,0,0:0:0:0:
44,313,81536,1,8,0:0:0:0:
8,283,81642,1,0,0:0:0:0:
2,237,81748,1,0,0:0:0:0:
26,201,81853,1,0,0:0:0:0:
73,194,81959,6,0,L|135:205,1,45,4|0,0:0|0:0,0:0:0:0:
229,259,82170,2,0,L|288:241,1,45,0|0,0:0|0:0,0:0:0:0:
362,186,82381,1,8,0:0:0:0:
423,331,82593,1,0,0:0:0:0:
362,186,82804,1,4,0:0:0:0:
234,34,83015,6,0,B|240:43|253:48|253:48|256:63|270:68,1,45,0|0,0:0|0:0,0:0:0:0:
235,168,83227,2,0,L|203:200,1,45,8|0,0:0|0:0,0:0:0:0:
368,148,83438,2,0,L|397:114,1,45,0|0,0:0|0:0,0:0:0:0:
366,253,83649,1,4,0:0:0:0:
387,294,83755,1,0,0:0:0:0:
387,341,83860,6,0,L|361:380,1,45,0|0,0:0|0:0,0:0:0:0:
295,310,84072,2,0,L|236:330,1,45,8|0,0:0|0:0,0:0:0:0:
328,227,84283,2,0,L|284:207,1,45,0|0,0:0|0:0,0:0:0:0:
242,112,84494,5,4,0:0:0:0:
93,315,84705,1,0,0:0:0:0:
242,112,84917,6,0,B|219:103|246:67|303:77|285:150|255:167|204:153,1,135,8|0,0:0|0:0,0:0:0:0:
188,161,85339,6,0,L|157:171,1,22.5,4|0,0:0|0:0,0:0:0:0:
68,190,85550,6,0,L|100:200,1,26.9999991760254,0|0,0:0|0:0,0:0:0:0:
232,272,85762,6,0,L|192:264,1,36,8|0,0:0|0:0,0:0:0:0:
36,273,85973,6,0,L|89:258,1,45,0|0,0:0|0:0,0:0:0:0:
116,251,86184,1,4,0:0:0:0:
281,154,86396,6,0,P|329:155|354:132,1,67.5000025749208,0|0,0:0|0:0,0:0:0:0:
356,114,86607,1,8,0:0:0:0:
171,225,86818,6,0,P|132:214|117:198,1,45,0|0,0:0|0:0,0:0:0:0:
107,179,87029,1,4,0:0:0:0:
196,307,87241,5,0,0:0:0:0:
210,80,87452,6,0,P|259:80|216:93,1,135.000005149842,8|4,0:0|0:0,0:0:0:0:
312,325,88086,5,0,0:0:0:0:
390,55,88297,2,0,L|358:88,1,45,8|0,0:0|0:0,0:0:0:0:
122,329,88508,2,0,L|154:296,1,45,0|0,0:0|0:0,0:0:0:0:
310,139,88719,2,0,L|278:172,1,45,4|0,0:0|0:0,0:0:0:0:
259,197,88931,2,0,L|246:209,4,15
219,243,89142,5,8,0:0:0:0:
444,96,89353,5,8,0:0:0:0:
101,29,89565,5,4,0:0:0:0:
