osu file format v14

[General]
AudioFilename: [SDVX II ] Nyan Cat [INF].mp3
AudioLeadIn: 0
PreviewTime: 42241
Countdown: 0
SampleSet: Soft
StackLeniency: 0.7
Mode: 0
LetterboxInBreaks: 0
WidescreenStoryboard: 0

[Editor]
DistanceSpacing: 0.9
BeatDivisor: 4
GridSize: 4
TimelineZoom: 1

[Metadata]
Title:Nyan Cat
TitleUnicode:Nyan Cat
Artist:daniwellP feat. Momone Momo
ArtistUnicode:daniwellP feat. 桃音モモ
Creator:Midge
Version:Easnya~
Source:SOUND VOLTEX BOOTH
Tags:Haneure Pew Rumia- NessieSP Murako Izuriha Kuo Kyoka Nukedboom meow pop tart meme remix TEK-A-RHYTHM utau Nyanyanyanyanyanyanya!
BeatmapID:455234
BeatmapSetID:165533

[Difficulty]
HPDrainRate:2
CircleSize:3
OverallDifficulty:2
ApproachRate:3
SliderMultiplier:0.999999999999999
SliderTickRate:1

[Events]
//Background and Video events
0,0,"7f5eb44a9751a0cd44c5e75321f1b1cf.png",0,0
//Break Periods
//Storyboard Layer 0 (Background)
//Storyboard Layer 1 (Fail)
//Storyboard Layer 2 (Pass)
//Storyboard Layer 3 (Foreground)
//Storyboard Sound Samples

[TimingPoints]
5058,422.535211267606,4,2,1,80,1,0
24072,-100,4,2,1,60,0,0
62945,-100,4,2,1,60,0,0
64001,-100,4,2,1,80,0,0

[Colours]
Combo1 : 180,157,247
Combo2 : 255,102,102
Combo3 : 255,176,98
Combo4 : 231,233,133
Combo5 : 151,223,154
Combo6 : 140,190,232

[HitObjects]
113,138,5057,6,0,P|159:107|216:105,1,99.9999999999999,8|8,0:0|0:0,0:0:0:0:
276,153,5903,2,0,P|230:184|173:186,1,99.9999999999999,4|8,0:0|0:0,0:0:0:0:
130,258,6748,2,0,L|73:238,2,50,4|0|8,0:0|0:0|0:0,0:0:0:0:
204,308,7593,1,8,0:0:0:0:
294,320,8015,1,8,0:0:0:0:
374,280,8438,6,0,P|404:242|410:183,1,99.9999999999999,4|8,0:0|0:0,0:0:0:0:
324,205,9283,1,4,0:0:0:0:
242,243,9705,1,8,0:0:0:0:
254,153,10128,1,4,0:0:0:0:
336,115,10550,1,8,0:0:0:0:
421,88,10973,2,0,P|385:39|339:26,1,99.9999999999999,4|8,0:0|0:0,0:0:0:0:
260,42,11818,6,0,P|241:112|212:137,1,99.9999999999999,4|8,0:0|0:0,0:0:0:0:
168,58,12663,2,0,P|137:96|130:145,1,99.9999999999999,4|8,0:0|0:0,0:0:0:0:
194,207,13508,1,4,0:0:0:0:
224,291,13931,1,8,0:0:0:0:
140,325,14353,1,4,0:0:0:0:
107,240,14776,1,8,0:0:0:0:
81,153,15198,6,0,P|174:73|231:128,1,200,4|0,0:0|0:0,0:0:0:0:
252,188,16466,1,8,0:0:0:0:
283,271,16888,2,0,P|371:300|422:222,1,200,4|4,0:0|0:0,0:0:0:0:
422,131,18156,1,8,0:0:0:0:
435,42,18579,6,0,P|385:47|344:87,1,99.9999999999999,4|8,0:0|0:0,0:0:0:0:
271,125,19424,2,0,P|234:157|171:165,1,99.9999999999999,4|8,0:0|0:0,0:0:0:0:
195,77,20269,1,4,0:0:0:0:
133,11,20692,1,8,0:0:0:0:
47,37,21114,1,4,0:0:0:0:
110,100,21536,1,8,0:0:0:0:
23,124,21959,6,0,P|69:178|188:143,1,200,0|4,0:0|0:0,0:0:0:0:
257,99,23227,1,8,0:0:0:0:
331,50,23649,2,0,P|421:23|481:97,1,200,4|4,0:0|0:0,0:0:0:0:
396,256,25339,6,0,P|347:245|311:211,1,99.9999999999999,4|8,0:0|0:0,0:0:0:0:
236,158,26184,2,0,P|199:124|151:114,1,99.9999999999999,4|8,0:0|0:0,0:0:0:0:
156,203,27029,1,4,0:0:0:0:
115,283,27452,1,8,0:0:0:0:
48,224,27874,1,4,0:0:0:0:
13,308,28297,2,0,L|-4:367,2,50,8|0|4,0:0|0:0|0:0,0:0:0:0:
48,224,29142,5,8,0:0:0:0:
17,139,29565,2,0,P|59:94|116:81,1,99.9999999999999,4|8,0:0|0:0,0:0:0:0:
181,90,30410,1,4,0:0:0:0:
150,174,30832,1,4,0:0:0:0:
115,257,31255,2,0,B|144:292|160:340|160:340|238:296|279:322,1,200,4|4,0:0|0:0,0:0:0:0:
340,352,32522,5,4,0:0:0:0:
428,340,32945,2,0,P|489:304|415:216,1,200,4|4,0:0|0:0,0:0:0:0:
343,215,34212,2,0,B|295:235|271:287|271:287|223:239|232:186,1,200,8|8,0:0|0:0,0:0:0:0:
229,112,35480,5,4,0:0:0:0:
140,108,35903,2,0,P|54:116|33:133,1,99.9999999999999,8|4,0:0|0:0,0:0:0:0:
104,188,36748,1,8,0:0:0:0:
36,244,37170,2,0,P|116:275|142:270,1,99.9999999999999,4|8,0:0|0:0,0:0:0:0:
216,259,38015,1,4,0:0:0:0:
295,218,38438,1,8,0:0:0:0:
365,274,38860,6,0,P|383:202|367:164,1,99.9999999999999,4|8,0:0|0:0,0:0:0:0:
301,128,39705,2,4,P|225:156|206:187,1,99.9999999999999,4|8,0:0|0:0,0:0:0:0:
216,259,40550,2,0,B|169:256|126:299|126:299|123:241|74:198,1,200,4|12,0:0|0:0,0:0:0:0:
74,121,41818,2,0,L|18:114,2,50,8|8|4,0:0|0:0|0:0,0:0:0:0:
162,144,42663,5,8,0:0:0:0:
236,93,43086,2,0,P|190:59|126:61,2,99.9999999999999,4|8|4,0:0|0:0|0:0,0:0:0:0:
227,183,44353,2,0,B|234:190|309:186|328:105|328:105|359:117|387:108,1,200,8|8,0:0|0:0,0:0:0:0:
399,19,45621,6,0,P|455:49|475:82,1,99.9999999999999,4|8,0:0|0:0,0:0:0:0:
464,165,46466,2,0,P|408:202|368:200,1,99.9999999999999,4|8,0:0|0:0,0:0:0:0:
292,191,47311,1,4,0:0:0:0:
202,177,47734,2,0,L|123:165,2,50,8|0|4,0:0|0:0|0:0,0:0:0:0:
292,191,48579,1,8,0:0:0:0:
376,221,49001,6,0,P|347:262|287:280,1,99.9999999999999,4|8,0:0|0:0,0:0:0:0:
218,250,49846,2,0,P|247:209|307:191,1,99.9999999999999,4|8,0:0|0:0,0:0:0:0:
376,221,50691,2,0,B|431:238|474:216|474:216|505:291|465:328,2,200,4|4|4,0:0|0:0|0:0,0:0:0:0:
422,137,52804,6,0,P|390:88|260:84,1,200,8|8,0:0|0:0,0:0:0:0:
252,172,54072,1,4,0:0:0:0:
251,263,54494,2,0,P|156:278|97:203,1,200,8|8,0:0|0:0,0:0:0:0:
190,191,55762,5,4,0:0:0:0:
221,106,56184,1,8,0:0:0:0:
135,78,56607,1,4,0:0:0:0:
103,162,57029,1,8,0:0:0:0:
54,238,57452,2,0,P|80:290|114:320,1,99.9999999999999,4|4,0:0|0:0,0:0:0:0:
202,326,58297,2,0,B|229:325|291:284|291:284|371:293|396:285,1,200,4|4,0:0|0:0,0:0:0:0:
451,353,59565,6,0,P|477:304|470:241,2,99.9999999999999,4|4|8,0:0|0:0|0:0,0:0:0:0:
391,286,60832,1,4,0:0:0:0:
338,212,61255,1,8,0:0:0:0:
339,128,61677,2,0,P|311:88|256:66,1,99.9999999999999,4|8,0:0|0:0,0:0:0:0:
254,157,62522,6,0,P|214:185|192:240,2,99.9999999999999,4|8|4,0:0|0:0|0:0,0:0:0:0:
340,128,63790,2,0,P|368:121|401:120,2,50,8|0|4,0:0|0:0|0:0,0:0:0:0:
254,157,64635,1,8,0:0:0:0:
199,228,65058,2,0,P|153:275|101:287,1,99.9999999999999,4|8,0:0|0:0,0:0:0:0:
115,195,65903,6,0,P|97:131|112:80,1,99.9999999999999,4|8,0:0|0:0,0:0:0:0:
184,137,66748,2,0,P|248:154|287:188,1,99.9999999999999,4|8,0:0|0:0,0:0:0:0:
296,261,67593,2,0,B|343:245|363:196|363:196|396:257|391:301,1,200,4|8,0:0|0:0,0:0:0:0:
328,358,68860,2,0,P|356:378|386:387,2,50,8|8|4,0:0|0:0|0:0,0:0:0:0:
239,330,69705,5,8,0:0:0:0:
161,295,70128,2,0,P|128:239|134:170,1,99.9999999999999,4|8,0:0|0:0,0:0:0:0:
214,218,70973,2,4,P|206:168|178:128,1,99.9999999999999,4|8,0:0|0:0,0:0:0:0:
88,120,71818,2,0,P|55:64|61:-4,1,99.9999999999999,4|8,0:0|0:0,0:0:0:0:
141,46,72663,5,4,0:0:0:0:
212,100,73086,1,8,0:0:0:0:
280,43,73508,1,4,0:0:0:0:
349,99,73931,1,8,0:0:0:0:
423,51,74353,2,4,P|422:150|330:186,1,200,4|4,0:0|0:0,0:0:0:0:
250,200,75621,1,8,0:0:0:0:
164,177,76043,5,4,0:0:0:0:
185,264,76466,1,8,0:0:0:0:
99,236,76888,2,0,P|76:180|84:143,2,99.9999999999999,4|8|4,0:0|0:0|0:0,0:0:0:0:
184,264,78156,1,8,0:0:0:0:
270,290,78579,2,0,L|309:330,2,50,4|0|8,0:0|0:0|0:0,0:0:0:0:
250,202,79424,5,4,0:0:0:0:
185,265,79846,1,8,0:0:0:0:
161,178,80269,2,0,P|221:115|248:110,1,99.9999999999999,4|8,0:0|0:0,0:0:0:0:
250,202,81114,2,0,P|334:255|418:186,1,200,4|4,0:0|0:0,0:0:0:0:
332,161,82381,1,8,0:0:0:0:
257,110,82804,6,0,P|185:97|150:114,1,99.9999999999999,4|8,0:0|0:0,0:0:0:0:
206,184,83649,2,0,P|157:195|111:179,1,99.9999999999999,4|8,0:0|0:0,0:0:0:0:
84,93,84494,2,0,P|36:130|20:178,1,99.9999999999999,4|8,0:0|0:0,0:0:0:0:
24,255,85339,2,0,P|61:303|109:319,1,99.9999999999999,4|8,0:0|0:0,0:0:0:0:
111,228,86184,5,4,0:0:0:0:
133,140,86607,1,8,0:0:0:0:
222,129,87029,1,4,0:0:0:0:
261,210,87452,1,8,0:0:0:0:
196,272,87874,2,0,P|260:300|295:293,2,99.9999999999999,4|8|4,0:0|0:0|0:0,0:0:0:0:
261,210,89142,1,8,0:0:0:0:
221,128,89565,5,4,0:0:0:0:
