osu file format v14

[General]
AudioFilename: [SDVX] Nyan Cat.mp3
AudioLeadIn: 0
PreviewTime: 42231
Countdown: 0
SampleSet: Soft
StackLeniency: 0.7
Mode: 3
LetterboxInBreaks: 0
EpilepsyWarning: 1
SpecialStyle: 0
WidescreenStoryboard: 1

[Editor]
DistanceSpacing: 1
BeatDivisor: 12
GridSize: 8
TimelineZoom: 2.5

[Metadata]
Title:Nyan Cat
TitleUnicode:Nyan Cat
Artist:daniwellP feat. Momo Momone
ArtistUnicode:daniwellP feat. 桃音モモ
Creator:Adtw_
Version:7K INFINITE Lv.17
Source:SOUND VOLTEX II -infinite infection-
Tags:SDVX BEMANI KONAMI UTAULOID TEK-A-RHYTHM meme neko nyanyanyanyanyan niconico rainbow remix Momo Momone Hatsune Miku Rinzler tangjinxi PiraTom inbee Z3nx SpectorDG arviejhay Frim4503
BeatmapID:703031
BeatmapSetID:308057

[Difficulty]
HPDrainRate:9
CircleSize:7
OverallDifficulty:8
ApproachRate:5
SliderMultiplier:1.4
SliderTickRate:1

[Events]
//Background and Video events
0,0,"NyanNyan.jpg",0,0
//Break Periods
//Storyboard Layer 0 (Background)
//Storyboard Layer 1 (Fail)
//Storyboard Layer 2 (Pass)
//Storyboard Layer 3 (Foreground)
//Storyboard Sound Samples

[TimingPoints]
-22,422.535211267606,4,2,1,50,1,0
8428,-100,4,2,1,50,0,1
21949,-100,4,2,1,50,0,0
76034,-100,4,2,1,50,0,1
89555,-100,4,2,1,50,0,0

[HitObjects]
256,192,400,5,0,0:0:0:0:
256,192,1245,1,0,0:0:0:0:
256,192,1404,1,0,0:0:0:0:
329,192,2407,128,8,2794:0:0:0:0:
182,192,2407,128,0,2794:0:0:0:0:
109,192,2794,128,8,3252:0:0:0:0:
402,192,2794,128,0,3252:0:0:0:0:
256,192,2882,1,0,0:0:0:0:
36,192,3252,1,0,0:0:0:0:
475,192,3252,1,0,0:0:0:0:
182,192,3728,1,0,0:0:0:0:
329,192,3728,1,0,0:0:0:0:
36,192,4203,1,0,0:0:0:0:
109,192,4256,1,0,0:0:0:0:
182,192,4308,1,0,0:0:0:0:
475,192,4652,1,0,0:0:0:0:
402,192,4705,1,0,0:0:0:0:
329,192,4757,1,0,0:0:0:0:
36,192,5048,1,0,0:0:0:0:
475,192,5048,1,0,0:0:0:50:LR_Drum Hit Soft Normal.wav
256,192,5048,1,0,0:0:0:0:
402,192,5154,1,0,0:0:0:0:
109,192,5154,1,0,0:0:0:0:
475,192,5259,1,0,0:0:0:0:
36,192,5259,1,0,0:0:0:0:
402,192,5470,1,0,0:0:0:0:
109,192,5470,1,0,0:0:0:0:
256,192,5470,1,0,0:0:0:50:LR_Drum Hit Soft Normal.wav
36,192,5682,128,0,5787:0:0:0:0:
109,192,5787,128,0,5893:0:0:0:0:
182,192,5893,1,0,0:0:0:0:
256,192,5893,128,0,5999:0:0:0:0:
329,192,5999,128,0,6104:0:0:0:0:
402,192,6104,128,0,6210:0:0:0:0:
475,192,6210,128,0,6316:0:0:0:0:
329,192,6316,128,0,6421:0:0:0:0:
402,192,6316,1,0,0:0:0:50:LR_Drum Hit Soft Normal.wav
402,192,6421,128,0,6527:0:0:0:0:
329,192,6527,128,0,6632:0:0:0:0:
182,192,6632,1,0,0:0:0:0:
256,192,6738,128,0,6897:0:0:0:0:
329,192,6897,1,0,0:0:0:0:
182,192,6897,1,0,0:0:0:0:
36,192,6949,128,0,7055:0:0:0:0:
109,192,7055,128,0,7161:0:0:0:0:
182,192,7161,1,0,0:0:0:50:LR_Drum Hit Soft Normal.wav
475,192,7372,128,0,7478:0:0:0:0:
402,192,7478,128,0,7583:0:0:0:0:
36,192,7583,1,0,0:0:0:0:
109,192,7583,128,0,8428:0:0:0:0:
329,192,7583,1,0,0:0:0:0:
256,192,7689,1,0,0:0:0:0:
329,192,7794,1,0,0:0:0:0:
182,192,7794,1,0,0:0:0:0:
256,192,7900,1,0,0:0:0:0:
36,192,8006,1,0,0:0:0:0:
475,192,8006,1,0,0:0:0:0:
402,192,8006,128,0,8428:0:0:0:0:
256,192,8111,1,0,0:0:0:0:
182,192,8217,1,0,0:0:0:0:
329,192,8217,1,0,0:0:0:0:
182,192,8323,1,0,0:0:0:0:
329,192,8323,1,0,0:0:0:0:
475,192,8428,1,0,0:0:0:0:
256,192,8428,1,0,0:0:0:30:LR_Drum Hit Soft Normal.wav
36,192,8428,1,0,0:0:0:0:
256,192,8639,1,0,0:0:0:0:
36,192,8851,1,0,0:0:0:0:
475,192,8851,1,0,0:0:0:50:LR_Snare Hat.wav
256,192,8851,1,0,0:0:0:0:
182,192,8956,1,0,0:0:0:0:
329,192,8956,1,0,0:0:0:0:
256,192,9168,1,0,0:0:0:0:
36,192,9273,1,0,0:0:0:30:LR4_KickMSBT.wav
475,192,9273,1,0,0:0:0:0:
109,192,9379,1,0,0:0:0:0:
402,192,9379,1,0,0:0:0:0:
182,192,9485,1,0,0:0:0:0:
329,192,9485,1,0,0:0:0:0:
36,192,9696,1,0,0:0:0:50:LR_Snare Hat.wav
256,192,9696,128,0,10118:0:0:0:0:
475,192,9696,1,0,0:0:0:0:
109,192,9696,1,0,0:0:0:0:
182,192,9907,1,0,0:0:0:0:
329,192,9907,1,0,0:0:0:0:
475,192,10118,1,0,0:0:0:30:LR4_KickMSBT.wav
402,192,10118,1,0,0:0:0:0:
36,192,10118,1,0,0:0:0:0:
329,192,10330,1,0,0:0:0:0:
182,192,10330,1,0,0:0:0:0:
256,192,10435,1,0,0:0:0:0:
109,192,10541,128,0,11808:0:0:0:0:
36,192,10541,1,0,0:0:0:50:LR_Snare Hat.wav
182,192,10647,1,0,0:0:0:0:
329,192,10752,1,0,0:0:0:0:
475,192,10858,1,0,0:0:0:0:
36,192,10963,1,0,0:0:0:30:LR4_KickMSBT.wav
402,192,10963,128,0,11808:0:0:0:0:
182,192,11069,1,0,0:0:0:0:
329,192,11175,1,0,0:0:0:0:
475,192,11280,1,0,0:0:0:0:
256,192,11386,128,0,11808:0:0:0:0:
36,192,11386,1,0,0:0:0:0:
475,192,11492,1,0,0:0:0:0:
36,192,11597,1,0,0:0:0:0:
475,192,11703,1,0,0:0:0:0:
182,192,11808,1,0,0:0:0:0:
329,192,11808,1,0,0:0:0:30:LR4_KickMSBT.wav
182,192,12020,1,0,0:0:0:0:
329,192,12020,1,0,0:0:0:0:
475,192,12231,1,0,0:0:0:50:LR_Snare Hat.wav
402,192,12231,1,0,0:0:0:0:
109,192,12231,1,0,0:0:0:0:
36,192,12231,1,0,0:0:0:0:
182,192,12337,1,0,0:0:0:0:
329,192,12337,1,0,0:0:0:0:
109,192,12442,1,0,0:0:0:0:
402,192,12442,1,0,0:0:0:0:
36,192,12548,1,0,0:0:0:0:
475,192,12548,1,0,0:0:0:0:
182,192,12654,1,0,0:0:0:30:LR4_KickMSBT.wav
329,192,12654,1,0,0:0:0:0:
256,192,12759,1,0,0:0:0:0:
402,192,12865,1,0,0:0:0:0:
109,192,12865,1,0,0:0:0:0:
182,192,12970,1,0,0:0:0:0:
329,192,12970,1,0,0:0:0:0:
475,192,13076,1,0,0:0:0:50:LR_Snare Hat.wav
36,192,13076,1,0,0:0:0:0:
256,192,13182,1,0,0:0:0:0:
182,192,13287,128,0,13393:0:0:0:0:
109,192,13287,1,0,0:0:0:0:
329,192,13393,128,0,13499:0:0:0:0:
402,192,13393,1,0,0:0:0:0:
475,192,13499,1,0,0:0:0:30:LR4_KickMSBT.wav
36,192,13499,1,0,0:0:0:0:
256,192,13499,128,0,13710:0:0:0:0:
109,192,13710,1,0,0:0:0:0:
402,192,13710,1,0,0:0:0:0:
329,192,13816,1,0,0:0:0:0:
182,192,13816,1,0,0:0:0:0:
402,192,13921,1,0,0:0:0:0:
109,192,13921,1,0,0:0:0:50:LR_Snare Hat.wav
329,192,14027,1,0,0:0:0:0:
182,192,14027,1,0,0:0:0:0:
402,192,14132,1,0,0:0:0:0:
109,192,14132,1,0,0:0:0:0:
182,192,14238,1,0,0:0:0:0:
329,192,14238,1,0,0:0:0:0:
256,192,14344,128,0,14555:0:0:0:0:
475,192,14344,128,0,14555:0:0:0:0:
36,192,14344,128,0,14555:0:0:0:0:
329,192,14555,128,0,14766:0:0:0:0:
182,192,14555,128,0,14766:0:0:0:0:
109,192,14766,128,0,14978:0:0:0:0:
402,192,14766,128,0,14978:0:0:0:0:
256,192,14978,128,0,15189:0:0:0:0:
36,192,15189,1,0,0:0:0:30:LR4_KickMSBT.wav
475,192,15189,1,0,0:0:0:0:
475,192,15400,1,0,0:0:0:0:
329,192,15400,1,0,0:0:0:0:
36,192,15611,1,0,0:0:0:0:
182,192,15611,1,0,0:0:0:50:LR_Snare Hat.wav
256,192,15717,1,0,0:0:0:0:
256,192,15928,1,0,0:0:0:0:
109,192,16034,1,0,0:0:0:0:
402,192,16034,1,0,0:0:0:30:LR4_KickMSBT.wav
329,192,16139,1,0,0:0:0:0:
182,192,16139,1,0,0:0:0:0:
256,192,16245,1,0,0:0:0:0:
36,192,16245,1,0,0:0:0:0:
109,192,16245,128,0,16456:0:0:0:0:
475,192,16245,1,0,0:0:0:0:
402,192,16245,128,0,16456:0:0:0:0:
182,192,16456,128,2,16879:0:0:0:0:
329,192,16456,128,0,16879:0:0:0:0:
109,192,16668,128,8,16879:0:0:0:0:
402,192,16668,128,0,16879:0:0:0:0:
36,192,16668,1,0,0:0:0:0:
475,192,16668,1,0,0:0:0:0:
256,192,16879,1,0,0:0:0:30:LR4_KickMSBT.wav
36,192,17090,1,0,0:0:0:0:
475,192,17090,1,0,0:0:0:0:
109,192,17196,1,0,0:0:0:0:
402,192,17196,1,0,0:0:0:0:
256,192,17301,1,0,0:0:0:50:LR_Snare Hat.wav
36,192,17301,1,0,0:0:0:0:
475,192,17301,1,0,0:0:0:0:
182,192,17407,1,0,0:0:0:0:
329,192,17407,1,0,0:0:0:0:
256,192,17513,1,0,0:0:0:0:
475,192,17618,1,0,0:0:0:0:
36,192,17618,1,0,0:0:0:0:
256,192,17724,128,0,18147:0:0:0:0:
402,192,17724,1,0,0:0:0:30:LR4_KickMSBT.wav
109,192,17724,1,0,0:0:0:0:
182,192,17830,1,0,0:0:0:0:
329,192,17830,1,0,0:0:0:0:
109,192,17935,1,0,0:0:0:0:
402,192,17935,1,0,0:0:0:0:
182,192,18041,1,0,0:0:0:0:
329,192,18041,1,0,0:0:0:0:
475,192,18147,128,2,18569:0:0:0:0:
402,192,18147,1,0,0:0:0:0:
36,192,18147,128,0,18569:0:0:0:0:
109,192,18147,1,0,0:0:0:0:
182,192,18358,128,8,18569:0:0:0:0:
329,192,18358,128,0,18569:0:0:0:0:
256,192,18569,128,0,18992:0:0:0:0:
402,192,18569,1,0,0:0:0:30:LR4_KickMSBT.wav
109,192,18569,1,0,0:0:0:0:
475,192,18780,1,0,0:0:0:0:
36,192,18780,1,0,0:0:0:0:
475,192,18992,128,0,19837:0:0:0:0:
109,192,18992,1,0,0:0:0:50:LR_Snare Hat.wav
402,192,18992,1,0,0:0:0:0:
182,192,19097,1,0,0:0:0:0:
329,192,19097,1,0,0:0:0:0:
109,192,19203,1,0,0:0:0:0:
402,192,19203,1,0,0:0:0:0:
182,192,19308,1,0,0:0:0:0:
329,192,19308,1,0,0:0:0:0:
36,192,19414,128,0,19837:0:0:0:30:LR4_KickMSBT.wav
109,192,19414,1,0,0:0:0:0:
402,192,19414,1,0,0:0:0:0:
256,192,19520,1,0,0:0:0:0:
329,192,19625,1,0,0:0:0:0:
182,192,19625,1,0,0:0:0:0:
256,192,19731,1,0,0:0:0:0:
182,192,19837,128,0,20259:0:0:0:0:
109,192,19837,1,0,0:0:0:0:
329,192,19837,128,2,20259:0:0:0:0:
402,192,19837,1,0,0:0:0:0:
402,192,20048,128,0,20259:0:0:0:0:
109,192,20048,128,8,20259:0:0:0:0:
36,192,20259,1,0,0:0:0:0:
475,192,20259,1,0,0:0:0:30:LR4_KickMSBT.wav
256,192,20470,1,0,0:0:0:0:
402,192,20576,1,0,0:0:0:0:
109,192,20576,1,0,0:0:0:0:
329,192,20682,1,0,0:0:0:0:
182,192,20682,1,0,0:0:0:50:LR_Snare Hat.wav
36,192,20787,1,0,0:0:0:0:
475,192,20787,1,0,0:0:0:0:
109,192,20893,1,0,0:0:0:0:
402,192,20893,1,0,0:0:0:0:
182,192,20999,1,0,0:0:0:0:
329,192,20999,1,0,0:0:0:0:
109,192,21104,1,0,0:0:0:0:
402,192,21104,1,0,0:0:0:0:
256,192,21104,128,0,21527:0:0:0:0:
475,192,21316,128,0,21527:0:0:0:0:
36,192,21316,128,0,21527:0:0:0:0:
109,192,21527,1,0,0:0:0:0:
182,192,21527,128,0,21738:0:0:0:0:
329,192,21527,128,2,21738:0:0:0:0:
402,192,21527,1,0,0:0:0:0:
402,192,21738,128,8,21949:0:0:0:0:
109,192,21738,128,0,21949:0:0:0:0:
475,192,21949,1,0,0:0:0:30:LR4_KickMSBT.wav
256,192,21949,1,0,0:0:0:0:
36,192,21949,1,0,0:0:0:30:LR_Drum Hit Soft Normal.wav
402,192,22161,1,0,0:0:0:0:
109,192,22161,1,0,0:0:0:0:
256,192,22266,1,0,0:0:0:0:
402,192,22372,1,0,0:0:0:50:LR_Snare Hat.wav
109,192,22372,1,0,0:0:0:0:
256,192,22583,1,0,0:0:0:0:
182,192,22689,1,0,0:0:0:0:
329,192,22689,1,0,0:0:0:0:
36,192,22794,128,0,23639:0:0:0:0:
256,192,22794,1,0,0:0:0:30:LR4_KickMSBT.wav
109,192,22900,1,0,0:0:0:0:
402,192,22900,1,0,0:0:0:0:
182,192,23006,1,0,0:0:0:0:
329,192,23006,1,0,0:0:0:0:
109,192,23111,1,0,0:0:0:0:
402,192,23111,1,0,0:0:0:0:
475,192,23217,128,0,23639:0:0:0:0:
182,192,23217,1,0,0:0:0:50:LR_Snare Hat.wav
329,192,23217,1,0,0:0:0:0:
109,192,23323,1,0,0:0:0:0:
402,192,23323,1,0,0:0:0:0:
329,192,23428,1,0,0:0:0:0:
182,192,23428,1,0,0:0:0:0:
109,192,23534,1,0,0:0:0:0:
402,192,23534,1,0,0:0:0:0:
329,192,23639,128,0,23851:0:0:0:0:
182,192,23639,128,0,23851:0:0:0:0:
256,192,23639,1,2,0:0:0:0:
402,192,23851,128,2,24062:0:0:0:0:
109,192,23851,128,0,24062:0:0:0:0:
256,192,24062,1,0,0:0:0:50:LR_Snare Hat.wav
475,192,24062,1,0,0:0:0:0:
36,192,24062,1,0,0:0:0:0:
182,192,24168,1,0,0:0:0:0:
329,192,24168,1,0,0:0:0:0:
475,192,24273,1,0,0:0:0:0:
36,192,24273,1,0,0:0:0:0:
256,192,24379,1,0,0:0:0:0:
329,192,24485,1,0,0:0:0:0:
182,192,24485,1,0,0:0:0:0:
182,192,24590,1,0,0:0:0:0:
329,192,24590,1,0,0:0:0:0:
329,192,24696,1,0,0:0:0:0:
182,192,24696,1,0,0:0:0:0:
402,192,24801,1,0,0:0:0:0:
109,192,24801,1,0,0:0:0:0:
475,192,24907,1,0,0:0:0:0:
36,192,24907,1,0,0:0:0:0:
36,192,25039,1,0,0:0:0:0:
475,192,25039,1,0,0:0:0:0:
36,192,25171,1,0,0:0:0:0:
475,192,25171,1,0,0:0:0:0:
109,192,25330,1,0,0:0:0:0:
402,192,25330,1,0,0:0:0:0:
256,192,25330,1,0,0:0:0:30:LR4_KickMSBT.wav
182,192,25541,1,0,0:0:0:0:
329,192,25541,1,0,0:0:0:0:
256,192,25647,1,0,0:0:0:0:
402,192,25752,1,0,0:0:0:0:
109,192,25752,1,0,0:0:0:50:LR_Snare Hat.wav
36,192,25963,1,0,0:0:0:0:
475,192,26069,1,0,0:0:0:0:
402,192,26175,1,0,0:0:0:30:LR4_KickMSBT.wav
329,192,26280,1,0,0:0:0:0:
36,192,26386,1,0,0:0:0:0:
109,192,26492,1,0,0:0:0:0:
182,192,26597,1,0,0:0:0:50:LR_Snare Hat.wav
402,192,26703,1,0,0:0:0:0:
475,192,26703,1,0,0:0:0:0:
109,192,26808,1,0,0:0:0:0:
36,192,26808,1,0,0:0:0:0:
329,192,26914,1,0,0:0:0:0:
402,192,26914,1,0,0:0:0:0:
475,192,27020,1,0,0:0:0:30:LR4_KickMSBT.wav
36,192,27020,1,0,0:0:0:0:
256,192,27020,128,0,27442:0:0:0:0:
402,192,27231,1,0,0:0:0:0:
109,192,27337,1,0,0:0:0:0:
329,192,27442,1,0,0:0:0:0:
182,192,27442,1,0,0:0:0:0:
329,192,27548,1,0,0:0:0:0:
182,192,27548,1,0,0:0:0:0:
256,192,27654,1,0,0:0:0:0:
109,192,27759,1,0,0:0:0:0:
402,192,27759,1,0,0:0:0:0:
256,192,27865,128,0,27970:0:0:0:0:
182,192,27970,128,0,28076:0:0:0:0:
329,192,28076,128,0,28182:0:0:0:0:
256,192,28182,128,0,28287:0:0:0:0:
109,192,28287,1,0,0:0:0:0:
402,192,28287,1,0,0:0:0:50:LR_Snare Hat.wav
475,192,28499,1,0,0:0:0:0:
36,192,28499,1,0,0:0:0:0:
329,192,28499,128,8,28710:0:0:0:0:
182,192,28499,128,0,28710:0:0:0:0:
402,192,28710,1,0,0:0:0:30:LR4_KickMSBT.wav
256,192,28710,1,0,0:0:0:0:
109,192,28710,1,0,0:0:0:0:
402,192,28921,128,0,29344:0:0:0:0:
256,192,29132,128,0,29555:0:0:0:0:
182,192,29132,1,0,0:0:0:50:LR_Snare Hat.wav
109,192,29344,128,0,29766:0:0:0:0:
329,192,29344,1,0,0:0:0:0:
182,192,29449,1,0,0:0:0:0:
402,192,29555,128,0,30400:0:0:0:0:
329,192,29555,1,0,0:0:0:30:LR4_KickMSBT.wav
182,192,29661,1,0,0:0:0:0:
329,192,29766,1,0,0:0:0:0:
256,192,29766,128,0,30400:0:0:0:0:
182,192,29872,1,0,0:0:0:0:
109,192,29978,128,0,30400:0:0:0:0:
329,192,29978,1,0,0:0:0:0:
182,192,30083,1,0,0:0:0:0:
329,192,30189,1,0,0:0:0:0:
182,192,30294,1,0,0:0:0:0:
475,192,30400,128,2,30611:0:0:0:0:
36,192,30400,128,0,30611:0:0:0:0:
329,192,30400,1,0,0:0:0:0:
109,192,30611,128,2,30823:0:0:0:0:
402,192,30611,128,0,30823:0:0:0:0:
329,192,30823,128,2,31034:0:0:0:0:
182,192,30823,128,0,31034:0:0:0:0:
109,192,31034,128,0,31245:0:0:0:0:
402,192,31034,128,8,31245:0:0:0:0:
256,192,31245,128,0,32090:0:0:0:0:
36,192,31245,1,0,0:0:0:0:
329,192,31245,1,0,0:0:0:30:LR4_KickMSBT.wav
402,192,31351,1,0,0:0:0:0:
109,192,31351,1,0,0:0:0:0:
475,192,31456,1,0,0:0:0:0:
182,192,31456,1,0,0:0:0:0:
36,192,31562,1,0,0:0:0:0:
329,192,31562,1,0,0:0:0:0:
109,192,31668,1,0,0:0:0:0:
402,192,31668,1,0,0:0:0:0:
475,192,31773,1,0,0:0:0:0:
182,192,31773,1,0,0:0:0:0:
329,192,31879,1,0,0:0:0:0:
36,192,31879,1,0,0:0:0:0:
109,192,31985,1,0,0:0:0:0:
402,192,31985,1,0,0:0:0:0:
182,192,32090,1,0,0:0:0:0:
329,192,32090,1,2,0:0:0:0:
475,192,32090,1,0,0:0:0:0:
36,192,32090,1,0,0:0:0:0:
109,192,32301,1,2,0:0:0:0:
402,192,32301,1,0,0:0:0:0:
182,192,32513,1,0,0:0:0:0:
329,192,32513,1,2,0:0:0:0:
36,192,32724,1,2,0:0:0:0:
475,192,32724,1,0,0:0:0:0:
109,192,32830,1,8,0:0:0:0:
402,192,32830,1,0,0:0:0:0:
475,192,32935,1,0,0:0:0:0:
36,192,32935,1,0,0:0:0:30:LR4_KickMSBT.wav
329,192,32935,128,0,33358:0:0:0:0:
402,192,33041,128,0,33358:0:0:0:0:
475,192,33147,128,0,33358:0:0:0:0:
182,192,33358,128,0,33780:0:0:0:0:
109,192,33463,128,0,33780:0:0:0:0:
36,192,33569,128,0,33780:0:0:0:0:
256,192,33780,1,0,0:0:0:30:LR4_KickMSBT.wav
182,192,33992,1,0,0:0:0:0:
109,192,34097,1,0,0:0:0:0:
36,192,34203,1,0,0:0:0:50:LR_Snare Hat.wav
329,192,34308,1,0,0:0:0:0:
402,192,34414,1,0,0:0:0:0:
475,192,34520,1,0,0:0:0:0:
182,192,34625,1,0,0:0:0:0:
109,192,34731,1,0,0:0:0:0:
36,192,34837,1,0,0:0:0:0:
256,192,35048,1,0,0:0:0:50:LR_Snare Hat.wav
475,192,35048,128,0,35259:0:0:0:0:
36,192,35048,128,0,35259:0:0:0:0:
402,192,35259,128,0,35470:0:0:0:0:
109,192,35259,128,0,35470:0:0:0:0:
256,192,35470,1,0,0:0:0:30:LR_Drum Hit Soft Normal.wav
36,192,35470,1,0,0:0:0:0:
475,192,35470,1,0,0:0:0:30:LR4_KickMSBT.wav
109,192,35682,1,0,0:0:0:0:
402,192,35682,1,0,0:0:0:0:
329,192,35893,128,0,36104:0:0:0:0:
182,192,35893,128,0,36104:0:0:0:0:
256,192,36210,1,0,0:0:0:0:
402,192,36316,1,0,0:0:0:0:
109,192,36316,1,0,0:0:0:30:LR4_KickMSBT.wav
329,192,36421,1,0,0:0:0:0:
182,192,36421,1,0,0:0:0:0:
475,192,36527,1,0,0:0:0:0:
36,192,36527,1,0,0:0:0:0:
402,192,36738,1,0,0:0:0:50:LR_Snare Hat.wav
109,192,36738,1,0,0:0:0:0:
256,192,36738,1,0,0:0:0:0:
182,192,36949,1,0,0:0:0:0:
329,192,36949,1,0,0:0:0:0:
475,192,37161,1,0,0:0:0:0:
36,192,37161,1,0,0:0:0:30:LR4_KickMSBT.wav
256,192,37161,128,0,37372:0:0:0:0:
109,192,37372,1,0,0:0:0:0:
402,192,37372,1,0,0:0:0:0:
182,192,37478,1,0,0:0:0:0:
329,192,37478,1,0,0:0:0:0:
36,192,37583,128,0,38851:0:0:0:0:
402,192,37583,1,0,0:0:0:0:
109,192,37583,1,0,0:0:0:0:
182,192,37689,1,0,0:0:0:0:
329,192,37689,1,0,0:0:0:0:
402,192,37794,1,0,0:0:0:0:
109,192,37794,1,0,0:0:0:0:
402,192,37900,1,0,0:0:0:0:
109,192,37900,1,0,0:0:0:0:
256,192,38006,128,0,38851:0:0:0:0:
182,192,38006,1,0,0:0:0:30:LR4_KickMSBT.wav
329,192,38006,1,0,0:0:0:0:
402,192,38111,1,0,0:0:0:0:
109,192,38111,1,0,0:0:0:0:
329,192,38217,1,0,0:0:0:0:
182,192,38217,1,0,0:0:0:0:
109,192,38323,1,0,0:0:0:0:
402,192,38323,1,0,0:0:0:0:
475,192,38428,128,0,38851:0:0:0:0:
329,192,38428,1,0,0:0:0:50:LR_Snare Hat.wav
182,192,38428,1,0,0:0:0:0:
402,192,38534,1,0,0:0:0:0:
109,192,38534,1,0,0:0:0:0:
329,192,38639,1,0,0:0:0:0:
182,192,38639,1,0,0:0:0:0:
402,192,38745,1,0,0:0:0:0:
109,192,38745,1,0,0:0:0:0:
182,192,38851,1,0,0:0:0:0:
329,192,38851,1,0,0:0:0:30:LR4_KickMSBT.wav
182,192,38956,1,0,0:0:0:0:
329,192,38956,1,0,0:0:0:0:
109,192,39062,1,0,0:0:0:0:
402,192,39062,1,0,0:0:0:0:
256,192,39273,1,0,0:0:0:50:LR_Snare Hat.wav
36,192,39273,1,0,0:0:0:0:
475,192,39273,1,0,0:0:0:0:
109,192,39379,1,0,0:0:0:0:
402,192,39379,1,0,0:0:0:0:
182,192,39485,128,0,39696:0:0:0:0:
329,192,39485,128,0,39696:0:0:0:0:
256,192,39696,128,0,40118:0:0:0:30:LR4_KickMSBT.wav
402,192,39696,1,0,0:0:0:0:
109,192,39696,1,0,0:0:0:0:
475,192,39801,1,0,0:0:0:0:
36,192,39801,1,0,0:0:0:0:
109,192,39907,1,0,0:0:0:0:
402,192,39907,1,0,0:0:0:0:
182,192,40013,1,0,0:0:0:0:
329,192,40013,1,0,0:0:0:0:
475,192,40118,1,0,0:0:0:50:LR_Snare Hat.wav
36,192,40118,1,0,0:0:0:0:
329,192,40224,1,0,0:0:0:0:
182,192,40224,1,0,0:0:0:0:
109,192,40330,1,0,0:0:0:0:
402,192,40330,1,0,0:0:0:0:
182,192,40435,1,0,0:0:0:0:
329,192,40435,1,0,0:0:0:0:
256,192,40541,128,8,41386:0:0:0:0:
36,192,40541,1,0,0:0:0:0:
475,192,40541,1,0,0:0:0:0:
182,192,40752,1,0,0:0:0:0:
329,192,40752,1,0,0:0:0:0:
109,192,40858,1,0,0:0:0:0:
402,192,40858,1,0,0:0:0:0:
329,192,40963,1,0,0:0:0:0:
182,192,40963,1,0,0:0:0:0:
402,192,41069,1,0,0:0:0:0:
109,192,41069,1,0,0:0:0:0:
182,192,41175,1,0,0:0:0:0:
329,192,41175,1,0,0:0:0:0:
109,192,41280,1,0,0:0:0:0:
402,192,41280,1,0,0:0:0:0:
475,192,41386,1,0,0:0:0:0:
36,192,41386,1,0,0:0:0:0:
36,192,41492,1,0,0:0:0:0:
475,192,41492,1,0,0:0:0:0:
182,192,41597,1,0,0:0:0:0:
329,192,41597,1,0,0:0:0:0:
182,192,41703,1,0,0:0:0:0:
329,192,41703,1,0,0:0:0:0:
109,192,41808,128,0,42020:0:0:0:0:
402,192,41808,128,2,42020:0:0:0:0:
475,192,41808,1,0,0:0:0:0:
36,192,41808,1,0,0:0:0:0:
182,192,42020,128,8,42231:0:0:0:0:
329,192,42020,128,0,42231:0:0:0:0:
475,192,42020,128,0,42231:0:0:0:0:
36,192,42020,128,0,42231:0:0:0:0:
109,192,42231,128,0,43921:0:0:0:0:
256,192,42231,1,0,0:0:0:0:
402,192,42231,128,0,43921:0:0:0:0:
182,192,42442,1,0,0:0:0:0:
329,192,42442,1,0,0:0:0:0:
256,192,42654,1,0,0:0:0:0:
36,192,42654,1,0,0:0:0:0:
475,192,42654,1,0,0:0:0:0:
182,192,42759,1,0,0:0:0:0:
329,192,42759,1,0,0:0:0:0:
475,192,42865,1,0,0:0:0:0:
36,192,42865,1,0,0:0:0:0:
256,192,42970,1,0,0:0:0:0:
182,192,43076,1,0,0:0:0:0:
329,192,43076,1,0,0:0:0:0:
256,192,43182,1,0,0:0:0:0:
475,192,43287,1,0,0:0:0:0:
36,192,43287,1,0,0:0:0:0:
329,192,43499,128,0,43710:0:0:0:0:
182,192,43499,128,0,43710:0:0:0:0:
256,192,43710,128,0,43921:0:0:0:0:
329,192,43921,1,0,0:0:0:0:
475,192,43921,128,0,45611:0:0:0:0:
36,192,43921,128,0,45611:0:0:0:0:
182,192,43921,1,0,0:0:0:0:
182,192,44027,1,0,0:0:0:0:
329,192,44027,1,0,0:0:0:0:
402,192,44132,1,0,0:0:0:0:
109,192,44132,1,0,0:0:0:0:
182,192,44238,1,0,0:0:0:0:
329,192,44238,1,0,0:0:0:0:
402,192,44344,1,0,0:0:0:0:
109,192,44344,1,0,0:0:0:0:
182,192,44449,1,0,0:0:0:0:
329,192,44449,1,0,0:0:0:0:
402,192,44555,1,0,0:0:0:0:
109,192,44555,1,0,0:0:0:0:
329,192,44661,1,0,0:0:0:0:
182,192,44661,1,0,0:0:0:0:
256,192,44766,1,0,0:0:0:0:
109,192,44872,1,0,0:0:0:0:
402,192,44872,1,0,0:0:0:0:
182,192,44978,1,0,0:0:0:0:
329,192,44978,1,0,0:0:0:0:
182,192,45083,1,0,0:0:0:0:
329,192,45083,1,0,0:0:0:0:
109,192,45189,1,0,0:0:0:0:
402,192,45189,1,0,0:0:0:0:
329,192,45294,1,0,0:0:0:0:
182,192,45294,1,0,0:0:0:0:
256,192,45400,128,0,45611:0:0:0:0:
182,192,45611,1,0,0:0:0:0:
329,192,45611,1,0,0:0:0:0:
109,192,45611,128,0,47301:0:0:0:0:
402,192,45611,128,0,47301:0:0:0:0:
256,192,45823,1,0,0:0:0:0:
475,192,46034,1,0,0:0:0:0:
36,192,46034,1,0,0:0:0:0:
329,192,46139,1,0,0:0:0:0:
182,192,46139,1,0,0:0:0:0:
256,192,46245,1,0,0:0:0:0:
256,192,46351,1,0,0:0:0:0:
475,192,46456,1,0,0:0:0:0:
36,192,46456,1,0,0:0:0:0:
182,192,46562,1,0,0:0:0:0:
329,192,46562,1,0,0:0:0:0:
475,192,46668,1,0,0:0:0:0:
36,192,46668,1,0,0:0:0:0:
182,192,46773,1,0,0:0:0:0:
329,192,46773,1,0,0:0:0:0:
256,192,46879,1,0,0:0:0:50:LR_Snare Hat.wav
475,192,46879,1,0,0:0:0:0:
36,192,46879,1,0,0:0:0:0:
182,192,46985,1,0,0:0:0:0:
329,192,46985,1,0,0:0:0:0:
256,192,47090,128,0,47301:0:0:0:0:
182,192,47301,1,0,0:0:0:0:
475,192,47301,1,0,0:0:0:0:
329,192,47301,1,0,0:0:0:0:
36,192,47301,1,0,0:0:0:0:
109,192,47513,1,0,0:0:0:0:
402,192,47513,1,0,0:0:0:0:
182,192,47618,1,0,0:0:0:0:
329,192,47618,1,0,0:0:0:0:
256,192,47724,1,0,0:0:0:30:LR4_KickMSBT.wav
256,192,47830,1,0,0:0:0:0:
329,192,47935,128,0,48147:0:0:0:0:
182,192,47935,128,0,48147:0:0:0:0:
402,192,48147,1,0,0:0:0:0:
109,192,48147,1,0,0:0:0:0:
256,192,48252,1,0,0:0:0:0:
329,192,48358,1,0,0:0:0:0:
182,192,48358,1,0,0:0:0:0:
256,192,48569,1,0,0:0:0:50:LR_Snare Hat.wav
475,192,48569,1,0,0:0:0:0:
36,192,48569,1,0,0:0:0:0:
402,192,48780,1,0,0:0:0:0:
256,192,48780,128,0,48992:0:0:0:0:
109,192,48780,1,0,0:0:0:50:LR_Snare Hat.wav
475,192,48992,1,0,0:0:0:0:
329,192,48992,1,0,0:0:0:30:LR_Drum Hit Soft Normal.wav
182,192,48992,1,0,0:0:0:30:LR4_KickMSBT.wav
36,192,48992,1,0,0:0:0:0:
109,192,49203,1,0,0:0:0:0:
402,192,49203,1,0,0:0:0:0:
329,192,49308,1,0,0:0:0:0:
182,192,49308,1,0,0:0:0:0:
402,192,49414,1,0,0:0:0:50:LR_Snare Hat.wav
109,192,49414,1,0,0:0:0:0:
182,192,49625,1,0,0:0:0:0:
329,192,49625,1,0,0:0:0:0:
475,192,49731,1,0,0:0:0:0:
36,192,49731,1,0,0:0:0:0:
402,192,49837,128,0,50682:0:0:0:0:
109,192,49837,1,0,0:0:0:30:LR4_KickMSBT.wav
182,192,49942,1,0,0:0:0:0:
329,192,49942,1,0,0:0:0:0:
256,192,50048,1,0,0:0:0:0:
36,192,50154,1,0,0:0:0:0:
475,192,50154,1,0,0:0:0:0:
109,192,50259,128,0,50682:0:0:0:0:
329,192,50259,1,0,0:0:0:50:LR_Snare Hat.wav
182,192,50259,1,0,0:0:0:0:
256,192,50365,1,0,0:0:0:0:
182,192,50470,1,0,0:0:0:0:
329,192,50470,1,0,0:0:0:0:
329,192,50576,1,0,0:0:0:0:
182,192,50576,1,0,0:0:0:0:
256,192,50682,1,2,0:0:0:0:
36,192,50682,1,0,0:0:0:0:
475,192,50682,1,0,0:0:0:0:
402,192,50893,1,0,0:0:0:0:
109,192,50893,1,2,0:0:0:0:
182,192,51104,1,0,0:0:0:0:
329,192,51104,1,0,0:0:0:0:
329,192,51316,1,0,0:0:0:0:
182,192,51316,1,0,0:0:0:0:
475,192,51527,1,0,0:0:0:0:
36,192,51527,1,0,0:0:0:0:
109,192,51632,1,0,0:0:0:0:
402,192,51632,1,0,0:0:0:0:
182,192,51738,1,0,0:0:0:0:
329,192,51738,1,0,0:0:0:0:
402,192,51844,1,0,0:0:0:0:
109,192,51844,1,0,0:0:0:0:
256,192,51844,1,0,0:0:0:0:
109,192,51949,1,0,0:0:0:0:
402,192,51949,1,0,0:0:0:0:
182,192,52090,1,0,0:0:0:0:
329,192,52090,1,0,0:0:0:0:
329,192,52231,1,0,0:0:0:0:
182,192,52231,1,0,0:0:0:0:
402,192,52372,1,0,0:0:0:30:LR4_KickMSBT.wav
475,192,52372,1,0,0:0:0:0:
402,192,52478,1,0,0:0:0:0:
475,192,52478,1,0,0:0:0:0:
36,192,52583,1,0,0:0:0:0:
475,192,52689,1,0,0:0:0:0:
36,192,52794,1,0,0:0:0:30:LR4_KickMSBT.wav
109,192,52794,1,0,0:0:0:0:
36,192,52900,1,0,0:0:0:0:
109,192,52900,1,0,0:0:0:0:
329,192,53006,1,0,0:0:0:0:
182,192,53006,1,0,0:0:0:0:
109,192,53111,1,0,0:0:0:0:
402,192,53111,1,0,0:0:0:0:
475,192,53217,1,0,0:0:0:0:
256,192,53217,1,0,0:0:0:30:LR4_KickMSBT.wav
36,192,53217,1,0,0:0:0:0:
36,192,53323,1,0,0:0:0:0:
475,192,53323,1,0,0:0:0:0:
402,192,53428,1,0,0:0:0:0:
329,192,53428,128,0,53639:0:0:0:0:
256,192,53534,1,0,0:0:0:0:
109,192,53639,1,0,0:0:0:0:
182,192,53639,128,0,53851:0:0:0:0:
475,192,53851,1,0,0:0:0:0:
36,192,53851,1,0,0:0:0:0:
109,192,53956,1,0,0:0:0:0:
402,192,53956,1,0,0:0:0:0:
256,192,54062,1,0,0:0:0:30:LR4_KickMSBT.wav
182,192,54062,1,0,0:0:0:0:
329,192,54062,1,0,0:0:0:0:
109,192,54273,1,0,0:0:0:0:
402,192,54273,1,0,0:0:0:0:
182,192,54379,1,0,0:0:0:0:
329,192,54379,1,0,0:0:0:0:
256,192,54485,128,0,54696:0:0:0:0:
329,192,54696,1,0,0:0:0:0:
182,192,54696,1,0,0:0:0:0:
182,192,54801,1,0,0:0:0:0:
329,192,54801,1,0,0:0:0:0:
402,192,54907,1,0,0:0:0:0:
109,192,54907,1,0,0:0:0:30:LR4_KickMSBT.wav
256,192,55013,1,0,0:0:0:0:
475,192,55118,1,0,0:0:0:0:
36,192,55224,1,0,0:0:0:0:
109,192,55330,1,0,0:0:0:0:
256,192,55330,1,0,0:0:0:50:LR_Snare Hat.wav
402,192,55330,1,0,0:0:0:0:
256,192,55541,1,0,0:0:0:0:
402,192,55541,128,8,55752:0:0:0:0:
109,192,55541,128,0,55752:0:0:0:0:
475,192,55752,128,0,55963:0:0:0:30:LR4_KickMSBT.wav
36,192,55752,128,0,55963:0:0:0:0:
182,192,55963,128,0,56175:0:0:0:0:
329,192,55963,128,0,56175:0:0:0:0:
402,192,56069,128,0,56175:0:0:0:0:
109,192,56069,128,0,56175:0:0:0:0:
475,192,56175,128,0,56597:0:0:0:0:
36,192,56175,128,0,56597:0:0:0:50:LR_Snare Hat.wav
109,192,56386,1,0,0:0:0:0:
402,192,56386,1,0,0:0:0:0:
329,192,56492,1,0,0:0:0:0:
182,192,56492,1,0,0:0:0:0:
256,192,56597,128,0,57442:0:0:0:30:LR4_KickMSBT.wav
402,192,56597,1,0,0:0:0:0:
109,192,56597,1,0,0:0:0:0:
329,192,56703,1,0,0:0:0:0:
475,192,56703,1,0,0:0:0:0:
182,192,56808,1,0,0:0:0:0:
36,192,56808,1,0,0:0:0:0:
329,192,56914,1,0,0:0:0:0:
475,192,56914,1,0,0:0:0:0:
109,192,57020,1,0,0:0:0:0:
182,192,57020,1,0,0:0:0:0:
329,192,57125,1,0,0:0:0:0:
402,192,57125,1,0,0:0:0:0:
109,192,57231,1,0,0:0:0:0:
36,192,57231,1,0,0:0:0:0:
402,192,57337,1,0,0:0:0:0:
475,192,57337,1,0,0:0:0:0:
182,192,57442,1,2,0:0:0:0:
329,192,57442,1,0,0:0:0:0:
256,192,57654,1,2,0:0:0:0:
402,192,57654,1,0,0:0:0:0:
109,192,57654,1,0,0:0:0:0:
36,192,57865,1,0,0:0:0:0:
182,192,57865,1,2,0:0:0:0:
329,192,57865,1,0,0:0:0:0:
475,192,57865,1,0,0:0:0:0:
402,192,58076,1,0,0:0:0:0:
256,192,58076,1,8,0:0:0:0:
109,192,58076,1,0,0:0:0:0:
329,192,58182,1,0,0:0:0:0:
182,192,58182,1,0,0:0:0:0:
36,192,58287,1,0,0:0:0:0:
475,192,58287,1,0,0:0:0:30:LR4_KickMSBT.wav
109,192,58393,1,0,0:0:0:0:
402,192,58393,1,0,0:0:0:0:
36,192,58499,1,0,0:0:0:0:
475,192,58499,1,0,0:0:0:0:
182,192,58604,1,0,0:0:0:0:
329,192,58604,1,0,0:0:0:0:
109,192,58710,1,0,0:0:0:50:LR_Snare Hat.wav
402,192,58710,1,0,0:0:0:0:
329,192,58816,1,0,0:0:0:0:
182,192,58816,1,0,0:0:0:0:
36,192,58921,1,0,0:0:0:0:
475,192,58921,1,0,0:0:0:0:
109,192,59027,1,0,0:0:0:0:
402,192,59027,1,0,0:0:0:0:
329,192,59132,128,2,59344:0:0:0:0:
182,192,59132,128,0,59344:0:0:0:0:
109,192,59344,128,2,59555:0:0:0:0:
402,192,59344,128,0,59555:0:0:0:0:
36,192,59555,128,0,59766:0:0:0:0:
475,192,59555,128,2,59766:0:0:0:0:
109,192,59766,128,0,59978:0:0:0:0:
402,192,59766,128,8,59978:0:0:0:0:
182,192,59978,1,0,0:0:0:30:LR4_KickMSBT.wav
256,192,59978,128,0,60823:0:0:0:0:
329,192,59978,1,0,0:0:0:0:
475,192,60083,1,0,0:0:0:0:
36,192,60083,1,0,0:0:0:0:
109,192,60189,1,0,0:0:0:0:
402,192,60189,1,0,0:0:0:0:
182,192,60294,1,0,0:0:0:0:
329,192,60294,1,0,0:0:0:0:
109,192,60400,1,0,0:0:0:50:LR_Snare Hat.wav
402,192,60400,1,0,0:0:0:0:
182,192,60506,1,0,0:0:0:0:
329,192,60506,1,0,0:0:0:0:
36,192,60611,1,0,0:0:0:0:
475,192,60611,1,0,0:0:0:0:
109,192,60717,1,0,0:0:0:0:
402,192,60717,1,0,0:0:0:0:
36,192,60823,1,0,0:0:0:0:
182,192,60823,128,0,61456:0:0:0:0:
475,192,60823,1,0,0:0:0:30:LR4_KickMSBT.wav
329,192,60823,128,0,61456:0:0:0:0:
109,192,61034,1,0,0:0:0:0:
402,192,61034,1,0,0:0:0:0:
256,192,61139,1,0,0:0:0:0:
402,192,61245,1,0,0:0:0:0:
109,192,61245,1,0,0:0:0:0:
36,192,61351,1,0,0:0:0:0:
475,192,61351,1,0,0:0:0:0:
402,192,61456,1,0,0:0:0:0:
109,192,61456,1,0,0:0:0:0:
256,192,61456,128,0,62090:0:0:0:0:
475,192,61562,1,0,0:0:0:0:
36,192,61562,1,0,0:0:0:0:
109,192,61668,1,0,0:0:0:0:
402,192,61668,1,0,0:0:0:30:LR4_KickMSBT.wav
36,192,61773,1,0,0:0:0:0:
475,192,61773,1,0,0:0:0:0:
109,192,61879,1,0,0:0:0:0:
402,192,61879,1,0,0:0:0:0:
329,192,61985,1,0,0:0:0:0:
182,192,61985,1,0,0:0:0:0:
36,192,62090,1,0,0:0:0:50:LR_Snare Hat.wav
402,192,62090,1,0,0:0:0:0:
475,192,62090,1,0,0:0:0:0:
109,192,62090,1,0,0:0:0:0:
329,192,62301,1,0,0:0:0:50:LR_Snare Hat.wav
182,192,62301,1,0,0:0:0:0:
256,192,62407,1,0,0:0:0:0:
329,192,62513,1,0,0:0:0:30:LR4_KickMSBT.wav
402,192,62513,1,0,0:0:0:0:
182,192,62513,1,0,0:0:0:0:
109,192,62513,1,0,0:0:0:0:
36,192,62724,1,0,0:0:0:0:
475,192,62724,1,0,0:0:0:0:
256,192,62724,1,0,0:0:0:30:LR4_KickMSBT.wav
109,192,62935,1,0,0:0:0:0:
402,192,62935,1,0,0:0:0:30:LR4_KickMSBT.wav
329,192,63041,1,0,0:0:0:30:LR4_KickMSBT.wav
182,192,63041,1,0,0:0:0:0:
256,192,63147,128,0,63358:0:0:0:0:
36,192,63358,128,0,63780:0:0:0:0:
402,192,63358,1,0,0:0:0:0:
109,192,63358,1,0,0:0:0:30:LR4_KickMSBT.wav
475,192,63358,128,0,63780:0:0:0:0:
182,192,63569,128,0,63780:0:0:0:0:
329,192,63569,128,0,63780:0:0:0:0:
256,192,63780,1,0,0:0:0:30:LR4_KickMSBT.wav
402,192,63780,128,0,64203:0:0:0:0:
109,192,63780,128,0,64203:0:0:0:0:
256,192,64018,128,0,64203:0:0:0:0:
182,192,64203,1,0,0:0:0:0:
329,192,64203,1,0,0:0:0:30:LR4_KickMSBT.wav
36,192,64414,1,0,0:0:0:0:
475,192,64414,1,0,0:0:0:0:
109,192,64520,1,0,0:0:0:0:
402,192,64520,1,0,0:0:0:0:
256,192,64625,128,0,65893:0:0:0:0:
329,192,64625,1,0,0:0:0:50:LR_Snare Hat.wav
182,192,64625,1,0,0:0:0:0:
109,192,64731,1,0,0:0:0:0:
402,192,64731,1,0,0:0:0:0:
475,192,64837,1,0,0:0:0:0:
36,192,64837,1,0,0:0:0:0:
329,192,64942,1,0,0:0:0:0:
182,192,64942,1,0,0:0:0:0:
402,192,65048,128,0,65893:0:0:0:0:
109,192,65048,1,0,0:0:0:30:LR4_KickMSBT.wav
182,192,65154,1,0,0:0:0:0:
329,192,65154,1,0,0:0:0:0:
475,192,65259,1,0,0:0:0:0:
36,192,65259,1,0,0:0:0:0:
182,192,65365,1,0,0:0:0:0:
329,192,65365,1,0,0:0:0:0:
109,192,65470,128,0,65893:0:0:0:0:
36,192,65470,1,0,0:0:0:0:
475,192,65470,1,0,0:0:0:30:LR4_KickMSBT.wav
182,192,65576,1,0,0:0:0:0:
329,192,65576,1,0,0:0:0:0:
475,192,65682,1,0,0:0:0:0:
36,192,65682,1,0,0:0:0:0:
182,192,65787,1,0,0:0:0:0:
329,192,65787,1,0,0:0:0:0:
475,192,65893,128,0,66104:0:0:0:0:
36,192,65893,128,0,66104:0:0:0:30:LR4_KickMSBT.wav
329,192,66104,1,0,0:0:0:0:
182,192,66104,1,0,0:0:0:0:
329,192,66316,1,0,0:0:0:0:
182,192,66316,1,0,0:0:0:50:LR_Snare Hat.wav
109,192,66421,1,0,0:0:0:0:
402,192,66421,1,0,0:0:0:0:
182,192,66527,1,0,0:0:0:0:
329,192,66527,1,0,0:0:0:0:
475,192,66632,1,0,0:0:0:0:
36,192,66632,1,0,0:0:0:0:
109,192,66738,1,0,0:0:0:0:
256,192,66738,1,0,0:0:0:30:LR4_KickMSBT.wav
402,192,66738,1,0,0:0:0:0:
182,192,66844,1,0,0:0:0:0:
329,192,66844,1,0,0:0:0:0:
475,192,66949,1,0,0:0:0:0:
36,192,66949,1,0,0:0:0:0:
109,192,67055,1,0,0:0:0:0:
402,192,67055,1,0,0:0:0:0:
256,192,67161,1,0,0:0:0:50:LR_Snare Hat.wav
36,192,67161,1,0,0:0:0:0:
475,192,67161,1,0,0:0:0:0:
182,192,67266,1,0,0:0:0:0:
329,192,67266,1,0,0:0:0:0:
402,192,67372,1,0,0:0:0:0:
109,192,67372,1,0,0:0:0:0:
402,192,67478,1,0,0:0:0:0:
109,192,67478,1,0,0:0:0:0:
329,192,67583,1,0,0:0:0:0:
182,192,67583,1,0,0:0:0:0:
256,192,67583,128,8,69273:0:0:0:0:
36,192,67794,1,0,0:0:0:0:
109,192,67900,1,0,0:0:0:0:
182,192,68006,1,0,0:0:0:0:
329,192,68111,1,0,0:0:0:0:
402,192,68217,1,0,0:0:0:0:
475,192,68323,1,0,0:0:0:0:
36,192,68428,128,0,68639:0:0:0:30:LR4_KickMSBT.wav
475,192,68639,128,0,68851:0:0:0:0:
182,192,68851,1,0,0:0:0:0:
329,192,68851,1,0,0:0:0:0:
182,192,68956,1,0,0:0:0:0:
329,192,68956,1,0,0:0:0:0:
36,192,69062,128,0,69273:0:0:0:0:
329,192,69273,1,0,0:0:0:30:LR4_KickMSBT.wav
182,192,69273,1,0,0:0:0:0:
109,192,69485,1,0,0:0:0:0:
402,192,69485,1,0,0:0:0:0:
182,192,69696,1,0,0:0:0:50:LR_Snare Hat.wav
36,192,69696,1,0,0:0:0:0:
475,192,69696,1,0,0:0:0:0:
329,192,69696,1,0,0:0:0:0:
256,192,69801,1,0,0:0:0:0:
109,192,70013,1,0,0:0:0:0:
402,192,70013,1,0,0:0:0:0:
182,192,70118,1,0,0:0:0:30:LR4_KickMSBT.wav
329,192,70118,1,0,0:0:0:0:
329,192,70224,1,0,0:0:0:0:
182,192,70224,1,0,0:0:0:0:
256,192,70330,128,0,70541:0:0:0:0:
402,192,70541,1,0,0:0:0:0:
109,192,70541,1,2,0:0:0:0:
109,192,70752,1,0,0:0:0:0:
402,192,70752,1,0,0:0:0:0:
256,192,70752,1,8,0:0:0:0:
36,192,70963,1,0,0:0:0:30:LR4_KickMSBT.wav
475,192,70963,1,0,0:0:0:0:
329,192,71175,1,0,0:0:0:0:
182,192,71175,1,0,0:0:0:0:
109,192,71280,1,0,0:0:0:0:
402,192,71280,1,0,0:0:0:0:
475,192,71386,1,0,0:0:0:0:
36,192,71386,1,0,0:0:0:50:LR_Snare Hat.wav
402,192,71492,1,0,0:0:0:0:
109,192,71492,1,0,0:0:0:0:
329,192,71597,1,0,0:0:0:0:
182,192,71597,1,0,0:0:0:0:
402,192,71703,1,0,0:0:0:0:
109,192,71703,1,0,0:0:0:0:
256,192,71808,128,0,72231:0:0:0:0:
182,192,71808,1,0,0:0:0:30:LR4_KickMSBT.wav
329,192,71808,1,0,0:0:0:0:
109,192,71914,1,0,0:0:0:0:
402,192,71914,1,0,0:0:0:0:
475,192,72020,1,0,0:0:0:0:
36,192,72020,1,0,0:0:0:0:
402,192,72125,1,0,0:0:0:0:
109,192,72125,1,0,0:0:0:0:
329,192,72231,128,2,72442:0:0:0:0:
182,192,72231,128,0,72442:0:0:0:0:
36,192,72442,1,0,0:0:0:0:
256,192,72442,1,8,0:0:0:0:
475,192,72442,1,0,0:0:0:0:
402,192,72548,1,0,0:0:0:0:
109,192,72548,1,0,0:0:0:0:
182,192,72654,1,0,0:0:0:0:
329,192,72654,1,0,0:0:0:30:LR4_KickMSBT.wav
402,192,72865,1,0,0:0:0:0:
109,192,72865,1,0,0:0:0:0:
256,192,73076,1,0,0:0:0:50:LR_Snare Hat.wav
36,192,73076,1,0,0:0:0:0:
475,192,73076,1,0,0:0:0:0:
182,192,73182,1,0,0:0:0:0:
329,192,73182,1,0,0:0:0:0:
402,192,73287,1,0,0:0:0:0:
109,192,73287,1,0,0:0:0:0:
36,192,73393,1,0,0:0:0:0:
475,192,73393,1,0,0:0:0:0:
256,192,73499,128,0,73921:0:0:0:0:
109,192,73499,1,0,0:0:0:0:
402,192,73499,1,0,0:0:0:0:
329,192,73710,128,0,73921:0:0:0:0:
182,192,73710,128,0,73921:0:0:0:0:
36,192,73921,1,0,0:0:0:0:
475,192,73921,1,2,0:0:0:0:
402,192,74027,1,0,0:0:0:0:
109,192,74027,1,0,0:0:0:0:
36,192,74132,1,0,0:0:0:0:
475,192,74132,1,8,0:0:0:0:
256,192,74132,1,0,0:0:0:0:
402,192,74238,1,0,0:0:0:0:
109,192,74238,1,0,0:0:0:0:
256,192,74344,1,0,0:0:0:30:LR4_KickMSBT.wav
182,192,74344,1,0,0:0:0:0:
329,192,74344,1,0,0:0:0:0:
475,192,74555,1,0,0:0:0:0:
36,192,74555,1,0,0:0:0:0:
402,192,74661,1,0,0:0:0:0:
109,192,74661,1,0,0:0:0:0:
329,192,74766,1,0,0:0:0:50:LR_Snare Hat.wav
182,192,74766,1,0,0:0:0:0:
109,192,74872,1,0,0:0:0:0:
402,192,74872,1,0,0:0:0:0:
182,192,74978,1,0,0:0:0:0:
329,192,74978,1,0,0:0:0:0:
109,192,75083,1,0,0:0:0:0:
402,192,75083,1,0,0:0:0:0:
475,192,75189,128,0,75611:0:0:0:0:
36,192,75189,128,0,75611:0:0:0:0:
402,192,75400,128,0,75611:0:0:0:0:
109,192,75400,128,0,75611:0:0:0:0:
256,192,75611,1,2,0:0:0:0:
329,192,75611,1,0,0:0:0:0:
182,192,75611,1,0,0:0:0:0:
329,192,75823,1,0,0:0:0:0:
256,192,75823,128,2,76034:0:0:0:0:
182,192,75823,1,0,0:0:0:0:
402,192,76034,1,8,0:0:0:0:
109,192,76034,1,0,0:0:0:0:
182,192,76245,1,0,0:0:0:0:
36,192,76245,1,0,0:0:0:0:
329,192,76351,1,0,0:0:0:0:
475,192,76351,1,0,0:0:0:0:
182,192,76456,1,8,0:0:0:0:
36,192,76456,1,0,0:0:0:0:
329,192,76668,1,0,0:0:0:0:
182,192,76773,1,0,0:0:0:0:
36,192,76879,128,0,77724:0:0:0:0:
329,192,76879,1,0,0:0:0:0:
182,192,76985,1,0,0:0:0:0:
256,192,77090,128,0,77724:0:0:0:0:
329,192,77090,1,0,0:0:0:0:
475,192,77196,128,0,77724:0:0:0:0:
182,192,77196,1,0,0:0:0:0:
402,192,77301,128,0,77724:0:0:0:0:
329,192,77301,1,0,0:0:0:0:
109,192,77407,128,0,77724:0:0:0:0:
182,192,77407,1,0,0:0:0:0:
329,192,77513,128,0,77724:0:0:0:0:
182,192,77724,1,2,0:0:0:0:
402,192,77935,1,0,0:0:0:0:
256,192,77935,1,8,0:0:0:0:
109,192,77935,1,0,0:0:0:0:
475,192,78147,1,0,0:0:0:0:
36,192,78147,1,0,0:0:0:0:
182,192,78252,1,0,0:0:0:0:
329,192,78252,1,0,0:0:0:0:
109,192,78358,1,0,0:0:0:0:
402,192,78358,1,0,0:0:0:0:
475,192,78463,1,0,0:0:0:0:
36,192,78463,1,0,0:0:0:0:
256,192,78569,1,0,0:0:0:30:LR4_KickMSBT.wav
402,192,78569,128,0,78780:0:0:0:0:
109,192,78569,128,0,78780:0:0:0:0:
182,192,78780,128,0,78886:0:0:0:0:
329,192,78886,128,0,78992:0:0:0:0:
402,192,78992,1,0,0:0:0:30:LR4_KickMSBT.wav
109,192,78992,1,0,0:0:0:0:
402,192,79097,1,0,0:0:0:0:
109,192,79097,1,0,0:0:0:0:
329,192,79203,128,0,79308:0:0:0:0:
182,192,79308,128,0,79414:0:0:0:0:
402,192,79414,1,8,0:0:0:0:
109,192,79414,1,0,0:0:0:0:
256,192,79414,1,0,0:0:0:0:
475,192,79625,1,0,0:0:0:0:
36,192,79625,1,0,0:0:0:0:
256,192,79731,128,0,79837:0:0:0:0:
329,192,79837,1,0,0:0:0:0:
109,192,79837,1,0,0:0:0:0:
182,192,79837,1,8,0:0:0:0:
402,192,79837,1,0,0:0:0:0:
402,192,80048,1,0,0:0:0:0:
475,192,80154,1,0,0:0:0:0:
329,192,80154,1,0,0:0:0:0:
182,192,80259,1,0,0:0:0:0:
36,192,80259,1,0,0:0:0:0:
329,192,80400,1,0,0:0:0:0:
475,192,80400,1,0,0:0:0:0:
182,192,80541,1,0,0:0:0:0:
36,192,80541,1,0,0:0:0:0:
109,192,80682,128,0,81104:0:0:0:0:
402,192,80682,128,0,81104:0:0:0:0:
182,192,80893,1,0,0:0:0:0:
256,192,80999,1,0,0:0:0:0:
36,192,81104,1,0,0:0:0:0:
329,192,81104,1,2,0:0:0:0:
475,192,81104,1,0,0:0:0:0:
329,192,81316,1,0,0:0:0:0:
182,192,81316,1,8,0:0:0:0:
475,192,81316,1,0,0:0:0:0:
36,192,81316,1,0,0:0:0:0:
402,192,81421,1,0,0:0:0:0:
109,192,81421,1,0,0:0:0:0:
475,192,81527,1,0,0:0:0:0:
36,192,81527,1,0,0:0:0:0:
402,192,81632,1,0,0:0:0:0:
109,192,81632,1,0,0:0:0:0:
36,192,81738,1,0,0:0:0:0:
475,192,81738,1,0,0:0:0:0:
182,192,81844,1,0,0:0:0:0:
329,192,81844,1,0,0:0:0:0:
402,192,81949,1,0,0:0:0:30:LR4_KickMSBT.wav
329,192,81949,128,0,82055:0:0:0:0:
109,192,82055,1,0,0:0:0:0:
182,192,82055,128,0,82161:0:0:0:0:
402,192,82161,1,0,0:0:0:0:
329,192,82161,128,0,82266:0:0:0:0:
109,192,82266,1,0,0:0:0:0:
182,192,82266,128,0,82372:0:0:0:0:
36,192,82372,1,0,0:0:0:50:LR_Snare Hat.wav
475,192,82372,1,0,0:0:0:0:
256,192,82372,128,0,82794:0:0:0:0:
109,192,82583,1,0,0:0:0:0:
402,192,82583,1,0,0:0:0:0:
475,192,82583,128,0,82794:0:0:0:0:
36,192,82583,128,0,82794:0:0:0:0:
402,192,82794,1,0,0:0:0:0:
109,192,82794,1,0,0:0:0:0:
329,192,82794,128,0,83006:0:0:0:0:
182,192,82794,128,0,83006:0:0:0:0:
256,192,83006,128,0,84485:0:0:0:0:
36,192,83006,1,0,0:0:0:0:
475,192,83006,1,0,0:0:0:0:
402,192,83111,1,0,0:0:0:0:
109,192,83111,1,0,0:0:0:0:
329,192,83217,1,0,0:0:0:0:
182,192,83217,1,0,0:0:0:30:LR4_KickMSBT.wav
329,192,83323,1,0,0:0:0:0:
182,192,83323,1,0,0:0:0:0:
402,192,83428,1,0,0:0:0:0:
109,192,83428,1,0,0:0:0:0:
109,192,83534,1,0,0:0:0:0:
402,192,83534,1,0,0:0:0:0:
182,192,83639,1,0,0:0:0:30:LR4_KickMSBT.wav
329,192,83639,1,0,0:0:0:0:
475,192,83745,1,0,0:0:0:0:
36,192,83745,1,0,0:0:0:0:
109,192,83851,1,0,0:0:0:0:
402,192,83851,1,0,0:0:0:0:
109,192,83956,128,0,84485:0:0:0:0:
402,192,83956,128,0,84485:0:0:0:0:
329,192,84062,1,0,0:0:0:30:LR4_KickMSBT.wav
182,192,84168,1,0,0:0:0:0:
329,192,84273,1,0,0:0:0:0:
182,192,84379,1,0,0:0:0:0:
475,192,84485,1,2,0:0:0:0:
36,192,84485,1,0,0:0:0:0:
402,192,84696,1,0,0:0:0:0:
109,192,84696,1,8,0:0:0:0:
256,192,84696,1,0,0:0:0:0:
475,192,84907,128,0,85330:0:0:0:0:
36,192,85118,128,0,85330:0:0:0:0:
402,192,85118,1,0,0:0:0:0:
109,192,85118,1,0,0:0:0:0:
256,192,85224,1,0,0:0:0:0:
182,192,85330,1,0,0:0:0:30:LR4_KickMSBT.wav
329,192,85330,1,0,0:0:0:0:
109,192,85435,128,0,85541:0:0:0:0:
182,192,85435,1,0,0:0:0:0:
329,192,85435,1,0,0:0:0:0:
402,192,85541,128,0,85647:0:0:0:0:
109,192,85647,128,0,85752:0:0:0:0:
182,192,85752,1,0,0:0:0:0:
329,192,85752,1,0,0:0:0:0:
182,192,85858,1,0,0:0:0:0:
329,192,85858,1,0,0:0:0:0:
36,192,85963,1,0,0:0:0:0:
475,192,85963,1,0,0:0:0:0:
402,192,86069,1,0,0:0:0:0:
109,192,86069,1,0,0:0:0:0:
256,192,86175,128,0,86386:0:0:0:0:
329,192,86175,1,0,0:0:0:30:LR4_KickMSBT.wav
182,192,86175,1,0,0:0:0:0:
329,192,86386,128,0,86597:0:0:0:0:
182,192,86386,128,0,86597:0:0:0:0:
402,192,86492,128,0,86597:0:0:0:0:
109,192,86492,128,0,86597:0:0:0:0:
36,192,86597,1,0,0:0:0:0:
475,192,86597,1,0,0:0:0:0:
36,192,86808,1,0,0:0:0:0:
475,192,86808,1,0,0:0:0:0:
109,192,86914,1,0,0:0:0:0:
402,192,86914,1,0,0:0:0:0:
256,192,87020,1,0,0:0:0:30:LR4_KickMSBT.wav
329,192,87125,1,0,0:0:0:0:
182,192,87125,1,0,0:0:0:0:
475,192,87231,1,0,0:0:0:0:
36,192,87231,1,0,0:0:0:0:
109,192,87442,128,0,87654:0:0:0:0:
402,192,87442,128,0,87654:0:0:0:0:
329,192,87548,128,0,87654:0:0:0:0:
182,192,87548,128,0,87654:0:0:0:0:
475,192,87654,128,0,87865:0:0:0:0:
36,192,87654,128,0,87865:0:0:0:0:
256,192,87654,128,0,87865:0:0:0:0:
182,192,87865,128,0,88287:0:0:0:0:
329,192,87865,128,2,88287:0:0:0:0:
402,192,87865,1,0,0:0:0:0:
109,192,87865,1,0,0:0:0:0:
475,192,88076,128,0,88287:0:0:0:0:
36,192,88076,128,8,88287:0:0:0:0:
256,192,88287,1,0,0:0:0:50:LR_Snare Hat.wav
109,192,88287,1,0,0:0:0:0:
402,192,88287,1,0,0:0:0:0:
36,192,88393,1,0,0:0:0:0:
475,192,88393,1,0,0:0:0:0:
109,192,88499,1,0,0:0:0:0:
402,192,88499,1,0,0:0:0:0:
36,192,88604,1,0,0:0:0:0:
475,192,88604,1,0,0:0:0:0:
109,192,88710,128,0,89555:0:0:0:0:
182,192,88710,1,0,0:0:0:30:LR4_KickMSBT.wav
329,192,88710,1,0,0:0:0:0:
256,192,88816,1,0,0:0:0:0:
182,192,88921,128,0,89132:0:0:0:0:
329,192,88921,128,0,89132:0:0:0:0:
256,192,89132,128,0,89555:0:0:0:0:
36,192,89132,1,2,0:0:0:0:
475,192,89132,1,0,0:0:0:0:
402,192,89344,128,0,89555:0:0:0:0:
36,192,89344,1,0,0:0:0:0:
475,192,89344,1,2,0:0:0:0:
475,192,89555,1,0,0:0:0:0:
329,192,89555,1,0,0:0:0:0:
182,192,89555,1,8,0:0:0:0:
36,192,89555,1,0,0:0:0:0:
