osu file format v14

[General]
AudioFilename: [SDVX] Nyan Cat.mp3
AudioLeadIn: 0
PreviewTime: 42231
Countdown: 0
SampleSet: Soft
StackLeniency: 0.7
Mode: 3
LetterboxInBreaks: 0
EpilepsyWarning: 1
SpecialStyle: 0
WidescreenStoryboard: 1

[Editor]
DistanceSpacing: 1
BeatDivisor: 4
GridSize: 8
TimelineZoom: 2.5

[Metadata]
Title:Nyan Cat
TitleUnicode:Nyan Cat
Artist:daniwellP feat. Momo Momone
ArtistUnicode:daniwellP feat. 桃音モモ
Creator:Adtw_
Version:4K NOVICE Lv.8
Source:SOUND VOLTEX II -infinite infection-
Tags:SDVX BEMANI KONAMI UTAULOID TEK-A-RHYTHM meme neko nyanyanyanyanyan niconico rainbow remix Momo Momone Hatsune Miku Rinzler tangjinxi PiraTom inbee Z3nx SpectorDG arviejhay Frim4503
BeatmapID:689096
BeatmapSetID:308057

[Difficulty]
HPDrainRate:7
CircleSize:4
OverallDifficulty:7
ApproachRate:5
SliderMultiplier:1.4
SliderTickRate:1

[Events]
//Background and Video events
0,0,"NyanNyan.jpg",0,0
//Break Periods
//Storyboard Layer 0 (Background)
//Storyboard Layer 1 (Fail)
//Storyboard Layer 2 (Pass)
//Storyboard Layer 3 (Foreground)
//Storyboard Sound Samples

[TimingPoints]
-22,422.535211267606,4,2,1,50,1,0
8428,-100,4,2,1,50,0,1
21949,-100,4,2,1,50,0,0
76034,-100,4,2,1,50,0,1
89555,-100,4,2,1,50,0,0

[HitObjects]
320,192,400,5,0,0:0:0:0:
192,192,1245,1,0,0:0:0:0:
320,192,1404,1,0,0:0:0:0:
448,192,2407,1,8,0:0:0:0:
64,192,2794,1,8,0:0:0:0:
320,192,3252,1,0,0:0:0:0:
64,192,3728,1,0,0:0:0:0:
192,192,4203,128,0,4308:0:0:0:0:
320,192,4625,128,0,4784:0:0:0:0:
192,192,5048,128,0,5470:0:0:0:0:
64,192,5048,1,0,0:0:0:50:LR_Drum Hit Soft Normal.wav
448,192,5470,1,0,0:0:0:50:LR_Drum Hit Soft Normal.wav
192,192,5893,1,0,0:0:0:0:
448,192,6316,1,0,0:0:0:50:LR_Drum Hit Soft Normal.wav
320,192,6316,128,0,6738:0:0:0:0:
64,192,6738,128,0,6949:0:0:0:0:
192,192,6949,1,0,0:0:0:0:
320,192,7161,1,0,0:0:0:50:LR_Drum Hit Soft Normal.wav
448,192,7161,128,0,7583:0:0:0:0:
192,192,7583,1,0,0:0:0:50:LR_Drum Hit Soft Normal.wav
64,192,7794,1,0,0:0:0:0:
192,192,7900,1,0,0:0:0:0:
320,192,8006,128,0,8428:0:0:0:0:
448,192,8428,1,0,0:0:0:30:LR_Drum Hit Soft Normal.wav
64,192,8428,1,0,0:0:0:30:LR4_KickMSBT.wav
320,192,8851,1,0,0:0:0:50:LR_Snare Hat.wav
192,192,8851,1,0,0:0:0:0:
448,192,9273,128,0,9696:0:0:0:30:LR4_KickMSBT.wav
192,192,9696,1,0,0:0:0:50:LR_Snare Hat.wav
64,192,9696,1,0,0:0:0:0:
320,192,10118,128,0,10330:0:0:0:30:LR4_KickMSBT.wav
448,192,10541,1,0,0:0:0:50:LR_Snare Hat.wav
192,192,10541,1,0,0:0:0:0:
320,192,10963,1,0,0:0:0:30:LR4_KickMSBT.wav
192,192,10963,128,0,11386:0:0:0:0:
64,192,11386,128,0,11808:0:0:0:0:
192,192,11808,1,0,0:0:0:30:LR4_KickMSBT.wav
320,192,11808,1,0,0:0:0:0:
64,192,12020,1,0,0:0:0:0:
448,192,12231,1,0,0:0:0:50:LR_Snare Hat.wav
320,192,12654,1,0,0:0:0:30:LR4_KickMSBT.wav
192,192,12865,1,0,0:0:0:0:
64,192,13076,1,0,0:0:0:0:
448,192,13076,1,0,0:0:0:50:LR_Snare Hat.wav
320,192,13499,128,0,13710:0:0:0:30:LR4_KickMSBT.wav
64,192,13921,1,0,0:0:0:50:LR_Snare Hat.wav
192,192,13921,128,0,14344:0:0:0:0:
448,192,14344,128,0,14555:0:0:0:0:
320,192,14344,1,0,0:0:0:30:LR4_KickMSBT.wav
64,192,14555,128,0,14766:0:0:0:0:
192,192,14766,128,0,14978:0:0:0:0:
320,192,14978,128,0,15189:0:0:0:0:
448,192,15189,1,0,0:0:0:30:LR4_KickMSBT.wav
192,192,15400,1,0,0:0:0:0:
64,192,15611,1,0,0:0:0:50:LR_Snare Hat.wav
320,192,15611,1,0,0:0:0:0:
448,192,16034,1,0,0:0:0:30:LR4_KickMSBT.wav
320,192,16245,1,0,0:0:0:0:
192,192,16456,1,2,0:0:0:0:
64,192,16456,1,0,0:0:0:0:
320,192,16668,1,8,0:0:0:0:
448,192,16668,1,0,0:0:0:0:
192,192,16879,1,0,0:0:0:30:LR4_KickMSBT.wav
64,192,17301,1,0,0:0:0:0:
320,192,17301,1,0,0:0:0:50:LR_Snare Hat.wav
448,192,17724,128,0,18147:0:0:0:30:LR4_KickMSBT.wav
64,192,18147,1,2,0:0:0:0:
192,192,18147,1,0,0:0:0:0:
448,192,18358,1,0,0:0:0:0:
320,192,18358,1,8,0:0:0:0:
64,192,18569,1,0,0:0:0:30:LR4_KickMSBT.wav
192,192,18992,1,0,0:0:0:50:LR_Snare Hat.wav
448,192,18992,1,0,0:0:0:0:
320,192,19414,1,0,0:0:0:30:LR4_KickMSBT.wav
320,192,19837,1,2,0:0:0:0:
448,192,19837,1,0,0:0:0:0:
64,192,20048,1,0,0:0:0:0:
192,192,20048,1,8,0:0:0:0:
320,192,20259,128,0,20682:0:0:0:30:LR4_KickMSBT.wav
64,192,20682,128,0,21104:0:0:0:50:LR_Snare Hat.wav
192,192,21104,128,0,21527:0:0:0:0:
448,192,21527,1,0,0:0:0:0:
320,192,21527,1,2,0:0:0:0:
64,192,21738,1,0,0:0:0:0:
192,192,21738,1,8,0:0:0:0:
448,192,21949,1,0,0:0:0:30:LR4_KickMSBT.wav
320,192,22161,1,0,0:0:0:0:
192,192,22372,1,0,0:0:0:50:LR_Snare Hat.wav
64,192,22372,128,0,22794:0:0:0:0:
448,192,22794,128,0,23217:0:0:0:0:
320,192,22794,1,0,0:0:0:30:LR4_KickMSBT.wav
192,192,23217,128,0,23639:0:0:0:50:LR_Snare Hat.wav
320,192,23639,1,2,0:0:0:0:
448,192,23639,1,0,0:0:0:0:
64,192,23851,1,0,0:0:0:0:
192,192,23851,1,8,0:0:0:0:
320,192,24062,128,0,24485:0:0:0:50:LR_Snare Hat.wav
192,192,24485,128,0,24907:0:0:0:0:
320,192,24907,128,0,25330:0:0:0:0:
448,192,25330,1,0,0:0:0:30:LR4_KickMSBT.wav
64,192,25541,1,0,0:0:0:0:
192,192,25752,1,0,0:0:0:0:
320,192,25752,1,0,0:0:0:50:LR_Snare Hat.wav
448,192,25963,1,0,0:0:0:0:
64,192,26175,1,0,0:0:0:30:LR4_KickMSBT.wav
448,192,26386,1,0,0:0:0:0:
320,192,26597,1,0,0:0:0:0:
64,192,26597,1,0,0:0:0:50:LR_Snare Hat.wav
192,192,26808,1,0,0:0:0:0:
64,192,27020,128,0,27442:0:0:0:30:LR4_KickMSBT.wav
192,192,27442,128,0,27654:0:0:0:0:
320,192,27654,128,0,27865:0:0:0:0:
448,192,27865,128,0,28287:0:0:0:30:LR4_KickMSBT.wav
320,192,28287,1,0,0:0:0:50:LR_Snare Hat.wav
192,192,28499,1,0,0:0:0:0:
64,192,28499,1,8,0:0:0:0:
448,192,28710,128,0,29132:0:0:0:30:LR4_KickMSBT.wav
192,192,29132,128,0,29555:0:0:0:50:LR_Snare Hat.wav
64,192,29555,128,0,30400:0:0:0:30:LR4_KickMSBT.wav
320,192,30400,1,0,0:0:0:0:
448,192,30400,1,2,0:0:0:0:
64,192,30611,1,2,0:0:0:0:
192,192,30611,1,0,0:0:0:0:
320,192,30823,1,0,0:0:0:0:
448,192,30823,1,2,0:0:0:0:
64,192,31034,1,8,0:0:0:0:
192,192,31034,1,0,0:0:0:0:
448,192,31245,128,0,32090:0:0:0:30:LR4_KickMSBT.wav
64,192,32090,1,2,0:0:0:0:
192,192,32090,1,0,0:0:0:0:
320,192,32301,1,0,0:0:0:0:
448,192,32301,1,2,0:0:0:0:
64,192,32513,1,2,0:0:0:0:
192,192,32513,1,0,0:0:0:0:
320,192,32724,1,0,0:0:0:0:
448,192,32724,1,8,0:0:0:0:
192,192,32935,1,0,0:0:0:30:LR4_KickMSBT.wav
64,192,32935,128,0,33358:0:0:0:0:
320,192,33358,128,0,33780:0:0:0:0:
192,192,33780,1,0,0:0:0:30:LR4_KickMSBT.wav
448,192,33992,1,0,0:0:0:0:
192,192,34203,1,0,0:0:0:0:
320,192,34203,1,0,0:0:0:50:LR_Snare Hat.wav
448,192,34414,1,0,0:0:0:0:
320,192,34625,1,0,0:0:0:0:
192,192,34837,1,0,0:0:0:0:
64,192,35048,128,0,35470:0:0:0:50:LR_Snare Hat.wav
192,192,35470,1,0,0:0:0:30:LR4_KickMSBT.wav
320,192,35682,1,0,0:0:0:0:
448,192,35893,128,0,36104:0:0:0:0:
320,192,36316,1,0,0:0:0:30:LR4_KickMSBT.wav
192,192,36527,1,0,0:0:0:0:
320,192,36738,1,0,0:0:0:0:
448,192,36738,1,0,0:0:0:50:LR_Snare Hat.wav
64,192,36949,1,0,0:0:0:0:
192,192,37161,128,0,37372:0:0:0:30:LR4_KickMSBT.wav
320,192,37583,1,0,0:0:0:50:LR_Snare Hat.wav
448,192,37583,128,0,38006:0:0:0:0:
320,192,38006,1,0,0:0:0:30:LR4_KickMSBT.wav
192,192,38217,1,0,0:0:0:0:
64,192,38428,1,0,0:0:0:70:LR_Snare Hat.wav
192,192,38639,1,0,0:0:0:0:
320,192,38851,128,0,39273:0:0:0:30:LR4_KickMSBT.wav
192,192,39273,1,0,0:0:0:0:
448,192,39273,1,0,0:0:0:50:LR_Snare Hat.wav
64,192,39485,128,0,40118:0:0:0:0:
192,192,39696,128,0,40118:0:0:0:30:LR4_KickMSBT.wav
320,192,40118,1,0,0:0:0:50:LR_Snare Hat.wav
448,192,40330,1,0,0:0:0:0:
320,192,40541,128,0,40963:0:0:0:0:
64,192,40541,1,8,0:0:0:0:
192,192,40963,128,0,41386:0:0:0:0:
64,192,41386,128,0,41808:0:0:0:0:
320,192,41808,1,2,0:0:0:0:
448,192,41808,1,0,0:0:0:0:
192,192,42020,1,8,0:0:0:0:
64,192,42020,1,0,0:0:0:0:
320,192,42231,128,0,42654:0:0:0:0:
192,192,42654,128,0,43076:0:0:0:0:
448,192,43076,1,0,0:0:0:0:
320,192,43287,1,0,0:0:0:0:
192,192,43499,128,0,43710:0:0:0:0:
448,192,43710,1,0,0:0:0:0:
64,192,43921,128,0,46034:0:0:0:0:
320,192,45611,1,0,0:0:0:0:
192,192,46034,1,0,0:0:0:0:
448,192,46245,128,0,46456:0:0:0:0:
320,192,46456,1,0,0:0:0:0:
192,192,46668,1,0,0:0:0:0:
64,192,46879,1,0,0:0:0:0:
320,192,46879,1,0,0:0:0:50:LR_Snare Hat.wav
448,192,47090,128,0,47301:0:0:0:0:
320,192,47301,1,0,0:0:0:0:
64,192,47513,128,0,48147:0:0:0:0:
192,192,47513,1,0,0:0:0:0:
448,192,48147,1,0,0:0:0:0:
320,192,48358,1,0,0:0:0:0:
64,192,48569,1,0,0:0:0:0:
192,192,48569,1,0,0:0:0:50:LR_Snare Hat.wav
320,192,48780,1,0,0:0:0:50:LR_Snare Hat.wav
448,192,48992,1,0,0:0:0:30:LR_Drum Hit Soft Normal.wav
192,192,48992,1,0,0:0:0:30:LR4_KickMSBT.wav
64,192,49203,1,0,0:0:0:0:
192,192,49414,1,0,0:0:0:50:LR_Snare Hat.wav
448,192,49414,1,0,0:0:0:0:
320,192,49625,1,0,0:0:0:0:
192,192,49837,1,0,0:0:0:0:
448,192,49837,128,0,50259:0:0:0:30:LR4_KickMSBT.wav
320,192,50259,128,0,50470:0:0:0:50:LR_Snare Hat.wav
192,192,50470,128,0,50682:0:0:0:0:
448,192,50682,1,2,0:0:0:0:
320,192,50682,1,0,0:0:0:0:
64,192,50893,1,0,0:0:0:0:
192,192,50893,1,8,0:0:0:0:
320,192,51104,1,0,0:0:0:0:
320,192,51316,1,0,0:0:0:0:
192,192,51527,1,0,0:0:0:0:
320,192,51738,128,0,52372:0:0:0:0:
192,192,52372,128,0,52583:0:0:0:30:LR4_KickMSBT.wav
448,192,52583,1,0,0:0:0:0:
64,192,52794,128,0,53006:0:0:0:30:LR4_KickMSBT.wav
192,192,53006,1,0,0:0:0:0:
448,192,53217,1,0,0:0:0:0:
320,192,53428,1,0,0:0:0:0:
192,192,53639,128,0,53851:0:0:0:0:
64,192,53851,1,0,0:0:0:0:
448,192,54062,1,0,0:0:0:30:LR4_KickMSBT.wav
320,192,54062,128,0,54485:0:0:0:0:
192,192,54485,128,0,54907:0:0:0:0:
448,192,54907,1,0,0:0:0:30:LR4_KickMSBT.wav
320,192,55118,1,0,0:0:0:0:
192,192,55330,1,0,0:0:0:50:LR_Snare Hat.wav
320,192,55541,1,8,0:0:0:0:
448,192,55541,1,0,0:0:0:0:
448,192,55752,128,0,56175:0:0:0:30:LR4_KickMSBT.wav
320,192,56175,128,0,57020:0:0:0:50:LR_Snare Hat.wav
192,192,57020,128,0,57442:0:0:0:0:
448,192,57442,1,2,0:0:0:0:
320,192,57442,1,0,0:0:0:0:
64,192,57654,1,2,0:0:0:0:
192,192,57654,1,0,0:0:0:0:
320,192,57865,1,0,0:0:0:0:
448,192,57865,1,2,0:0:0:0:
64,192,58076,1,8,0:0:0:0:
192,192,58076,1,0,0:0:0:0:
320,192,58287,1,0,0:0:0:30:LR4_KickMSBT.wav
448,192,58499,1,0,0:0:0:0:
320,192,58710,1,0,0:0:0:50:LR_Snare Hat.wav
448,192,58921,1,0,0:0:0:0:
192,192,59132,1,2,0:0:0:0:
64,192,59132,1,0,0:0:0:0:
448,192,59344,1,0,0:0:0:0:
320,192,59344,1,2,0:0:0:0:
192,192,59555,1,2,0:0:0:0:
64,192,59555,1,0,0:0:0:0:
448,192,59766,1,0,0:0:0:0:
320,192,59766,1,8,0:0:0:0:
192,192,59978,1,0,0:0:0:30:LR4_KickMSBT.wav
64,192,60189,1,0,0:0:0:0:
192,192,60400,1,0,0:0:0:0:
64,192,60611,1,0,0:0:0:0:
320,192,60823,128,0,61456:0:0:0:30:LR4_KickMSBT.wav
192,192,61456,128,0,62090:0:0:0:0:
448,192,62090,1,0,0:0:0:50:LR_Snare Hat.wav
320,192,62301,1,0,0:0:0:50:LR_Snare Hat.wav
64,192,62513,128,0,62724:0:0:0:30:LR4_KickMSBT.wav
192,192,62724,128,0,62935:0:0:0:30:LR4_KickMSBT.wav
320,192,62935,128,0,63358:0:0:0:30:LR4_KickMSBT.wav
448,192,63358,128,0,63780:0:0:0:30:LR4_KickMSBT.wav
320,192,63780,1,0,0:0:0:30:LR4_KickMSBT.wav
64,192,63992,1,0,0:0:0:0:
448,192,64203,1,0,0:0:0:30:LR4_KickMSBT.wav
320,192,64414,1,0,0:0:0:0:
64,192,64625,1,0,0:0:0:0:
192,192,64625,1,0,0:0:0:50:LR_Snare Hat.wav
320,192,64837,1,0,0:0:0:0:
448,192,65048,128,0,65470:0:0:0:30:LR4_KickMSBT.wav
320,192,65470,1,0,0:0:0:30:LR4_KickMSBT.wav
192,192,65682,1,0,0:0:0:0:
64,192,65893,128,0,66104:0:0:0:0:
192,192,66104,1,0,0:0:0:0:
320,192,66316,1,0,0:0:0:50:LR_Snare Hat.wav
448,192,66316,1,0,0:0:0:0:
64,192,66527,1,0,0:0:0:0:
320,192,66738,1,0,0:0:0:30:LR4_KickMSBT.wav
192,192,66949,1,0,0:0:0:0:
64,192,67161,1,0,0:0:0:50:LR_Snare Hat.wav
320,192,67161,1,0,0:0:0:0:
192,192,67372,128,0,67583:0:0:0:0:
320,192,67583,1,8,0:0:0:0:
448,192,67583,128,0,68428:0:0:0:0:
320,192,68428,128,0,68639:0:0:0:0:
192,192,68639,1,0,0:0:0:0:
448,192,68851,1,0,0:0:0:0:
64,192,69062,128,0,69273:0:0:0:0:
192,192,69273,1,0,0:0:0:30:LR4_KickMSBT.wav
320,192,69485,1,0,0:0:0:0:
192,192,69696,1,0,0:0:0:0:
448,192,69696,1,0,0:0:0:50:LR_Snare Hat.wav
64,192,69907,1,0,0:0:0:0:
192,192,70118,128,0,70541:0:0:0:30:LR4_KickMSBT.wav
64,192,70541,1,2,0:0:0:0:
320,192,70752,1,0,0:0:0:0:
448,192,70752,1,8,0:0:0:0:
192,192,70963,1,0,0:0:0:30:LR4_KickMSBT.wav
64,192,70963,128,0,71386:0:0:0:0:
320,192,71386,1,0,0:0:0:50:LR_Snare Hat.wav
448,192,71386,128,0,71808:0:0:0:0:
320,192,71808,128,0,72231:0:0:0:30:LR4_KickMSBT.wav
64,192,72231,1,2,0:0:0:0:
192,192,72231,1,0,0:0:0:0:
320,192,72442,1,0,0:0:0:0:
448,192,72442,1,8,0:0:0:0:
64,192,72654,1,0,0:0:0:30:LR4_KickMSBT.wav
192,192,72865,1,0,0:0:0:0:
320,192,73076,1,0,0:0:0:50:LR_Snare Hat.wav
448,192,73076,1,0,0:0:0:0:
64,192,73287,1,0,0:0:0:0:
192,192,73499,128,0,73710:0:0:0:0:
320,192,73710,128,0,73921:0:0:0:0:
448,192,73921,1,2,0:0:0:0:
64,192,73921,1,0,0:0:0:0:
192,192,74132,1,8,0:0:0:0:
320,192,74132,1,0,0:0:0:0:
64,192,74344,1,0,0:0:0:30:LR4_KickMSBT.wav
192,192,74555,1,0,0:0:0:0:
64,192,74766,1,0,0:0:0:0:
320,192,74766,1,0,0:0:0:50:LR_Snare Hat.wav
192,192,74978,1,0,0:0:0:0:
448,192,75189,128,0,75611:0:0:0:0:
320,192,75611,1,0,0:0:0:0:
64,192,75611,1,2,0:0:0:0:
192,192,75823,1,8,0:0:0:0:
448,192,75823,1,0,0:0:0:0:
64,192,76034,128,0,76456:0:0:0:0:
192,192,76456,1,8,0:0:0:0:
320,192,76456,128,0,77724:0:0:0:0:
448,192,77301,1,0,0:0:0:0:
64,192,77724,1,2,0:0:0:0:
192,192,77724,1,0,0:0:0:0:
448,192,77935,1,8,0:0:0:0:
320,192,77935,1,0,0:0:0:0:
192,192,78147,1,0,0:0:0:0:
320,192,78569,1,0,0:0:0:30:LR4_KickMSBT.wav
448,192,78569,128,0,78992:0:0:0:0:
320,192,78992,128,0,79414:0:0:0:30:LR4_KickMSBT.wav
192,192,79414,1,8,0:0:0:0:
64,192,79414,128,0,79837:0:0:0:0:
320,192,79837,128,0,80259:0:0:0:0:
192,192,79837,1,8,0:0:0:0:
448,192,80259,128,0,80682:0:0:0:0:
320,192,80682,1,0,0:0:0:0:
192,192,80893,1,0,0:0:0:0:
320,192,81104,1,0,0:0:0:0:
448,192,81104,1,2,0:0:0:0:
64,192,81316,1,8,0:0:0:0:
192,192,81316,1,0,0:0:0:0:
320,192,81527,1,0,0:0:0:0:
448,192,81738,1,0,0:0:0:0:
320,192,81949,128,0,82372:0:0:0:30:LR4_KickMSBT.wav
192,192,82372,1,0,0:0:0:50:LR_Snare Hat.wav
64,192,82583,1,0,0:0:0:0:
192,192,82794,128,0,83217:0:0:0:0:
320,192,83217,128,0,83639:0:0:0:0:
448,192,83639,128,0,84062:0:0:0:0:
320,192,84062,128,0,84485:0:0:0:0:
64,192,84485,1,2,0:0:0:0:
192,192,84485,1,0,0:0:0:0:
320,192,84696,1,0,0:0:0:0:
448,192,84696,1,8,0:0:0:0:
192,192,84907,128,0,85330:0:0:0:0:
64,192,85330,128,0,85752:0:0:0:30:LR4_KickMSBT.wav
192,192,85752,128,0,85963:0:0:0:30:LR4_KickMSBT.wav
320,192,85963,1,0,0:0:0:0:
448,192,86175,128,0,86597:0:0:0:30:LR4_KickMSBT.wav
320,192,86597,1,0,0:0:0:0:
64,192,86597,128,0,87020:0:0:0:0:
192,192,87020,1,0,0:0:0:30:LR4_KickMSBT.wav
320,192,87231,1,0,0:0:0:0:
448,192,87442,128,0,87865:0:0:0:0:
192,192,87865,1,2,0:0:0:0:
64,192,87865,1,0,0:0:0:0:
320,192,88076,1,0,0:0:0:0:
448,192,88076,1,8,0:0:0:0:
192,192,88287,128,0,88710:0:0:0:50:LR_Snare Hat.wav
320,192,88710,128,0,89132:0:0:0:30:LR4_KickMSBT.wav
192,192,89132,1,2,0:0:0:0:
64,192,89132,1,0,0:0:0:0:
320,192,89344,1,2,0:0:0:0:
448,192,89344,1,0,0:0:0:0:
64,192,89555,1,0,0:0:0:0:
192,192,89555,1,8,0:0:0:0:
