osu file format v9

[General]
AudioFilename: Nyanyanyanyanyanyanya!.mp3
AudioLeadIn: 0
PreviewTime: 8681
Countdown: 0
SampleSet: Normal
StackLeniency: 0.4
Mode: 1
LetterboxInBreaks: 1

[Editor]
Bookmarks: 8924,22445,35934,35966,49487,63008,76529,90051,103572,117093,130614,144135,157656,171177,184698,198220,211741
DistanceSpacing: 1
BeatDivisor: 4
GridSize: 8

[Metadata]
Title:Nyanyanyanyanyanyanya!
Artist:daniwellP
Creator:theowest
Version:Taiko Collab
Source:Nico Nico Douga
Tags:MomoneMomo UTAU Nyan Pop Tart Cat Neko 8-bit LOL-COMICS OzzyOzrock wmfchris MMzz Hyguys Roley Sander-Don OnosakiHito arien666 Lilac Lanttu Sallad4ever Fight69 _LRJ_ Crimmi galvenize Blue_Dragon

[Difficulty]
HPDrainRate:7
CircleSize:6
OverallDifficulty:5
ApproachRate:5
SliderMultiplier:1.4
SliderTickRate:2

[Events]
//Background and Video events
0,0,"BG.png"
//Break Periods
//Storyboard Layer 0 (Background)
Sprite,Background,Centre,"BG.png",320,240 F,0,0,,0
Sprite,Background,Centre,"SB\back.jpg",320,240 F,0,19,8892,0,1 M,0,215089,,320,240
Animation,Background,Centre,"SB\arc-.png",320,240,4,172,LoopForever M,0,8892,,118,362 F,0,215089,,1
Animation,Background,Centre,"SB\ex-.png",320,240,6,350,LoopForever L,0,60 M,0,8892,12272,647,60,-27,60 F,0,214500,215089,1,0
Animation,Background,Centre,"SB\ex-.png",320,240,6,350,LoopForever L,0,60 M,0,9314,12695,677,441,-35,441 F,0,214500,215089,1,0
Animation,Background,Centre,"SB\ex-.png",320,240,6,350,LoopForever L,0,69 M,0,9737,12695,670,331,-36,331 F,0,214500,215089,1,0
Animation,Background,Centre,"SB\ex-.png",320,240,6,350,LoopForever L,0,69 M,0,10159,13117,700,225,-41,225 F,0,214500,215089,1,0
Animation,Background,Centre,"SB\ex-.png",320,240,6,350,LoopForever L,0,69 M,0,11427,14385,669,344,-41,344 F,0,214500,215089,1,0
Animation,Background,Centre,"SB\ex-.png",320,240,6,350,LoopForever L,0,52 M,0,10582,14385,684,126,-34,126 F,0,214500,215089,1,0
//Storyboard Layer 1 (Fail)
//Storyboard Layer 2 (Pass)
//Storyboard Layer 3 (Foreground)
Animation,Foreground,Centre,"SB\cat-.png",320,240,6,101,LoopForever M,0,8892,,317,358 F,0,8892,,1 F,0,215089,,1
Sprite,Foreground,Centre,"SB\white.jpg",320,240 F,0,8786,8892,0,1 M,0,8892,,320,240 F,0,8892,9103,1,0
Sprite,Foreground,Centre,"SB\white.jpg",320,240 F,0,211709,215089,0,1 M,0,215089,,320,240 C,0,215089,,0,0,0
Sprite,Foreground,Centre,"SB\names\OzzyOzrock.png",320,240 F,2,4065,4276,0,1 S,2,4065,4276,0.8,0.7 M,0,4276,,460,470 R,0,4698,4898,0,0.1963 M,0,5121,5321,460,470,460,450 R,0,5121,5321,0.1963,0 M,1,35946,36246,460,450,460,500
Sprite,Foreground,Centre,"SB\names\wmfchris.png",320,240 S,0,35666,,0.7 M,2,35666,35966,490,300,490,430 F,0,35666,35966,0,1 M,1,35966,36177,490,430,490,400 M,2,36177,36389,490,400,490,450 V,1,63008,63220,0.7,0.7,0,0.5
Sprite,Foreground,Centre,"SB\names\MMzz.png",320,240 M,0,63008,,490,450 V,1,63008,63220,0,0.5,0.7,0.7 M,1,89840,91451,490,450,-300,400 R,2,89840,91451,0,-1
Sprite,Foreground,Centre,"SB\names\Hyguys.png",320,240 S,0,89628,,0.7 M,0,89651,90051,840,450,490,450 M,1,117073,117393,490,450,490,500
Sprite,Foreground,Centre,"SB\names\Roley.png",320,240 S,0,116793,,0.7 M,2,116793,117093,490,300,490,430 F,0,116793,117093,0,1 M,1,117093,117304,490,430,490,400 M,2,117304,117515,490,400,490,450 V,1,144135,144346,0.7,0.7,0,0.5
Sprite,Foreground,Centre,"SB\names\Sander-Don.png",320,240 M,0,144135,,460,450 V,1,144135,144346,0,0.5,0.7,0.7 M,1,170765,172577,460,450,-300,400 R,2,170765,172577,0,-1
Sprite,Foreground,Centre,"SB\names\OnosakiHito",320,240 S,0,170755,,0.7 M,0,170755,171177,840,450,440,450 F,1,198008,198220,1,0 S,1,198008,198220,0.7,0.5
Sprite,Foreground,Centre,"SB\names\arien666.png",320,240 M,0,198008,,490,450 F,2,198008,198220,0,1 S,2,198008,198220,0.9,0.7 F,0,211741,214741,1,0 M,0,211741,215041,490,450,-300,400 R,2,211741,215041,0,-1
Sprite,Foreground,Centre,"SB\names\Storyboard Created by Astom.png",320,240 M,0,215121,,319,251 S,0,215121,,0.4192172 F,0,215121,216811,0,1 F,0,216811,218501,1 F,0,218501,220191,1,0
//Storyboard Sound Samples
//Background Colour Transformations
3,100,0,0,0

[TimingPoints]
5544,422.535211267606,4,2,0,50,1,0
6389,-100,4,1,0,50,0,0
6494,-100,4,2,0,70,0,0
7128,-100,4,1,0,50,0,0
7339,-100,4,2,0,70,0,0
7973,-100,4,1,0,50,0,0
8290,-100,4,2,0,70,0,0
8924,-100,4,1,0,80,0,0

[Colours]
Combo1 : 0,128,192
Combo2 : 250,97,5

[HitObjects]
368,272,5543,21,8
368,272,5966,1,8
368,272,6389,1,8
368,272,6811,1,8
368,272,7022,1,8
368,272,7128,1,8
368,272,7234,21,8
368,272,7657,1,8
368,272,7867,1,8
368,272,7973,1,8
368,272,8080,1,8
368,272,8290,1,8
368,272,8502,1,8
368,272,8713,1,8
368,272,8818,1,8
144,288,8924,5,0
368,272,9135,5,8
144,288,9346,5,0
368,272,9452,5,8
144,288,9663,5,0
368,272,9768,5,8
144,288,9874,5,0
368,272,9980,5,8
368,272,10191,1,8
144,288,10403,5,0
144,288,10508,1,0
368,272,10614,5,8
144,288,10825,5,0
368,272,10931,5,8
144,288,11036,5,0
144,288,11142,1,0
368,272,11248,5,8
144,288,11353,5,0
368,272,11459,5,8
144,288,11565,5,0
368,272,11670,5,8
144,288,11776,5,0
368,272,11881,5,8
144,288,11987,5,0
368,272,12092,5,8
144,288,12198,5,0
144,288,12304,1,0
368,272,12515,5,8
144,288,12726,5,0
368,272,12832,5,8
144,288,12938,5,0
144,288,13043,1,0
368,272,13148,5,8
144,288,13254,5,0
368,272,13360,5,8
368,272,13466,1,8
368,272,13571,1,8
144,288,13677,5,0
144,288,13783,1,0
144,288,13888,1,0
368,272,13994,5,8
144,288,14205,5,0
144,288,14311,1,0
144,288,14417,1,0
368,272,14522,5,8
144,288,14628,5,0
144,288,14734,1,0
368,272,14840,5,8
144,288,14945,5,0
368,272,15051,5,8
368,272,15262,1,8
368,272,15473,1,8
368,272,15579,1,8
144,288,15684,5,0
368,272,15895,5,8
144,288,16106,5,0
368,272,16212,5,8
144,288,16423,5,0
368,272,16528,5,8
144,288,16634,5,0
368,272,16740,5,8
368,272,16951,1,8
144,288,17163,5,0
144,288,17268,1,0
368,272,17374,5,8
144,288,17585,5,0
368,272,17691,5,8
144,288,17796,5,0
144,288,17902,1,0
368,272,18008,5,8
144,288,18113,5,0
368,272,18219,5,8
144,288,18325,5,0
368,272,18430,5,8
144,288,18536,5,0
368,272,18641,5,8
144,288,18747,5,0
368,272,18852,5,8
144,288,18958,5,0
144,288,19064,1,0
368,272,19275,5,8
144,288,19486,5,0
368,272,19592,5,8
144,288,19698,5,0
144,288,19803,1,0
368,272,19910,5,8
144,288,20014,5,0
368,272,20120,5,8
368,272,20226,1,8
368,272,20331,1,8
144,288,20437,5,0
144,288,20543,1,0
144,288,20648,1,0
368,272,20754,5,8
144,288,20965,5,0
144,288,21071,1,0
144,288,21177,1,0
368,272,21282,5,8
144,288,21388,5,0
144,288,21494,1,0
368,272,21600,5,8
144,288,21705,5,0
368,272,21811,5,8
368,272,22022,1,8
368,272,22233,1,8
368,272,22339,1,8
368,272,22445,1,8
144,288,22656,5,0
144,288,22762,1,0
368,272,22867,5,8
144,288,23079,5,0
144,288,23184,1,0
144,288,23290,1,0
368,272,23396,5,8
144,288,23501,5,0
144,288,23607,1,0
368,272,23713,5,8
144,288,23818,5,0
368,272,23924,5,8
368,272,24029,1,8
368,272,24135,1,8
368,272,24346,1,8
144,288,24558,5,0
144,288,24663,1,0
144,288,24769,1,0
144,288,24874,1,0
368,272,24980,5,8
144,288,25086,5,0
144,288,25191,1,0
368,272,25297,5,8
144,288,25403,5,0
144,288,25508,1,0
368,272,25614,5,8
144,288,25720,5,0
368,272,25825,5,8
144,288,26036,5,0
144,288,26142,1,0
368,272,26247,5,8
144,288,26459,5,0
144,288,26564,1,0
144,288,26670,1,0
368,272,26776,5,8
144,288,26881,5,0
144,288,26987,1,0
368,272,27093,5,8
144,288,27198,5,0
368,272,27304,5,8
368,272,27409,1,8
368,272,27515,1,8
368,272,27726,1,8
368,272,27832,1,8
144,288,27938,5,0
144,288,28043,1,0
144,288,28149,5,8
144,288,28254,5,0
368,272,28360,5,8
144,288,28466,5,0
144,288,28571,1,0
368,272,28677,5,8
144,288,28783,5,0
144,288,28888,1,0
368,272,28994,5,8
144,288,29100,5,0
368,272,29205,5,8
144,288,29416,5,0
144,288,29522,1,0
368,272,29627,5,8
368,272,29734,1,8
144,288,29839,5,0
144,288,29944,1,0
144,288,30050,1,0
368,272,30156,5,8
144,288,30261,5,0
144,288,30367,1,0
368,272,30473,5,8
144,288,30578,5,0
368,272,30684,5,8
368,272,30789,1,8
368,272,30895,1,8
368,272,31106,1,8
368,272,31213,1,8
144,288,31318,5,0
144,288,31423,1,0
144,288,31529,1,0
144,288,31634,1,0
368,272,31740,5,8
144,288,31846,5,0
144,288,31951,1,0
368,272,32057,5,8
144,288,32163,5,0
144,288,32268,1,0
368,272,32374,5,8
144,288,32480,5,0
368,272,32586,5,8
144,288,32797,5,0
144,288,32903,1,0
368,272,33008,5,8
144,288,33114,5,0
144,288,33220,1,0
368,272,33325,5,8
144,288,33431,5,0
368,272,33537,5,8
144,288,33642,5,0
144,288,33748,1,0
368,272,33854,5,8
144,288,33959,5,0
368,272,34065,5,8
368,272,34170,1,8
368,272,34276,1,8
368,272,34487,1,8
144,288,34593,5,0
144,288,34699,1,0
368,272,34804,5,8
144,288,34910,5,0
144,288,35015,1,0
368,272,35121,5,8
144,288,35227,1,8
144,288,35332,5,0
144,288,35438,1,0
368,272,35544,5,8
368,272,35755,1,8
480,88,35966,5,0
480,88,36177,1,2
480,88,36389,1,0
480,88,36494,1,2
480,88,36705,1,0
480,88,36811,1,2
480,88,36917,1,2
480,88,37022,1,0
480,88,37234,1,0
480,88,37445,1,0
480,88,37551,1,0
480,88,37656,1,2
480,88,37867,1,2
480,88,38079,1,0
480,88,38184,1,0
480,88,38290,1,2
480,88,38396,1,2
480,88,38501,1,2
480,88,38713,1,2
480,88,38818,1,2
480,88,38924,1,0
480,88,39029,1,2
480,88,39135,1,0
480,88,39241,1,0
480,88,39346,1,2
480,88,39558,1,2
480,88,39769,1,2
480,88,39874,1,0
480,88,39980,1,2
480,88,40086,1,0
480,88,40191,1,2
480,88,40297,1,0
480,88,40403,1,0
480,88,40508,1,0
480,88,40614,1,2
480,88,40720,1,0
480,88,40825,1,0
480,88,40931,1,0
480,88,41036,1,2
480,88,41248,1,0
480,88,41353,1,0
480,88,41459,1,2
480,88,41670,1,0
480,88,41776,1,0
480,88,41882,1,2
480,88,41987,1,0
480,88,42093,1,2
480,88,42198,1,0
480,88,42304,1,0
480,88,42515,1,2
480,88,42727,1,2
480,88,42938,1,2
480,88,43149,1,0
480,88,43255,1,2
480,88,43466,1,0
480,88,43572,1,2
480,88,43677,1,0
480,88,43783,1,0
480,88,43994,1,2
480,88,44205,1,2
480,88,44417,1,2
480,88,44628,1,2
480,88,44734,1,2
480,88,44839,1,0
480,88,44945,1,0
480,88,45051,1,2
480,88,45156,1,2
480,88,45262,1,2
480,88,45473,1,2
480,88,45579,1,0
480,88,45684,1,2
480,88,45790,1,2
480,88,45896,1,0
480,88,46001,1,0
480,88,46107,1,0
480,88,46318,1,2
480,88,46529,1,2
480,88,46635,1,0
480,88,46846,1,0
480,88,46952,1,2
480,88,47058,1,0
480,88,47163,1,0
480,88,47269,1,0
480,88,47374,1,2
480,88,47586,1,0
480,88,47691,1,2
480,88,47797,1,2
480,88,48008,1,0
480,88,48114,1,0
480,88,48220,1,2
480,88,48431,1,2
480,88,48536,1,2
480,88,48642,1,0
480,88,48748,1,0
480,88,48853,1,2
480,88,49065,1,0
480,88,49276,1,2
480,88,49382,1,2
480,88,49487,1,2
480,88,49698,1,0
480,88,49804,1,0
480,88,49910,1,2
480,88,50121,1,0
480,88,50227,1,0
480,88,50332,1,2
480,88,50438,1,0
480,88,50544,1,0
480,88,50649,1,0
480,88,50755,1,2
480,88,50860,1,2
480,88,50966,1,2
480,88,51072,1,2
480,88,51177,1,0
480,88,51389,1,0
480,88,51600,1,0
480,88,51705,1,0
480,88,51811,1,2
480,88,51917,1,0
480,88,52022,1,2
480,88,52128,1,2
480,88,52234,1,0
480,88,52339,1,0
480,88,52445,1,2
480,88,52551,1,0
480,88,52656,1,0
480,88,52762,1,0
480,88,52867,1,2
480,88,53079,1,0
480,88,53184,1,2
480,88,53290,1,2
480,88,53501,1,0
480,88,53607,1,2
480,88,53713,1,2
480,88,53818,1,2
480,88,53924,1,0
480,88,54029,1,0
480,88,54135,1,2
480,88,54346,1,0
480,88,54452,1,0
480,88,54558,1,2
480,88,54769,1,2
480,88,54874,1,0
480,88,54980,1,2
480,88,55191,1,2
480,88,55297,1,0
480,88,55403,1,2
480,88,55508,1,0
480,88,55614,1,0
480,88,55720,1,0
480,88,55825,1,2
480,88,55931,1,2
480,88,56036,1,0
480,88,56142,1,0
480,88,56248,1,2
480,88,56459,1,0
480,88,56565,1,0
480,88,56670,1,2
480,88,56882,1,0
480,88,56987,1,0
480,88,57093,1,2
480,88,57198,1,0
480,88,57304,1,2
480,88,57410,1,2
480,88,57515,1,2
480,88,57621,1,2
480,88,57727,1,0
480,88,57832,1,0
480,88,57938,1,2
480,88,58149,1,0
480,88,58360,1,0
480,88,58572,1,0
480,88,58677,1,0
480,88,58783,1,2
480,88,58889,1,2
480,88,58994,1,0
480,88,59100,1,0
480,88,59205,1,2
480,88,59311,1,2
480,88,59417,1,0
480,88,59522,1,0
480,88,59628,1,2
480,88,59839,1,0
480,88,59945,1,0
480,88,60051,1,2
480,88,60262,1,0
480,88,60367,1,0
480,88,60473,1,2
480,88,60684,1,0
480,88,60790,1,0
480,88,60896,1,2
480,88,61001,1,0
480,88,61107,1,0
480,88,61213,1,0
480,88,61318,1,2
480,88,61529,1,2
480,88,61635,1,0
480,88,61741,1,2
480,88,61846,1,0
480,88,61952,1,2
480,88,62058,1,0
480,88,62163,1,2
480,88,62269,1,2
480,88,62374,1,2
480,88,62480,1,2
480,88,62586,1,0
480,88,62797,1,2
256,192,63008,5,0
256,192,63220,1,8
256,192,63431,1,0
256,192,63536,1,8
256,192,63748,1,0
256,192,63853,1,8
256,192,63959,1,8
256,192,64065,1,0
256,192,64276,1,0
256,192,64487,1,8
256,192,64698,1,0
256,192,64910,5,8
256,192,65015,1,8
256,192,65121,1,0
256,192,65227,1,0
256,192,65332,1,8
256,192,65438,1,8
256,192,65544,1,8
256,192,65649,1,0
256,192,65755,1,8
256,192,65860,1,0
256,192,65966,1,8
256,192,66072,1,0
256,192,66177,1,8
256,192,66283,1,0
256,192,66389,1,0
256,192,66600,1,8
256,192,66811,1,0
256,192,66917,1,8
256,192,67022,1,8
256,192,67128,1,8
256,192,67234,1,0
256,192,67339,1,0
256,192,67445,1,0
256,192,67551,1,0
256,192,67656,1,8
256,192,67762,1,8
256,192,67867,1,8
256,192,67973,1,8
256,192,68079,1,0
256,192,68290,1,8
256,192,68396,1,0
256,192,68501,1,8
256,192,68607,1,8
256,192,68713,1,0
256,192,68818,1,0
256,192,68924,1,8
256,192,69029,1,8
256,192,69135,1,0
256,192,69346,1,0
256,192,69558,1,8
256,192,69769,5,0
256,192,69981,1,8
256,192,70192,1,0
256,192,70297,1,8
256,192,70509,1,0
256,192,70614,1,8
256,192,70720,1,8
256,192,70826,1,0
256,192,71037,1,0
256,192,71248,1,8
256,192,71459,1,0
256,192,71671,5,8
256,192,71776,1,8
256,192,71882,1,0
256,192,71988,1,0
256,192,72093,1,8
256,192,72199,1,8
256,192,72305,1,8
256,192,72410,1,0
256,192,72516,1,8
256,192,72621,1,0
256,192,72727,1,8
256,192,72833,1,0
256,192,72938,1,8
256,192,73044,1,0
256,192,73150,1,0
256,192,73361,1,8
256,192,73572,1,0
256,192,73678,1,8
256,192,73783,1,8
256,192,73889,1,8
256,192,73995,1,0
256,192,74100,1,0
256,192,74206,1,0
256,192,74312,1,0
256,192,74417,1,8
256,192,74523,1,8
256,192,74628,1,8
256,192,74734,1,8
256,192,74840,1,0
256,192,75051,1,8
256,192,75157,5,0
256,192,75262,1,8
256,192,75368,1,8
256,192,75474,1,0
256,192,75579,1,0
256,192,75685,1,8
256,192,75790,1,8
256,192,75896,1,0
256,224,76107,1,8
256,224,76318,1,8
256,224,76529,1,4
256,224,76741,1,0
256,224,76846,1,0
256,224,76952,1,8
256,224,77163,1,0
256,224,77269,1,0
256,224,77480,1,0
256,224,77586,1,0
256,224,77797,1,8
256,224,78008,1,8
256,224,78114,1,8
256,224,78220,1,0
256,224,78431,1,0
256,224,78536,1,0
256,224,78642,1,8
256,224,78853,1,0
256,224,78959,1,0
256,224,79170,1,0
256,224,79276,1,0
256,224,79487,1,8
256,224,79698,1,8
256,224,79804,1,8
256,224,79910,1,0
256,224,80121,1,0
256,224,80227,1,0
256,224,80332,1,8
256,224,80544,1,0
256,224,80649,1,0
256,224,80860,1,0
256,224,80966,1,0
256,224,81177,1,8
256,224,81389,1,8
256,224,81494,1,8
256,224,81600,1,0
256,224,81811,1,0
256,224,81917,1,0
256,224,82022,1,8
256,224,82128,1,0
256,224,82234,1,0
256,224,82339,1,8
256,224,82445,1,0
256,224,82551,1,0
256,224,82656,1,8
256,224,82762,1,8
256,224,82867,1,0
256,224,83079,1,8
256,224,83290,1,0
256,224,83502,1,0
256,224,83607,1,0
256,224,83713,1,8
256,224,83924,1,0
256,224,84030,1,0
256,224,84241,1,0
256,224,84347,1,0
256,224,84558,1,8
256,224,84769,1,8
256,224,84875,1,8
256,224,84981,1,0
256,224,85192,1,0
256,224,85297,1,0
256,224,85403,1,8
256,224,85614,1,0
256,224,85720,1,0
256,224,85931,1,0
256,224,86037,1,0
256,224,86248,1,8
256,224,86459,1,8
256,224,86565,1,8
256,224,86671,1,0
256,224,86882,1,0
256,224,86988,1,0
256,224,87093,1,8
256,224,87305,1,0
256,224,87410,1,0
256,224,87621,1,0
256,224,87727,1,0
256,224,87938,1,8
256,224,88150,1,8
256,224,88255,1,8
256,224,88361,1,0
256,224,88572,1,0
256,224,88678,1,0
256,224,88783,1,8
256,224,88889,1,0
256,224,88995,1,0
256,224,89100,1,8
256,224,89206,1,0
256,224,89312,1,0
256,224,89417,1,8
256,224,89523,1,8
256,224,89628,1,0
256,224,89840,1,8
352,192,90051,5,4
347,108,90262,1,0
436,159,90473,1,8
421,244,90579,1,0
268,297,90790,1,0
120,248,90896,1,0
103,169,91001,1,0
139,120,91107,1,0
249,124,91318,1,8
249,244,91529,1,0
370,268,91741,1,0
380,72,91952,1,0
376,173,92058,1,0
452,170,92163,1,8
482,116,92269,1,0
352,133,92374,1,0
324,230,92480,1,0
280,262,92586,1,0
134,232,92691,1,0
110,185,92797,1,0
144,116,92903,1,0
264,135,93008,1,8
260,196,93114,1,0
196,232,93220,1,0
189,273,93325,1,0
356,252,93431,5,0
441,230,93642,1,0
308,112,93853,1,8
360,168,93959,1,0
324,230,94065,1,0
209,258,94170,1,0
106,148,94276,1,0
126,56,94382,1,0
263,52,94487,1,0
428,68,94593,1,0
409,249,94698,1,8
163,312,94804,1,0
58,263,94910,1,0
106,148,95015,1,0
242,100,95121,1,0
98,190,95332,1,0
207,170,95438,1,0
270,176,95544,1,8
310,265,95649,1,0
302,348,95755,1,0
433,324,95860,1,0
436,217,95966,1,0
429,144,96072,1,8
403,165,96177,1,0
301,106,96389,1,8
343,244,96600,1,0
240,215,96811,5,0
95,270,97022,1,0
66,120,97234,1,8
260,226,97339,1,0
167,127,97551,1,0
348,196,97656,1,0
275,298,97762,1,0
178,313,97867,1,0
372,160,98079,1,8
400,255,98290,1,0
426,148,98501,1,0
270,170,98713,1,0
90,240,98818,1,0
165,212,98924,1,8
302,168,99029,1,0
212,76,99135,1,0
347,52,99241,1,0
372,160,99346,1,0
197,239,99452,1,0
88,143,99558,1,0
250,147,99663,1,0
288,238,99769,1,8
330,200,99874,1,0
373,125,99980,1,0
150,80,100086,1,0
90,240,100191,1,0
275,316,100403,1,0
392,227,100614,1,8
456,129,100720,1,0
435,79,100825,1,0
259,95,100931,1,0
264,226,101036,1,0
172,238,101142,1,0
158,121,101248,1,0
243,74,101353,1,0
392,227,101459,1,8
384,150,101565,1,0
343,122,101670,1,0
192,256,101776,1,0
92,275,101882,1,0
153,145,102093,1,0
305,92,102198,1,0
360,269,102304,1,8
448,148,102410,1,0
459,82,102515,1,0
353,43,102621,1,0
326,232,102727,1,0
229,243,102832,1,8
360,269,102938,1,0
449,184,103044,1,0
487,152,103149,1,8
404,243,103360,1,4
362,196,103572,1,4
119,240,103783,5,0
81,101,103889,1,0
199,64,103994,1,8
229,243,104205,1,0
268,330,104311,1,0
406,200,104522,1,8
427,263,104628,1,0
399,166,104839,1,8
218,117,104945,1,8
184,229,105051,1,8
346,96,105262,1,0
252,277,105473,1,0
136,317,105579,1,0
32,162,105684,1,8
296,212,105790,1,0
353,220,105896,1,0
468,184,106107,1,0
473,122,106213,1,8
445,178,106318,1,0
352,184,106424,1,0
375,108,106529,1,8
384,232,106635,1,0
416,63,106741,1,8
159,190,106952,5,0
104,289,107163,1,0
234,328,107269,1,0
353,220,107374,1,8
260,93,107586,1,0
75,112,107691,1,0
106,249,107797,1,0
75,112,107903,1,8
257,196,108008,1,0
260,274,108114,1,0
307,116,108220,1,8
450,228,108325,1,0
361,306,108431,1,0
372,178,108536,1,8
432,138,108642,1,0
325,64,108853,5,0
61,172,108959,1,0
250,340,109065,1,8
171,75,109170,1,0
348,204,109276,1,0
93,305,109382,1,0
204,201,109487,1,0
204,201,109593,1,0
204,201,109698,1,0
204,201,109804,1,0
204,201,109910,1,8
204,201,110015,1,0
204,201,110121,1,8
33,170,110332,5,0
57,119,110544,1,0
84,69,110649,1,0
123,120,110755,1,8
156,165,110966,1,0
197,120,111072,1,0
231,72,111283,1,8
318,68,111389,1,8
357,113,111600,1,8
359,178,111705,1,0
404,64,111811,1,8
45,332,112022,1,0
74,279,112128,1,0
112,217,112234,1,0
154,276,112339,1,0
180,336,112445,1,8
296,337,112656,1,0
324,283,112762,1,0
357,219,112973,1,8
404,284,113079,1,0
448,341,113290,1,8
496,273,113396,1,8
507,218,113501,1,8
303,81,113713,1,4
332,124,113924,1,0
180,187,114029,1,0
263,204,114135,1,8
254,107,114346,1,0
141,119,114452,1,0
103,177,114558,1,0
188,286,114664,1,8
352,231,114769,1,0
418,156,114875,1,0
412,260,114981,1,8
448,279,115086,1,0
302,325,115192,1,0
180,187,115298,1,8
288,108,115403,1,0
412,260,115614,1,0
467,151,115720,1,8
475,76,115825,1,8
357,185,115931,1,0
302,86,116036,1,0
321,71,116142,1,8
418,156,116248,1,8
377,223,116353,1,0
224,195,116459,1,0
282,173,116565,1,8
370,160,116670,1,8
91,243,116811,1,0
129,292,116882,1,0
238,292,116952,1,0
433,228,117022,1,8
256,192,117093,5,0
256,192,117304,1,8
256,192,117515,1,0
256,192,117621,1,0
256,112,117727,1,8
256,112,117832,1,0
256,112,117938,1,0
256,112,118044,1,0
256,112,118149,1,8
256,288,118360,1,0
256,288,118572,1,8
344,280,118783,1,6
200,192,118994,1,0
200,192,119100,1,0
200,192,119205,1,8
200,192,119311,1,8
200,192,119417,1,0
200,192,119522,1,0
200,192,119628,1,8
200,192,119734,1,8
200,192,119839,1,0
200,192,119945,1,0
200,192,120051,1,8
200,192,120156,1,8
200,192,120262,1,0
200,192,120367,1,0
288,192,120473,1,10
288,192,120684,1,0
288,192,120790,1,0
288,192,120896,1,8
288,192,121001,1,0
288,192,121107,1,0
288,192,121213,1,0
288,192,121318,1,8
288,192,121424,1,0
288,192,121529,1,0
288,192,121635,1,8
288,192,121741,1,8
288,192,121846,1,0
288,192,121952,1,8
288,192,122058,1,8
256,192,122163,1,10
168,88,122374,1,4
264,256,122586,1,6
344,104,122797,1,4
264,256,123008,1,6
408,120,123220,1,4
264,256,123431,1,6
264,256,123642,1,6
264,256,123853,1,4
272,120,124065,1,0
272,120,124170,1,0
272,120,124276,1,8
272,120,124382,1,8
272,120,124487,1,0
272,120,124593,1,0
272,120,124698,1,8
272,120,124804,1,8
272,120,124910,1,8
272,120,125015,1,8
272,120,125121,1,8
272,120,125332,1,8
264,256,125544,1,6
272,120,125756,1,0
272,120,125861,1,0
272,120,125967,1,8
272,120,126073,1,8
272,120,126178,1,0
272,120,126284,1,0
272,120,126389,1,8
272,120,126495,1,8
272,120,126601,1,8
272,120,126706,1,8
272,120,126812,1,8
216,192,126917,1,0
272,120,127023,1,8
320,192,127128,1,0
256,288,127234,1,0
256,288,127339,1,0
264,192,127445,1,8
264,192,127656,1,0
240,208,127762,1,0
264,192,127867,1,8
200,232,127973,1,0
256,288,128079,1,0
256,288,128184,1,0
256,288,128290,1,8
256,288,128396,1,0
256,288,128501,1,8
264,192,128607,1,8
256,288,128713,1,0
248,56,128818,1,8
144,208,128924,1,8
264,192,129135,1,4
392,72,129346,1,6
264,192,129558,1,4
336,216,129769,1,6
264,192,129980,1,4
184,96,130191,1,6
264,192,130403,1,6
256,280,130614,5,4
328,280,130825,1,8
328,280,130931,1,8
328,280,131036,1,0
184,280,131248,1,8
184,280,131353,1,8
184,280,131459,1,0
184,280,131565,1,8
184,280,131670,1,8
184,280,131776,1,8
184,280,131882,1,0
184,280,131987,1,8
184,280,132093,1,8
184,280,132198,1,8
184,280,132304,1,0
256,192,132515,1,6
256,192,132727,1,8
256,192,132832,1,0
256,192,132938,1,8
256,192,133044,1,0
256,192,133149,1,8
256,192,133255,1,8
256,192,133360,1,0
256,192,133466,1,8
256,192,133572,1,8
256,192,133677,1,8
256,192,133783,1,0
256,192,133889,1,8
256,192,133994,1,0
256,120,134205,1,8
256,120,134311,1,8
256,120,134417,1,0
208,88,134628,1,8
208,88,134734,1,8
208,88,134839,1,0
208,88,134945,1,0
208,88,135051,1,8
208,88,135156,1,8
208,88,135262,1,0
296,88,135367,1,0
208,88,135473,1,8
208,88,135579,1,8
280,160,135684,1,0
176,216,135896,1,8
176,216,136001,1,8
176,216,136107,1,0
176,216,136213,1,8
176,216,136318,1,8
176,216,136424,1,0
176,216,136529,1,8
176,216,136635,1,8
288,232,136741,1,0
232,272,136846,1,8
384,176,136952,1,0
256,64,137163,1,4
256,280,137374,5,6
328,280,137585,1,8
328,280,137691,1,8
328,280,137796,1,0
184,280,138008,1,8
184,280,138113,1,8
184,280,138219,1,0
184,280,138325,1,8
184,280,138430,1,8
184,280,138536,1,8
184,280,138642,1,0
184,280,138748,1,8
184,280,138854,1,8
184,280,138959,1,8
184,280,139064,1,0
256,192,139275,1,6
256,192,139487,1,0
256,192,139592,1,0
256,192,139699,1,8
256,192,139805,1,8
256,192,139909,1,0
256,192,140016,1,8
256,192,140120,1,0
256,192,140227,1,8
256,192,140332,1,0
256,192,140438,1,8
256,192,140544,1,8
256,192,140649,1,8
256,192,140754,1,8
256,136,140966,1,0
256,136,141072,1,8
256,136,141177,1,8
304,192,141389,1,0
304,192,141494,1,8
304,192,141600,1,8
304,192,141705,1,8
304,192,141811,1,0
304,192,141917,1,8
256,248,142022,1,8
256,248,142128,1,0
256,248,142234,1,8
256,248,142339,1,8
256,248,142445,1,8
128,152,142656,1,8
128,152,142762,1,8
128,152,142867,1,0
128,152,142973,1,8
128,152,143079,1,8
128,152,143184,1,8
128,152,143290,1,0
128,152,143396,1,8
128,152,143501,1,8
128,152,143607,1,8
128,152,143713,1,0
128,152,143818,1,0
128,152,143924,1,8
128,152,144029,1,8
240,168,144135,5,0
256,184,144346,1,0
256,184,144558,1,8
256,184,144663,1,0
256,184,144874,1,0
256,184,144980,1,0
256,184,145086,1,0
256,184,145191,1,0
256,184,145403,1,8
256,184,145614,1,0
256,184,145825,1,0
256,184,146036,1,0
256,184,146142,1,0
256,184,146248,1,8
256,184,146353,1,0
256,184,146459,1,0
256,184,146565,1,0
256,184,146670,1,0
256,184,146776,1,0
256,184,146882,1,0
256,184,146987,1,0
256,184,147093,1,8
256,184,147198,1,0
256,184,147304,1,0
256,184,147410,1,0
256,184,147515,1,0
256,184,147727,1,0
256,184,147938,1,8
256,184,148044,1,0
256,184,148149,1,0
256,184,148255,1,0
256,184,148360,1,0
256,184,148466,1,0
256,184,148572,1,0
256,184,148677,1,0
256,184,148783,1,8
256,184,148889,1,0
256,184,148994,1,0
256,184,149100,1,0
256,184,149205,1,0
256,184,149417,1,0
256,184,149523,1,0
256,184,149628,1,8
256,184,149734,1,0
256,184,149840,1,0
256,184,149945,1,0
256,184,150051,1,0
256,184,150156,1,0
256,184,150262,1,8
256,184,150473,1,8
256,184,150685,1,0
256,184,150896,1,4
256,184,151107,1,0
256,184,151318,1,8
256,184,151424,1,0
256,184,151635,1,0
256,184,151741,1,0
256,184,151846,1,8
256,184,151952,1,8
256,184,152163,1,8
256,184,152375,1,8
256,184,152586,1,0
256,184,152797,1,0
256,184,152903,1,0
256,184,153009,1,8
256,184,153114,1,8
256,184,153220,1,0
256,184,153325,1,8
256,184,153431,1,0
256,184,153537,1,8
256,184,153642,1,8
256,184,153748,1,0
256,184,153854,1,8
256,184,153959,1,8
256,184,154065,1,8
256,184,154171,1,0
256,184,154276,1,0
256,184,154487,1,0
256,184,154699,1,8
256,184,154804,1,0
256,184,154910,1,0
256,184,155016,1,8
256,184,155121,1,0
256,184,155227,1,8
256,184,155332,1,0
256,184,155438,1,0
256,184,155544,1,8
256,184,155649,1,8
256,184,155755,1,0
256,184,155861,1,0
256,184,155966,1,0
256,184,156178,1,0
256,184,156283,1,0
256,184,156389,1,8
256,184,156494,1,8
256,184,156600,1,0
256,184,156706,1,0
256,184,156811,1,8
256,184,156917,1,0
256,184,157023,1,8
256,184,157234,1,8
256,184,157445,1,0
256,184,157656,1,4
256,184,157868,1,0
256,184,157973,1,0
256,184,158079,1,8
256,184,158290,1,0
256,184,158502,2,0,B|256:136,8,35
256,184,159558,1,0
256,184,159769,1,8
256,184,159875,1,0
256,184,159980,1,0
256,184,160192,1,0
256,184,160297,1,0
256,184,160403,1,0
256,184,160509,1,0
256,184,160614,1,8
256,184,160720,1,8
256,184,160825,1,8
256,184,160931,1,8
256,184,161037,1,0
256,184,161248,1,0
256,184,161354,1,0
256,184,161459,1,8
256,184,161671,1,0
256,184,161776,1,8
256,184,161882,1,8
256,184,161987,1,0
256,184,162093,1,0
256,184,162199,1,8
256,184,162304,1,8
256,184,162410,1,0
256,184,162516,1,0
256,184,162621,1,8
256,184,162727,1,0
256,184,162938,1,0
256,184,163149,1,8
256,184,163255,1,8
256,184,163361,1,0
256,184,163572,2,0,B|256:128,8,35
256,184,164628,1,0
256,184,164734,1,0
256,184,164840,1,8
256,184,165051,1,0
256,184,165156,1,0
256,184,165262,1,0
256,184,165368,1,0
256,184,165473,1,0
256,184,165579,1,0
256,184,165685,1,8
256,184,165790,1,8
256,184,165896,1,8
256,184,166002,1,8
256,184,166107,1,0
256,184,166318,1,0
256,184,166530,1,8
256,184,166635,1,8
256,184,166741,1,0
256,184,166847,1,8
256,184,166952,1,8
256,184,167058,1,0
256,184,167163,1,8
256,184,167269,1,8
256,184,167375,1,0
256,184,167480,1,0
256,184,167586,1,0
256,184,167692,1,0
256,184,167797,1,8
256,184,168009,1,0
256,184,168114,1,0
256,184,168220,1,8
256,184,168431,1,0
256,184,168502,1,0
256,184,168572,1,0
256,184,168642,1,8
256,184,168748,1,0
256,184,168854,1,0
256,184,168959,1,0
256,184,169065,1,8
256,184,169171,1,8
256,184,169276,1,0
256,184,169382,1,0
256,184,169487,1,0
256,184,169699,1,8
256,184,169910,1,8
256,184,170016,1,8
256,184,170121,1,0
256,184,170227,1,0
256,184,170332,1,8
256,184,170438,1,8
256,184,170544,1,8
256,184,170649,1,8
256,184,170755,1,0
256,184,170966,1,0
256,184,171178,1,12
256,184,171389,5,4
256,184,171600,5,8
256,184,171706,5,0
256,184,171917,1,0
256,184,172023,1,0
256,184,172128,1,0
256,184,172234,5,8
256,184,172340,5,0
256,184,172445,5,8
256,184,172656,1,8
256,184,172868,1,8
256,184,173079,5,0
256,184,173185,1,0
256,184,173290,5,8
256,184,173396,5,0
256,184,173502,1,0
256,184,173607,5,8
256,184,173713,1,8
256,184,173818,5,0
256,184,173924,5,8
256,184,174030,5,0
256,184,174135,5,8
256,184,174241,1,8
256,184,174347,5,0
256,184,174452,1,0
256,184,174558,5,8
256,184,174769,1,8
256,184,174980,1,8
256,184,175086,5,0
256,184,175192,1,0
256,184,175297,1,0
256,184,175403,1,0
256,184,175509,1,0
256,184,175614,5,8
256,184,175720,5,0
256,184,175825,5,8
256,184,175931,1,8
256,184,176037,1,8
256,184,176142,5,0
256,184,176248,5,8
256,184,176459,5,0
256,184,176565,1,0
256,184,176671,5,8
256,184,176776,5,0
256,184,176882,1,0
256,184,177093,1,4
256,184,177304,5,12
256,184,177516,5,0
256,184,177727,5,8
256,184,177938,1,12
256,184,178149,1,12
256,184,178361,1,8
256,184,178466,5,0
256,184,178678,1,0
256,184,178783,5,8
256,184,178889,5,0
256,184,178994,1,0
256,184,179100,1,0
256,184,179206,5,8
256,184,179417,1,8
256,184,179628,1,8
256,184,179734,1,8
256,184,179840,5,0
256,184,179945,1,0
256,184,180051,5,8
256,184,180156,5,0
256,184,180262,5,8
256,184,180368,1,8
256,184,180473,5,0
256,184,180579,5,8
256,184,180685,5,0
256,184,180790,1,0
256,184,180896,5,8
256,184,181002,5,0
256,184,181107,5,8
256,184,181318,1,12
256,184,181530,1,12
256,184,181741,1,8
256,184,181847,5,0
256,184,181952,1,0
256,184,182058,1,0
256,184,182163,1,0
256,184,182269,1,0
256,184,182375,5,8
256,184,182480,5,0
256,184,182586,5,8
256,184,182692,5,0
256,184,182797,5,8
256,184,182903,1,8
256,184,183009,5,0
256,184,183220,1,0
256,184,183325,1,0
256,184,183431,5,8
256,184,183537,1,8
256,184,183642,5,0
256,184,183854,1,4
256,184,184065,5,12
256,184,184276,5,0
256,184,184487,1,0
256,184,184699,5,12
256,184,184910,5,0
256,184,185016,1,0
256,184,185121,5,8
256,184,185332,5,0
256,184,185438,1,0
256,184,185544,5,8
256,184,185649,1,8
256,184,185755,5,0
256,184,185861,1,0
256,184,185966,5,8
256,184,186072,5,0
256,184,186178,5,8
256,184,186389,5,4
256,184,186600,1,4
256,184,186811,5,8
256,184,186917,5,0
256,184,187023,1,0
256,184,187128,1,0
256,184,187234,5,8
256,184,187340,1,8
256,184,187445,5,0
256,184,187551,1,0
256,184,187656,5,8
256,184,187762,5,0
256,184,187868,1,0
256,184,188079,5,12
256,184,188290,5,0
256,184,188396,1,0
256,184,188502,5,8
256,184,188713,1,8
256,184,188818,1,8
256,184,188924,5,0
256,184,189030,1,0
256,184,189135,5,8
256,184,189241,5,0
256,184,189347,5,8
256,184,189452,5,0
256,184,189558,1,0
256,184,189663,1,0
256,184,189769,5,8
256,184,189980,5,0
256,184,190086,1,0
256,184,190192,5,8
256,184,190297,1,8
256,184,190403,5,0
256,184,190509,1,0
256,184,190614,5,8
256,184,190720,5,0
256,184,190825,5,8
256,184,190931,5,0
256,184,191037,5,8
256,184,191248,5,0
256,184,191459,5,12
256,184,191670,1,8
256,184,191776,1,8
256,184,191882,5,0
256,184,192093,1,0
256,184,192198,1,0
256,184,192304,5,8
256,184,192410,5,0
256,184,192515,5,8
256,184,192621,5,0
256,184,192727,5,8
256,184,192832,1,8
256,184,192938,1,8
256,184,193149,5,4
256,184,193360,1,4
256,184,193572,1,0
256,184,193677,1,0
256,184,193783,5,8
256,184,193889,5,0
256,184,193994,5,8
256,184,194100,1,8
256,184,194205,5,0
256,184,194311,1,0
256,184,194417,5,8
256,184,194522,5,0
256,184,194628,5,8
256,184,194839,1,12
256,184,195051,5,0
256,184,195156,1,0
256,184,195262,5,8
256,184,195473,5,0
256,184,195579,1,0
256,184,195684,5,8
256,184,195790,5,0
256,184,195896,5,8
256,184,196001,1,8
256,184,196107,5,0
256,184,196213,1,0
256,184,196318,5,8
256,184,196529,5,4
256,184,196741,1,0
256,184,196846,1,0
256,184,196952,5,8
256,184,197058,5,0
256,184,197163,5,8
256,184,197269,1,8
256,184,197374,5,0
256,184,197480,5,8
256,184,197586,1,8
256,184,197691,1,8
256,184,197797,5,0
256,184,198008,5,8
256,184,198220,1,12
256,184,198431,1,8
256,184,198536,1,8
256,184,198642,5,0
256,184,198853,5,8
256,184,198959,5,0
256,184,199065,1,0
256,184,199170,5,8
256,184,199276,5,0
256,184,199487,5,8
256,184,199593,1,8
256,184,199698,5,0
256,184,199804,5,8
256,184,199910,1,8
256,184,200121,1,8
256,184,200227,5,0
256,184,200332,5,8
256,184,200438,5,0
256,184,200544,1,0
256,184,200649,5,8
256,184,200755,5,0
256,184,200860,5,8
256,184,200966,1,8
256,184,201072,5,0
256,184,201177,5,8
256,184,201283,5,0
256,184,201389,5,8
256,184,201494,5,0
256,184,201600,1,0
256,184,201811,5,8
256,184,201916,1,8
256,184,202022,1,8
256,184,202233,1,8
256,184,202339,5,0
256,184,202445,1,0
256,184,202550,5,8
256,184,202656,5,0
256,184,202762,1,0
256,184,202867,5,8
256,184,202973,1,8
256,184,203078,5,0
256,184,203184,5,8
256,184,203290,1,8
256,184,203501,1,8
256,184,203607,5,0
256,184,203712,5,8
256,184,203818,5,0
256,184,203924,1,0
256,184,204029,5,8
256,184,204135,5,0
256,184,204240,5,8
256,184,204346,1,8
256,184,204452,5,0
256,184,204557,5,8
256,184,204663,5,0
256,184,204769,5,8
256,184,204874,5,0
256,184,204980,1,0
256,184,205191,5,8
256,184,205297,1,8
256,184,205403,5,0
256,184,205508,5,8
256,184,205614,1,8
256,184,205720,5,0
256,184,205825,5,8
256,184,205931,5,0
256,184,206036,1,0
256,184,206142,1,0
256,184,206248,5,8
256,184,206459,1,8
256,184,206670,1,8
256,184,206882,1,8
256,184,206987,5,0
256,184,207093,1,0
256,184,207198,5,8
256,184,207304,5,0
256,184,207410,1,0
256,184,207515,5,8
256,184,207621,1,8
256,184,207727,5,0
256,184,207832,5,8
256,184,207938,1,8
256,184,208044,5,0
256,184,208149,5,8
256,184,208255,5,0
256,184,208360,1,0
256,184,208572,5,8
256,184,208678,1,8
256,184,208784,5,0
256,184,208889,5,8
256,184,208995,1,8
256,184,209101,5,0
256,184,209206,5,8
256,184,209312,5,0
256,184,209417,1,0
256,184,209523,1,0
256,184,209629,5,8
256,184,209840,1,8
256,184,210051,1,8
256,184,210263,1,8
256,184,210368,5,0
256,184,210474,1,0
256,184,210579,5,8
256,184,210685,5,0
256,184,210791,1,0
256,184,210896,5,8
256,184,211002,1,8
256,184,211108,5,0
256,184,211213,5,8
256,184,211319,1,8
256,184,211425,5,0
256,184,211530,5,8
256,184,211636,5,0
256,184,211741,1,0
