osu file format v9

[General]
AudioFilename: Nyanyanyanyanyanyanya!.mp3
AudioLeadIn: 0
PreviewTime: 8681
Countdown: 0
SampleSet: Normal
StackLeniency: 0.7
Mode: 0
LetterboxInBreaks: 1

[Editor]
Bookmarks: 8924,22445,35966,49487,63008,76529
DistanceSpacing: 1.5
BeatDivisor: 4
GridSize: 8

[Metadata]
Title:Nyanyanyanyanyanyanya!
Artist:daniwellP
Creator:theowest
Version:Easy
Source:Nico Nico Douga
Tags:MomoneMomo UTAU Nyan Pop Tart Cat Neko 8-bit LOL-COMICS OzzyOzrock wmfchris MMzz Hyguys Roley Sander-Don OnosakiHito arien666 Lilac Lanttu Sallad4ever Fight69 _LRJ_ Crimmi galvenize Blue_Dragon

[Difficulty]
HPDrainRate:1
CircleSize:3
OverallDifficulty:1
ApproachRate:2
SliderMultiplier:0.7
SliderTickRate:1

[Events]
//Background and Video events
0,0,"BG.png"
//Break Periods
//Storyboard Layer 0 (Background)
Sprite,Background,Centre,"BG.png",320,240 F,0,0,,0
Sprite,Background,Centre,"SB\back.jpg",320,240 F,0,19,8892,0,1 F,0,78188,,1
Animation,Background,Centre,"SB\arc-.png",320,240,4,172,LoopForever M,0,8892,,118,248 M,0,78188,,118,248
Animation,Background,Centre,"SB\ex-.png",320,240,6,350,LoopForever L,0,20 M,0,8892,12272,647,60,-27,60 F,0,77000,78188,1,0
Animation,Background,Centre,"SB\ex-.png",320,240,6,350,LoopForever L,0,20 M,0,9314,12695,677,441,-35,441 F,0,77000,78188,1,0
Animation,Background,Centre,"SB\ex-.png",320,240,6,350,LoopForever L,0,21 M,0,9737,12695,670,331,-36,331 F,0,77000,78188,1,0
Animation,Background,Centre,"SB\ex-.png",320,240,6,350,LoopForever L,0,22 M,0,10159,13117,700,225,-41,225 F,0,77000,78188,1,0
Animation,Background,Centre,"SB\ex-.png",320,240,6,350,LoopForever L,0,22 M,0,11427,14385,669,344,-41,344 F,0,77000,78188,1,0
Animation,Background,Centre,"SB\ex-.png",320,240,6,350,LoopForever L,0,18 M,0,10582,14385,684,126,-34,126 F,0,77000,78188,1,0
//Storyboard Layer 1 (Fail)
//Storyboard Layer 2 (Pass)
//Storyboard Layer 3 (Foreground)
Animation,Foreground,Centre,"SB\cat-.png",320,240,6,101,LoopForever M,0,8892,,317,249 F,0,8892,,1 M,0,78188,,317,249
Sprite,Foreground,Centre,"SB\white.jpg",320,240 F,0,8786,8892,0,1 M,0,8892,,320,240 F,0,8892,9103,1,0
Sprite,Foreground,Centre,"SB\white.jpg",320,240 F,0,76497,78188,0.01183432,1 C,0,78188,,0,0,0
Sprite,Foreground,Centre,"SB\names\Storyboard Created by Astom.png",320,240 F,0,78220,79910,0,1 F,0,79910,81600,1 F,0,81600,83290,1,0 S,0,215121,,0.4192172
//Storyboard Sound Samples
//Background Colour Transformations
3,100,0,0,0

[TimingPoints]
5544,422.535211267606,4,2,0,50,1,0
6389,-100,4,1,0,50,0,0
6494,-100,4,2,0,70,0,0
7128,-100,4,1,0,50,0,0
7339,-100,4,2,0,70,0,0
7973,-100,4,1,0,50,0,0
8290,-100,4,2,0,70,0,0
8924,-100,4,1,0,80,0,0
9135,-100,4,2,0,80,0,0
9346,-100,4,1,0,80,0,0
9452,-100,4,2,0,80,0,0
9663,-100,4,2,0,80,0,0
9769,-100,4,1,0,80,0,0
9874,-100,4,2,0,80,0,0
10191,-100,4,1,0,80,0,0
10403,-100,4,2,0,80,0,0
10614,-100,4,1,0,80,0,0
10825,-100,4,2,0,80,0,0
11036,-100,4,1,0,80,0,0
11142,-100,4,2,0,80,0,0
11459,-100,4,1,0,80,0,0
11670,-100,4,2,0,80,0,0
11882,-100,4,1,0,80,0,0
12093,-100,4,2,0,80,0,0
12304,-100,4,1,0,80,0,0
12515,-100,4,2,0,80,0,0
12727,-100,4,1,0,80,0,0
12832,-100,4,2,0,80,0,0
13149,-100,4,1,0,80,0,0
13255,-100,4,2,0,80,0,0
13572,-100,4,1,0,80,0,0
13783,-100,4,2,0,80,0,0
13994,-100,4,1,0,80,0,0
14205,-100,4,2,0,80,0,0
14417,-100,4,1,0,80,0,0
14522,-100,4,2,0,80,0,0
14839,-100,4,1,0,80,0,0
15051,-100,4,2,0,80,0,0
15262,-100,4,1,0,80,0,0
15473,-100,4,2,0,80,0,0
15684,-100,4,1,0,80,0,0
15896,-100,4,2,0,80,0,0
16001,-100,4,1,0,80,0,0
16213,-100,4,2,0,80,0,0
16529,-100,4,1,0,80,0,0
16635,-100,4,2,0,80,0,0
16952,-100,4,1,0,80,0,0
17163,-100,4,2,0,80,0,0
17374,-100,4,1,0,80,0,0
17586,-100,4,2,0,80,0,0
17797,-100,4,1,0,80,0,0
17903,-100,4,2,0,80,0,0
18220,-100,4,1,0,80,0,0
18431,-100,4,2,0,80,0,0
18642,-100,4,1,0,80,0,0
18748,-100,4,2,0,80,0,0
18853,-100,4,2,0,80,0,0
19065,-100,4,1,0,80,0,0
19276,-100,4,2,0,80,0,0
19382,-100,4,1,0,80,0,0
19593,-100,4,2,0,80,0,0
19910,-100,4,1,0,80,0,0
20015,-100,4,2,0,80,0,0
20332,-100,4,1,0,80,0,0
20544,-100,4,2,0,80,0,0
20755,-100,4,1,0,80,0,0
20966,-100,4,2,0,80,0,0
21177,-100,4,1,0,80,0,0
21283,-100,4,2,0,80,0,0
21600,-100,4,1,0,80,0,0
21811,-100,4,2,0,80,0,0
22022,-100,4,1,0,80,0,0
22234,-100,4,2,0,80,0,0
22445,-100,4,1,0,80,0,0
22656,-100,4,2,0,80,0,0
22867,-100,4,1,0,80,0,0
23079,-100,4,2,0,80,0,0
23290,-100,4,1,0,80,0,0
23396,-100,4,2,0,80,0,0
23713,-100,4,1,0,80,0,0
23818,-100,4,2,0,80,0,0
24135,-100,4,1,0,80,0,0
24346,-100,4,2,0,80,0,0
24558,-100,4,1,0,80,0,0
24663,-100,4,2,0,80,0,0
24980,-100,4,2,0,80,0,0
25086,-100,4,1,0,80,0,0
25191,-100,4,2,0,80,0,0
25403,-100,4,1,0,80,0,0
25614,-100,4,2,0,80,0,0
25825,-100,4,1,0,80,0,0
26036,-100,4,2,0,80,0,0
26248,-100,4,1,0,80,0,0
26459,-100,4,2,0,80,0,0
26670,-100,4,1,0,80,0,0
26776,-100,4,2,0,80,0,0
27093,-100,4,1,0,80,0,0
27304,-100,4,2,0,80,0,0
27515,-100,4,1,0,80,0,0
27727,-100,4,2,0,80,0,0
27938,-100,4,1,0,80,0,0
28044,-100,4,2,0,80,0,0
28360,-100,4,1,0,80,0,0
28572,-100,4,2,0,80,0,0
28572,-100,4,2,0,80,0,0
28783,-100,4,1,0,80,0,0
28994,-100,4,2,0,80,0,0
29205,-100,4,1,0,80,0,0
29417,-100,4,2,0,80,0,0
29628,-100,4,1,0,80,0,0
29839,-100,4,2,0,80,0,0
30051,-100,4,1,0,80,0,0
30156,-100,4,2,0,80,0,0
30473,-100,4,1,0,80,0,0
30684,-100,4,2,0,80,0,0
30896,-100,4,1,0,80,0,0
31107,-100,4,2,0,80,0,0
31213,-100,4,1,0,80,0,0
31424,-100,4,2,0,80,0,0
31741,-100,4,1,0,80,0,0
31846,-100,4,1,0,80,0,0
31952,-100,4,2,0,80,0,0
32163,-100,4,1,0,80,0,0
32269,-100,4,2,0,80,0,0
32586,-100,4,1,0,80,0,0
32797,-100,4,2,0,80,0,0
33008,-100,4,1,0,80,0,0
33220,-100,4,2,0,80,0,0
33431,-100,4,1,0,80,0,0
33536,-100,4,2,0,80,0,0
33853,-100,4,1,0,80,0,0
33959,-100,4,2,0,80,0,0
34276,-100,4,1,0,80,0,0
34487,-100,4,2,0,80,0,0
34698,-100,4,1,0,80,0,0
34804,-100,4,2,0,80,0,0
35121,-100,4,1,0,80,0,0
35332,-100,4,2,0,80,0,0
35544,-100,4,1,0,80,0,0
35755,-100,4,2,0,80,0,0
35860,-100,4,2,0,80,0,0
35966,-100,4,1,0,80,0,0
36177,-100,4,2,0,80,0,0
36389,-100,4,1,0,80,0,0
36494,-100,4,2,0,80,0,0
36811,-100,4,1,0,80,0,0
36917,-100,4,2,0,80,0,0
37234,-100,4,1,0,80,0,0
37445,-100,4,2,0,80,0,0
37656,-100,4,1,0,80,0,0
37867,-100,4,2,0,80,0,0
38079,-100,4,1,0,80,0,0
38184,-100,4,2,0,80,0,0
38501,-100,4,1,0,80,0,0
38713,-100,4,2,0,80,0,0
38924,-100,4,1,0,80,0,0
39135,-100,4,2,0,80,0,0
39346,-100,4,1,0,80,0,0
39558,-100,4,2,0,80,0,0
39769,-100,4,1,0,80,0,0
39874,-100,4,2,0,80,0,0
40191,-100,4,1,0,80,0,0
40297,-100,4,2,0,80,0,0
40614,-100,4,1,0,80,0,0
40720,-100,4,2,0,80,0,0
41036,-100,4,1,0,80,0,0
41248,-100,4,2,0,80,0,0
41459,-100,4,1,0,80,0,0
41670,-100,4,2,0,80,0,0
41882,-100,4,1,0,80,0,0
42093,-100,4,2,0,80,0,0
42304,-100,4,1,0,80,0,0
42515,-100,4,2,0,80,0,0
42727,-100,4,1,0,80,0,0
42938,-100,4,2,0,80,0,0
43149,-100,4,1,0,80,0,0
43255,-100,4,2,0,80,0,0
43572,-100,4,1,0,80,0,0
43677,-100,4,2,0,80,0,0
43994,-100,4,1,0,80,0,0
44205,-100,4,2,0,80,0,0
44417,-100,4,1,0,80,0,0
44628,-100,4,2,0,80,0,0
44839,-100,4,1,0,80,0,0
44945,-100,4,2,0,80,0,0
45262,-100,4,1,0,80,0,0
45473,-100,4,2,0,80,0,0
45684,-100,4,1,0,80,0,0
45896,-100,4,2,0,80,0,0
46107,-100,4,1,0,80,0,0
46318,-100,4,2,0,80,0,0
46529,-100,4,1,0,80,0,0
46635,-100,4,2,0,80,0,0
46952,-100,4,1,0,80,0,0
47058,-100,4,2,0,80,0,0
47374,-100,4,1,0,80,0,0
47480,-100,4,2,0,80,0,0
47797,-100,4,1,0,80,0,0
48008,-100,4,2,0,80,0,0
48220,-100,4,1,0,80,0,0
48325,-100,4,2,0,80,0,0
48642,-100,4,1,0,80,0,0
48853,-100,4,2,0,80,0,0
49065,-100,4,1,0,80,0,0
49276,-100,4,2,0,80,0,0
49487,-100,4,1,0,80,0,0
49698,-100,4,2,0,80,0,0
49910,-100,4,1,0,80,0,0
50121,-100,4,2,0,80,0,0
50332,-100,4,1,0,80,0,0
50438,-100,4,2,0,80,0,0
50755,-100,4,1,0,80,0,0
50966,-100,4,2,0,80,0,0
51177,-100,4,1,0,80,0,0
51389,-100,4,2,0,80,0,0
51600,-100,4,1,0,80,0,0
51705,-100,4,2,0,80,0,0
52022,-100,4,1,0,80,0,0
52234,-100,4,2,0,80,0,0
52445,-100,4,1,0,80,0,0
52656,-100,4,2,0,80,0,0
52867,-100,4,1,0,80,0,0
53079,-100,4,2,0,80,0,0
53290,-100,4,1,0,80,0,0
53501,-100,4,2,0,80,0,0
53713,-100,4,1,0,80,0,0
53818,-100,4,2,0,80,0,0
54135,-100,4,1,0,80,0,0
54346,-100,4,2,0,80,0,0
54558,-100,4,1,0,80,0,0
54769,-100,4,2,0,80,0,0
54980,-100,4,1,0,80,0,0
55086,-100,4,2,0,80,0,0
55403,-100,4,1,0,80,0,0
55614,-100,4,2,0,80,0,0
55825,-100,4,1,0,80,0,0
56036,-100,4,2,0,80,0,0
56248,-100,4,1,0,80,0,0
56459,-100,4,2,0,80,0,0
56670,-100,4,1,0,80,0,0
56882,-100,4,2,0,80,0,0
57093,-100,4,1,0,80,0,0
57198,-100,4,2,0,80,0,0
57515,-100,4,1,0,80,0,0
57621,-100,4,2,0,80,0,0
57938,-100,4,1,0,80,0,0
58149,-100,4,2,0,80,0,0
58360,-100,4,1,0,80,0,0
58466,-100,4,2,0,80,0,0
58783,-100,4,1,0,80,0,0
58994,-100,4,2,0,80,0,0
59205,-100,4,1,0,80,0,0
59417,-100,4,2,0,80,0,0
59628,-100,4,1,0,80,0,0
59839,-100,4,2,0,80,0,0
60051,-100,4,1,0,80,0,0
60262,-100,4,2,0,80,0,0
60473,-100,4,1,0,80,0,0
60579,-100,4,2,0,80,0,0
60896,-100,4,1,0,80,0,0
61107,-100,4,2,0,80,0,0
61318,-100,4,1,0,80,0,0
61529,-100,4,2,0,80,0,0
61741,-100,4,1,0,80,0,0
61846,-100,4,2,0,80,0,0
62163,-100,4,1,0,80,0,0
62374,-100,4,2,0,80,0,0
62586,-100,4,1,0,80,0,0
62797,-100,4,2,0,80,0,0
62903,-100,4,2,0,80,0,0
63008,-100,4,1,0,80,0,0
63220,-100,4,2,0,80,0,0
63431,-100,4,1,0,80,0,0
63536,-100,4,2,0,80,0,0
63853,-100,4,1,0,80,0,0
63959,-100,4,2,0,80,0,0
64276,-100,4,1,0,80,0,0
64487,-100,4,2,0,80,0,0
64698,-100,4,1,0,80,0,0
64910,-100,4,2,0,80,0,0
65121,-100,4,1,0,80,0,0
65227,-100,4,2,0,80,0,0
65544,-100,4,1,0,80,0,0
65755,-100,4,2,0,80,0,0
65966,-100,4,1,0,80,0,0
66177,-100,4,2,0,80,0,0
66389,-100,4,1,0,80,0,0
66600,-100,4,2,0,80,0,0
66811,-100,4,1,0,80,0,0
66917,-100,4,2,0,80,0,0
67234,-100,4,1,0,80,0,0
67445,-100,4,2,0,80,0,0
67656,-100,4,1,0,80,0,0
67867,-100,4,2,0,80,0,0
68079,-100,4,1,0,80,0,0
68290,-100,4,2,0,80,0,0
68501,-100,4,1,0,80,0,0
68607,-100,4,2,0,80,0,0
68924,-100,4,1,0,80,0,0
69135,-100,4,2,0,80,0,0
69346,-100,4,1,0,80,0,0
69558,-100,4,2,0,80,0,0
69769,-100,4,1,0,80,0,0
69980,-100,4,2,0,80,0,0
70191,-100,4,1,0,80,0,0
70297,-100,4,2,0,80,0,0
70614,-100,4,1,0,80,0,0
70720,-100,4,2,0,80,0,0
71036,-100,4,1,0,80,0,0
71248,-100,4,2,0,80,0,0
71459,-100,4,1,0,80,0,0
71670,-100,4,2,0,80,0,0
71882,-100,4,1,0,80,0,0
71987,-100,4,2,0,80,0,0
72304,-100,4,1,0,80,0,0
72515,-100,4,2,0,80,0,0
72727,-100,4,1,0,80,0,0
72938,-100,4,2,0,80,0,0
73149,-100,4,1,0,80,0,0
73360,-100,4,2,0,80,0,0
73572,-100,4,1,0,80,0,0
73677,-100,4,2,0,80,0,0
73994,-100,4,1,0,80,0,0
74100,-100,4,2,0,80,0,0
74417,-100,4,1,0,80,0,0
74628,-100,4,2,0,80,0,0
74839,-100,4,1,0,80,0,0
75051,-100,4,2,0,80,0,0
75262,-100,4,1,0,80,0,0
75367,-100,4,2,0,80,0,0
75684,-100,4,1,0,80,0,0
75896,-100,4,2,0,80,0,0
76107,-100,4,1,0,80,0,0
76318,-100,4,2,0,80,0,0
76529,-100,4,1,0,80,0,0

[Colours]
Combo1 : 102,51,255
Combo2 : 255,0,0
Combo3 : 255,153,0
Combo4 : 255,255,0
Combo5 : 51,255,0
Combo6 : 0,153,255

[HitObjects]
48,96,5543,1,8
160,176,6389,2,0,B|224:144|336:176,1,140
416,96,8079,1,0
384,184,8501,1,8
464,232,8924,6,0,B|384:264|400:376,1,140,4|0
296,312,10191,2,0,B|318:212|232:152,1,140,8|8
368,32,11882,1,8
272,80,12304,6,0,B|351:163|486:145,1,210,0|8
480,256,13994,1,0
288,320,14839,2,0,B|368:336,1,70,0|8
320,240,15684,6,0,B|208:170|288:16,1,210,0|8
352,112,17374,1,0
144,144,18220,2,0,B|64:128,1,70,0|8
112,232,19065,6,0,B|160:360|336:328,1,210,0|8
256,232,20755,1,0
176,40,21600,2,0,B|256:56,1,70,0|8
288,152,22445,6,0,B|153:96|80:232,1,210,4|8
72,296,24135,2,0,B|200:248|312:376,1,210,0|8
264,232,25825,6,0,B|216:120|328:24,1,210,0|8
336,144,27515,2,0,B|464:152|496:320,1,210,0|8
376,272,29205,6,0,B|296:368|152:304,1,210,0|8
80,320,30896,2,0,B|168:216|48:88,1,210,0|8
144,40,32586,6,0,B|192:152|328:120,1,210,0|8
256,40,34276,1,0
368,216,35121,2,0,B|288:232,1,70,0|8
272,328,35966,6,0,B|208:280|112:312,1,140,4|0
80,216,37234,2,0,B|104:144|64:80,1,140,8|8
248,184,38924,1,8
336,240,39346,6,0,B|368:168|488:184,1,140
424,280,40614,1,8
336,344,41036,2,0,B|240:336|224:224,1,140
88,104,42727,6,0,B|174:108|215:39,1,140
280,120,43994,1,8
456,232,44839,2,0,B|384:216,1,70,8|0
424,312,45684,1,8
328,352,46107,6,0,B|360:232|224:184,1,210,0|8
136,224,47797,2,0,B|264:240|296:120,1,210,0|8
192,128,49487,5,4
256,48,49910,2,0,B|296:120|392:112,1,140,8|8
480,104,51177,1,0
416,304,52022,6,0,B|336:280|272:344,1,140
232,240,53290,1,8
152,312,53713,2,0,B|80:328,1,70,0|8
80,224,54558,2,0,B|160:120|32:24,1,210,0|8
160,32,56248,6,0,B|192:112|272:104,1,140
360,56,57515,1,8
400,152,57938,2,0,B|312:120|240:208,1,140
328,264,59205,1,8
408,328,59628,6,0,B|472:200|320:136,1,210,0|8
392,56,61318,2,0,B|336:168|184:136,1,210,0|8
128,80,63008,6,0,B|112:152,1,70,4|8
176,232,63853,2,0,B|160:304,2,70,0|8|0
280,264,65121,2,0,B|360:248|376:136,1,140,8|8
376,64,66389,6,0,B|296:48,1,70,0|8
232,128,67234,2,0,B|320:144,1,70,0|8
160,296,68501,1,8
72,232,68924,2,0,B|104:152|8:96,1,140
120,64,70191,5,8
200,136,70614,2,0,B|280:152,1,70,0|8
360,96,71459,2,0,B|344:224|488:272,1,210,0|8
384,336,73149,6,0,B|312:320,1,70,0|8
208,328,73994,2,0,B|152:264|48:288,1,140
56,176,75262,2,0,B|112:224|232:184,1,140,8|8
256,120,76529,1,4
