osu file format v12

[General]
AudioFilename: daniwellP - Metamoru .mp3
AudioLeadIn: 2000
PreviewTime: 11263
Countdown: 0
SampleSet: Soft
StackLeniency: 0.7
Mode: 0
LetterboxInBreaks: 0

[Editor]
Bookmarks: 11352,33940,39587,56528,79116
DistanceSpacing: 1.2
BeatDivisor: 4
GridSize: 4

[Metadata]
Title:Metamoru
TitleUnicode:めたもる
Artist:daniwellP
ArtistUnicode:daniwellP
Creator:popner
Version:Insane
Source:
Tags:Vocaloid Vocaloid2 Hatsune Miku
BeatmapID:193532
BeatmapSetID:66303

[Difficulty]
HPDrainRate:6
CircleSize:4
OverallDifficulty:7
ApproachRate:8
SliderMultiplier:1.8
SliderTickRate:1

[Events]
//Background and Video events
0,0,"BG.jpg",0,0
//Break Periods
2,34139,38837
//Storyboard Layer 0 (Background)
//Storyboard Layer 1 (Fail)
//Storyboard Layer 2 (Pass)
//Storyboard Layer 3 (Foreground)
//Storyboard Sound Samples
Sample,41352,0,"soft-hitclap.wav",65
//Background Colour Transformations
3,100,163,162,255

[TimingPoints]
58,352.941176470588,4,2,1,60,1,0
4822,-100,4,2,1,45,0,0
4999,-100,4,2,1,50,0,0
5175,-100,4,2,1,45,0,0
5352,-100,4,2,1,50,0,0
5528,-100,4,2,1,55,0,0
5705,-100,4,2,1,65,0,0
11352,-100,4,2,1,70,0,0
39587,-100,4,2,1,65,0,0
45234,-133.333333333333,4,2,1,55,0,0
50881,-100,4,2,1,65,0,0
56528,-100,4,2,1,70,0,0
79293,-100,4,2,1,50,0,0
79469,-100,4,2,1,40,0,0
79646,-100,4,2,1,30,0,0
79999,-100,4,2,1,20,0,0
80705,-100,4,2,1,10,0,0

[Colours]
Combo1 : 0,177,244
Combo2 : 208,0,244
Combo3 : 159,244,0

[HitObjects]
256,192,58,1,2,0:0:0:0:
324,287,587,2,0,P|340:242|372:214,1,90,0|2,0:0|0:0,0:0:0:0:
372,215,1293,2,0,P|352:172|355:130,1,90,0|2,0:0|0:0,0:0:0:0:
355,131,1999,2,0,P|312:116|284:83,1,90,0|2,0:0|0:0,0:0:0:0:
285,83,2705,2,0,P|242:102|200:99,1,90,0|2,0:0|0:0,0:0:0:0:
200,100,3410,2,0,P|184:144|151:172,1,90,0|2,0:0|0:0,0:0:0:0:
152,172,4116,2,0,P|172:212|168:255,1,90,0|2,0:0|0:0,0:0:0:0:
168,256,4822,2,0,P|212:272|240:304,1,90,0|2,0:0|0:0,0:0:0:0:
332,300,5175,5,8,0:0:0:0:
408,260,5352,1,8,0:0:0:0:
432,168,5528,1,0,0:0:0:0:
392,88,5705,6,0,P|360:60|312:48,1,90,4|0,0:0|0:0,0:0:0:0:
224,60,6057,1,8,0:0:0:0:
156,116,6234,1,0,0:0:0:0:
216,248,6410,2,0,P|188:280|144:296,1,90
56,280,6763,1,8,0:0:0:0:
0,208,6940,1,0,0:0:0:0:
12,60,7116,2,0,P|56:76|84:108,1,90
92,196,7469,1,8,0:0:0:0:
56,280,7646,1,0,0:0:0:0:
188,340,7822,2,0,P|232:348|276:332,1,90
352,284,8175,1,8,0:0:0:0:
380,196,8352,1,0,0:0:0:0:
288,84,8528,6,0,P|248:68|200:72,1,90,0|0,0:0|0:0,0:0:0:0:
124,112,8881,1,8,0:0:0:0:
92,196,9057,1,0,0:0:0:0:
232,224,9234,2,0,P|276:220|320:232,1,90,0|0,0:0|0:0,0:0:0:0:
392,288,9587,1,8,0:0:0:0:
408,376,9763,1,0,0:0:0:0:
260,376,9940,2,0,P|220:356|200:316,1,90
236,172,10293,1,10,0:0:0:0:
236,172,10646,5,2,0:0:0:0:
92,138,10822,1,0,0:0:0:0:
56,282,10999,1,10,0:0:0:0:
200,316,11175,1,8,0:0:0:0:
344,268,11352,6,0,L|412:208,1,90,4|0,0:0|0:0,0:0:0:0:
388,112,11705,2,0,L|320:172,1,90,8|0,0:0|0:0,0:0:0:0:
476,128,12057,2,0,P|456:48|368:24,1,180,0|8,0:0|0:0,0:0:0:0:
296,76,12587,2,0,P|224:124|140:100,1,180
64,152,13116,2,0,L|72:244,1,90,8|0,0:0|0:0,0:0:0:0:
164,344,13469,2,0,L|171:254,1,90
264,172,13822,2,0,L|271:261,1,90,8|0,0:0|0:0,0:0:0:0:
348,356,14175,6,0,P|400:284|496:288,2,180,0|8|0,0:0|0:0|0:0,0:0:0:0:
440,360,15057,1,0,0:0:0:0:
280,292,15234,2,0,P|264:332|260:380,1,90,8|0,0:0|0:0,0:0:0:0:
120,348,15587,1,0,0:0:0:0:
200,228,15763,1,0,0:0:0:0:
56,228,15940,1,8,0:0:0:0:
136,108,16116,2,0,P|216:144|304:116,1,180
376,72,16646,1,8,0:0:0:0:
376,72,16822,1,0,0:0:0:0:
296,28,16999,5,4,0:0:0:0:
300,118,17175,1,0,0:0:0:0:
375,169,17352,2,0,P|415:189|463:193,1,90,8|0,0:0|0:0,0:0:0:0:
376,72,17705,2,0,P|300:28|224:68,1,180,0|8,0:0|0:0,0:0:0:0:
224,164,18234,2,0,P|300:208|376:168,1,180
148,116,18763,2,0,P|100:108|55:116,1,90,8|0,0:0|0:0,0:0:0:0:
4,188,19116,1,0,0:0:0:0:
32,272,19293,1,0,0:0:0:0:
120,288,19469,1,8,0:0:0:0:
184,224,19646,1,0,0:0:0:0:
272,216,19822,6,0,L|360:236,1,90
435,188,20175,1,8,0:0:0:0:
400,36,20352,2,0,L|312:16,1,90
232,60,20705,1,0,0:0:0:0:
288,128,20881,2,0,L|384:120,1,90,8|0,0:0|0:0,0:0:0:0:
468,108,21234,2,0,P|460:156|432:192,2,90,0|0|8,0:0|0:0|0:0,0:0:0:0:
288,36,21763,2,0,P|212:76|200:164,1,180,0|8,0:0|0:0,0:0:0:0:
280,204,22293,2,0,L|372:212,1,90,8|0,0:0|0:0,0:0:0:0:
436,276,22646,6,0,P|432:320|412:360,1,90,4|0,0:0|0:0,0:0:0:0:
332,320,22999,2,0,P|298:348|255:362,1,90,8|0,0:0|0:0,0:0:0:0:
216,280,23352,2,0,P|128:264|72:196,1,180,0|8,0:0|0:0,0:0:0:0:
160,72,23881,2,0,P|248:88|304:156,1,180
296,244,24410,1,8,0:0:0:0:
303,154,24587,1,0,0:0:0:0:
372,96,24763,2,0,P|412:80|460:76,2,90,0|0|8,0:0|0:0|0:0,0:0:0:0:
344,324,25469,6,0,P|380:352|424:360,1,90
382,190,25822,2,0,P|346:162|302:154,1,90,8|0,0:0|0:0,0:0:0:0:
416,268,26175,2,0,P|460:264|500:240,1,90
308,244,26528,2,0,P|264:248|224:272,1,90,8|0,0:0|0:0,0:0:0:0:
72,208,26881,1,0,0:0:0:0:
200,108,27057,1,0,0:0:0:0:
72,208,27234,1,8,0:0:0:0:
200,108,27410,2,0,P|288:128|356:76,1,180
440,112,27940,2,0,L|452:204,1,90,8|0,0:0|0:0,0:0:0:0:
416,284,28293,6,0,L|324:296,1,90,4|0,0:0|0:0,0:0:0:0:
188,228,28646,2,0,L|280:216,1,90,8|0,0:0|0:0,0:0:0:0:
152,320,28999,2,0,B|60:332|60:332|24:304|16:256,1,180,0|8,0:0|0:0,0:0:0:0:
228,132,29528,2,0,B|320:120|320:120|356:148|364:196,1,180
92,188,30057,2,0,P|104:148|140:112,1,90,8|0,0:0|0:0,0:0:0:0:
280,264,30410,2,0,P|268:304|232:340,1,90,0|0,0:0|0:0,0:0:0:0:
188,228,30763,1,8,0:0:0:0:
336,328,31116,6,0,P|380:332|424:320,1,90
484,252,31469,1,8,0:0:0:0:
472,84,31646,2,0,P|480:128|508:168,1,90
396,40,31999,1,0,0:0:0:0:
308,44,32175,2,0,P|264:56|228:84,1,90,8|0,0:0|0:0,0:0:0:0:
52,184,32528,1,0,0:0:0:0:
204,168,32705,1,0,0:0:0:0:
132,220,32881,1,8,0:0:0:0:
44,96,33057,2,0,P|116:48|196:80,1,180
132,220,33587,2,0,L|124:128,2,90,8|0|4,0:0|0:0|0:0,0:0:0:0:
96,224,39587,6,0,P|188:240|272:216,1,180,4|8,0:0|0:0,0:0:0:0:
344,164,40116,1,0,0:0:0:0:
416,112,40293,2,0,P|456:92|500:84,2,90,0|0|8,0:0|0:0|0:0,0:0:0:0:
420,204,40822,2,0,P|436:272|516:348,2,180
416,112,41705,1,0,0:0:0:0:
352,48,41881,1,0,0:0:0:0:
264,60,42057,1,8,0:0:0:0:
228,144,42234,1,0,0:0:0:0:
257,226,42410,6,0,P|345:246|421:202,1,180,0|8,0:0|0:0,0:0:0:0:
228,144,43116,1,0,0:0:0:0:
168,212,43293,1,0,0:0:0:0:
200,296,43469,1,8,0:0:0:0:
228,144,43646,2,0,P|224:56|144:20,1,180
72,64,44175,1,8,0:0:0:0:
152,104,44352,1,0,0:0:0:0:
152,104,44705,5,0,0:0:0:0:
228,144,44881,1,8,0:0:0:0:
152,188,45057,1,8,0:0:0:0:
116,272,45234,5,4,0:0:0:0:
292,272,45587,1,2,0:0:0:0:
160,352,45940,1,2,0:0:0:0:
248,352,46116,1,2,0:0:0:0:
116,272,46469,1,2,0:0:0:0:
292,272,46822,1,2,0:0:0:0:
204,272,46998,1,2,0:0:0:0:
336,352,47352,2,0,L|404:352,1,67.5000025749208,2|0,0:0|0:0,0:0:0:0:
380,272,47705,2,0,L|448:272,1,67.5000025749208,2|0,0:0|0:0,0:0:0:0:
444,192,48057,5,2,0:0:0:0:
268,192,48410,1,2,0:0:0:0:
380,112,48763,2,0,L|312:112,1,67.5000025749208,2|0,0:0|0:0,0:0:0:0:
224,112,49116,1,2,0:0:0:0:
180,192,49293,1,2,0:0:0:0:
356,192,49645,1,2,0:0:0:0:
312,112,49822,1,2,0:0:0:0:
136,112,50175,2,0,L|68:112,1,67.5000025749208,2|8,0:0|0:0,0:0:0:0:
92,192,50528,2,0,L|24:192,1,67.5000025749208,10|0,0:0|0:0,0:0:0:0:
84,32,50881,6,0,B|136:32|136:32|180:32|220:72|220:112,1,180,4|8,0:0|0:0,0:0:0:0:
180,192,51410,1,0,0:0:0:0:
136,268,51587,2,0,B|136:308|176:348|220:348|220:348|272:348,1,180,0|8,0:0|0:0,0:0:0:0:
364,204,52116,2,0,P|276:204|216:268,1,180
312,280,52646,2,0,P|356:292|400:288,1,90,8|0,0:0|0:0,0:0:0:0:
284,112,52999,2,0,P|240:124|204:148,1,90
428,144,53352,2,0,P|472:132|508:108,1,90,8|0,0:0|0:0,0:0:0:0:
280,200,53705,6,0,P|228:264|260:348,1,180,0|8,0:0|0:0,0:0:0:0:
456,228,54410,1,0,0:0:0:0:
368,216,54587,1,0,0:0:0:0:
312,280,54763,1,8,0:0:0:0:
224,264,54940,2,0,P|160:208|168:120,1,180
312,72,55469,2,0,P|376:128|368:216,1,180,8|0,0:0|0:0,0:0:0:0:
280,200,55999,1,8,0:0:0:0:
224,264,56175,1,8,0:0:0:0:
312,280,56352,1,0,0:0:0:0:
280,200,56528,6,0,L|248:116,1,90,4|0,0:0|0:0,0:0:0:0:
164,156,56881,2,0,L|76:128,1,90,8|0,0:0|0:0,0:0:0:0:
64,220,57234,2,0,P|12:284|40:372,1,180,0|8,0:0|0:0,0:0:0:0:
100,304,57763,2,0,P|164:354|252:325,1,180
196,180,58293,2,0,L|184:272,1,90,8|0,0:0|0:0,0:0:0:0:
240,108,58646,2,0,L|166:51,1,90
280,184,58999,2,0,L|365:148,1,90,8|0,0:0|0:0,0:0:0:0:
476,204,59352,6,0,P|408:256|416:344,1,180,0|8,0:0|0:0,0:0:0:0:
488,292,59881,1,0,0:0:0:0:
380,148,60057,2,0,P|328:224|308:312,1,180,0|8,0:0|0:0,0:0:0:0:
464,120,60763,1,0,0:0:0:0:
436,36,60940,1,0,0:0:0:0:
352,64,61116,1,8,0:0:0:0:
380,148,61293,2,0,P|296:180|216:148,1,180
244,64,61822,1,8,0:0:0:0:
160,36,61999,1,0,0:0:0:0:
132,120,62175,5,4,0:0:0:0:
104,376,62528,1,8,0:0:0:0:
340,272,62881,1,0,0:0:0:0:
264,220,63057,1,0,0:0:0:0:
256,312,63234,1,8,0:0:0:0:
340,272,63410,2,0,P|352:192|280:128,1,180
256,312,63940,2,0,P|284:348|324:364,1,90,8|0,0:0|0:0,0:0:0:0:
264,220,64293,2,0,P|220:228|184:256,2,90,0|0|8,0:0|0:0|0:0,0:0:0:0:
456,48,64999,6,0,P|388:100|296:96,1,180,0|8,0:0|0:0,0:0:0:0:
224,40,65528,1,0,0:0:0:0:
292,192,65705,2,0,P|292:236|280:280,1,90
100,256,66057,2,0,P|100:212|112:168,1,90,8|0,0:0|0:0,0:0:0:0:
292,192,66410,5,0,0:0:0:0:
344,264,66587,1,0,0:0:0:0:
292,337,66763,1,8,0:0:0:0:
206,309,66940,1,0,0:0:0:0:
206,219,67116,1,0,0:0:0:0:
120,191,67293,1,8,0:0:0:0:
68,264,67470,1,8,0:0:0:0:
120,336,67646,1,0,0:0:0:0:
206,309,67822,6,0,P|284:352|372:340,2,180,4|8|0,0:0|0:0|0:0,0:0:0:0:
206,219,68705,2,0,P|208:176|188:132,1,90,0|8,0:0|0:0,0:0:0:0:
104,104,69057,2,0,P|36:160|48:244,1,180
131,281,69587,2,0,L|120:192,1,90,8|0,0:0|0:0,0:0:0:0:
292,248,69940,2,0,L|303:337,1,90
232,384,70293,1,8,0:0:0:0:
206,219,70646,6,0,P|272:160|356:184,1,180,0|8,0:0|0:0,0:0:0:0:
376,268,71175,1,0,0:0:0:0:
392,100,71352,2,0,P|428:68|468:56,1,90
456,312,71705,2,0,P|420:344|380:356,1,90,8|0,0:0|0:0,0:0:0:0:
168,288,72057,2,0,L|156:384,1,90
236,236,72410,1,8,0:0:0:0:
88,256,72587,2,0,L|76:352,1,90
156,204,72940,1,0,0:0:0:0:
260,328,73116,1,8,0:0:0:0:
76,345,73293,1,0,0:0:0:0:
168,288,73469,5,4,0:0:0:0:
332,48,73822,1,8,0:0:0:0:
456,308,74175,1,0,0:0:0:0:
368,336,74352,1,0,0:0:0:0:
284,308,74528,1,8,0:0:0:0:
264,220,74705,2,0,P|296:140|380:116,1,180
448,224,75234,2,0,L|360:204,1,90,8|0,0:0|0:0,0:0:0:0:
140,104,75587,2,0,L|228:84,2,90,0|0|8,0:0|0:0|0:0,0:0:0:0:
172,304,76293,6,0,P|256:332|340:304,1,180,0|8,0:0|0:0,0:0:0:0:
340,80,76999,2,0,P|256:52|172:80,1,180,0|8,0:0|0:0,0:0:0:0:
226,210,77705,5,0,0:0:0:0:
303,154,77881,1,0,0:0:0:0:
208,154,78057,1,8,0:0:0:0:
285,210,78234,1,0,0:0:0:0:
256,120,78410,5,0,0:0:0:0:
211,258,78587,1,0,0:0:0:0:
328,172,78763,1,8,0:0:0:0:
183,172,78940,1,0,0:0:0:0:
301,258,79116,1,4,0:0:0:0:
256,192,79293,12,0,81940,0:0:0:0:
