osu file format v13

[General]
AudioFilename: 10 Kotobatoraborato.mp3
AudioLeadIn: 0
PreviewTime: 88438
Countdown: 0
SampleSet: None
StackLeniency: 0.7
Mode: 0
LetterboxInBreaks: 0
WidescreenStoryboard: 1

[Editor]
Bookmarks: 181147,182813
DistanceSpacing: 1.2
BeatDivisor: 4
GridSize: 4
TimelineZoom: 1

[Metadata]
Title:Kotoba to Raborato
TitleUnicode:コトバトラボラト
Artist:daniwellP
ArtistUnicode:daniwellP Feat. 初音ミク
Creator:Rotte
Version:Normal
Source:Vocaloid
Tags:neko cute Nyan cat
BeatmapID:497400
BeatmapSetID:210336

[Difficulty]
HPDrainRate:4
CircleSize:4
OverallDifficulty:4
ApproachRate:5
SliderMultiplier:1.2
SliderTickRate:1

[Events]
//Background and Video events
0,0,"BG.png",0,0
//Break Periods
2,55721,60988
2,104055,129322
//Storyboard Layer 0 (Background)
//Storyboard Layer 1 (Fail)
//Storyboard Layer 2 (Pass)
//Storyboard Layer 3 (Foreground)
//Storyboard Sound Samples
//Background Colour Transformations
3,100,64,0,64

[TimingPoints]
522,416.666666666667,4,2,1,40,1,0
13855,-100,4,2,1,70,0,0
26980,-100,4,2,1,60,0,0
27188,-100,4,2,1,70,0,0
40105,-100,4,2,1,50,0,0
40522,-100,4,2,1,80,0,1
54897,-100,4,2,1,50,0,1
55105,-100,4,2,1,80,0,1
55470,-100,4,2,1,75,0,0
75313,-100,4,2,1,60,0,0
75522,-100,4,2,1,75,0,0
87188,-100,4,2,1,40,0,0
88855,-100,4,2,1,80,0,1
103855,-100,4,2,1,70,0,0
136355,-100,4,2,1,50,0,0
137188,-100,4,2,1,70,0,0
150313,-100,4,2,1,50,0,0
150522,-100,4,2,1,70,0,0
163855,-100,4,2,1,60,0,1
177188,-100,4,2,1,80,0,1
178438,-100,4,2,1,50,0,1
178855,-100,4,2,1,70,0,0

[Colours]
Combo1 : 242,205,149
Combo2 : 237,165,199
Combo3 : 134,194,255
Combo4 : 197,152,237

[HitObjects]
368,240,522,6,0,P|332:260|240:236,1,120,0|2,0:0|0:0,0:0:0:0:
200,204,1147,2,0,L|192:136,1,60
104,32,1772,1,2,0:0:0:0:
52,168,2188,2,0,P|44:236|84:292,1,120,0|2,0:0|0:0,0:0:0:0:
196,344,3022,2,0,B|256:360|256:360|312:344,1,120,0|2,0:0|0:0,0:0:0:0:
440,280,3855,6,0,P|466:227|456:168,1,120,0|2,0:0|0:0,0:0:0:0:
412,112,4480,2,0,L|344:96,1,60
212,64,5105,1,2,0:0:0:0:
84,128,5522,2,0,L|20:136,2,60,0|0|2,0:0|0:0|0:0,0:0:0:0:
128,264,6355,2,0,L|56:264,2,60,0|2|8,0:0|0:0|0:0,0:0:0:0:
268,300,7188,6,0,P|320:328|380:320,1,120,6|8,0:0|0:0,0:0:0:0:
440,280,7813,1,0,0:0:0:0:
468,212,8022,2,0,B|472:152|472:152|432:108,1,120,0|8,0:0|0:0,0:0:0:0:
296,56,8855,1,0,0:0:0:0:
176,136,9272,2,0,L|172:196,1,60,8|0,0:0|0:0,0:0:0:0:
120,248,9688,2,0,P|60:264|4:240,2,120,0|8|0,0:0|0:0|0:0,0:0:0:0:
252,192,10938,6,0,L|324:200,1,60,8|0,0:0|0:0,0:0:0:0:
376,228,11355,1,0,0:0:0:0:
488,140,11772,1,8,0:0:0:0:
360,72,12188,2,0,L|232:96,1,120,0|8,0:0|0:0,0:0:0:0:
100,68,13022,2,0,P|84:104|88:132,1,60,0|8,0:0|0:0,0:0:0:0:
116,188,13438,1,8,0:0:0:0:
240,264,13855,6,0,L|180:274,1,60,6|0,0:0|0:0,0:0:0:0:
204,342,14272,2,0,L|262:331,1,60,8|0,0:0|0:0,0:0:0:0:
316,380,14688,2,0,P|336:319|310:273,1,120,0|8,0:0|0:0,0:0:0:0:
179,213,15522,1,0,0:0:0:0:
40,252,15938,2,0,L|28:310,2,60,8|0|0,0:0|0:0|0:0,0:0:0:0:
71,111,16772,1,8,0:0:0:0:
203,54,17188,6,0,P|263:43|323:57,1,120,0|8,0:0|0:0,0:0:0:0:
383,89,17813,1,0,0:0:0:0:
428,144,18022,2,0,L|417:214,2,60,0|0|8,0:0|0:0|0:0,0:0:0:0:
308,224,18855,2,0,B|316:290,1,60
367,333,19272,2,0,P|420:349|481:322,2,120,8|0|8,0:0|0:0|0:0,0:0:0:0:
223,325,20522,6,0,L|156:335,1,60
93,347,20938,2,0,P|52:332|32:314,1,60,8|0,0:0|0:0,0:0:0:0:
3,259,21355,2,0,P|0:186|31:138,1,120,0|8,0:0|0:0,0:0:0:0:
146,73,22188,1,0,0:0:0:0:
284,113,22605,2,0,L|354:119,2,60,8|0|0,0:0|0:0|0:0,0:0:0:0:
150,166,23438,1,8,0:0:0:0:
201,300,23855,6,0,P|257:277|315:282,1,120,0|8,0:0|0:0,0:0:0:0:
383,304,24480,1,0,0:0:0:0:
453,288,24688,2,0,P|466:261|472:232,2,60,0|0|8,0:0|0:0|0:0,0:0:0:0:
329,212,25522,2,0,P|334:182|348:156,1,60,0|0,0:0|0:0,0:0:0:0:
408,117,25938,2,0,P|352:85|301:101,1,120,8|0,0:0|0:0,0:0:0:0:
179,176,26772,1,8,0:0:0:0:
117,139,26980,6,0,L|58:152,1,60,8|6,0:0|0:0,0:0:0:0:
21,291,27605,2,0,P|70:336|125:332,1,120,8|0,0:0|0:0,0:0:0:0:
257,290,28438,1,8,0:0:0:0:
397,323,28855,2,0,L|465:333,2,60,0|0|8,0:0|0:0|0:0,0:0:0:0:
442,186,29688,2,0,L|518:188,2,60,0|0|8,0:0|0:0|0:0,0:0:0:0:
408,122,30313,6,0,L|331:136,1,60
226,57,30938,2,0,L|166:84,1,60,8|0,0:0|0:0,0:0:0:0:
99,83,31355,2,0,P|59:126|74:202,1,120,0|8,0:0|0:0,0:0:0:0:
153,295,32188,2,0,L|146:355,2,60,0|0|8,0:0|0:0|0:0,0:0:0:0:
253,191,33022,2,0,B|263:253,2,60,0|0|8,0:0|0:0|0:0,0:0:0:0:
199,142,33647,1,0,0:0:0:0:
267,118,33855,6,0,P|337:121|378:146,1,120,0|8,0:0|0:0,0:0:0:0:
438,186,34480,2,0,P|469:182|495:166,2,60,0|0|0,0:0|0:0|0:0,0:0:0:0:
444,114,35105,1,8,0:0:0:0:
417,255,35522,2,0,P|390:261|347:251,1,60
299,215,35938,1,8,0:0:0:0:
286,358,36355,2,0,P|255:356|228:338,1,60
192,279,36772,1,8,0:0:0:0:
57,329,37188,6,0,P|30:265|54:200,1,120,0|8,0:0|0:0,0:0:0:0:
132,105,38022,2,0,P|191:92|249:103,1,120,0|8,0:0|0:0,0:0:0:0:
387,142,38855,2,0,P|447:115|465:64,2,120,0|2|2,0:0|0:0|0:0,0:0:0:0:
248,103,40105,1,8,0:0:0:0:
179,125,40313,5,8,0:0:0:0:
179,125,40417,1,8,0:0:0:0:
179,125,40522,2,0,B|137:118|137:118|111:157|145:197,1,120,6|8,0:0|0:0,0:0:0:0:
255,275,41355,1,2,0:0:0:0:
399,277,41772,2,0,P|427:255|439:231,1,60,8|0,0:0|0:0,0:0:0:0:
462,166,42188,2,0,P|462:137|447:108,1,60,2|0,0:0|0:0,0:0:0:0:
394,61,42605,1,8,0:0:0:0:
256,104,43022,1,2,0:0:0:0:
118,61,43438,1,8,0:0:0:0:
23,169,43855,6,0,P|19:228|52:278,1,120,2|8,0:0|0:0,0:0:0:0:
180,341,44688,2,0,L|120:345,2,60,2|0|8,0:0|0:0|0:0,0:0:0:0:
315,291,45522,2,0,L|397:285,1,60,2|0,0:0|0:0,0:0:0:0:
446,287,45938,2,0,P|472:270|487:246,1,60,8|0,0:0|0:0,0:0:0:0:
498,178,46355,2,0,L|478:115,1,60,2|0,0:0|0:0,0:0:0:0:
461,50,46772,2,0,P|434:36|402:36,1,60,8|0,0:0|0:0,0:0:0:0:
336,57,47188,5,2,0:0:0:0:
195,26,47605,2,0,P|167:26|138:41,1,60,8|0,0:0|0:0,0:0:0:0:
86,89,48022,1,2,0:0:0:0:
162,210,48438,2,0,P|137:228|123:255,1,60,8|0,0:0|0:0,0:0:0:0:
113,324,48855,2,0,L|124:392,2,60,2|0|8,0:0|0:0|0:0,0:0:0:0:
251,364,49688,2,0,L|263:242,1,120,2|8,0:0|0:0,0:0:0:0:
343,124,50522,6,0,P|398:113|459:141,1,120,2|8,0:0|0:0,0:0:0:0:
507,271,51355,2,0,L|494:330,2,60,2|0|8,0:0|0:0|0:0,0:0:0:0:
376,210,52188,2,0,P|348:202|317:206,1,60,2|0,0:0|0:0,0:0:0:0:
245,205,52605,2,0,P|215:201|186:209,1,60,8|0,0:0|0:0,0:0:0:0:
114,209,53022,1,2,0:0:0:0:
225,299,53438,6,0,P|282:315|339:299,2,120,8|2|2,0:0|0:0|0:0,0:0:0:0:
114,209,54688,2,0,L|103:145,2,60,2|2|8,0:0|0:0|0:0,0:0:0:0:
156,267,55313,2,0,L|154:297,2,30,8|8|4,0:0|0:0|0:0,0:0:0:0:
217,127,62188,6,0,L|280:118,1,60,4|0,0:0|0:0,0:0:0:0:
333,74,62605,1,8,0:0:0:0:
466,128,63022,1,0,0:0:0:0:
476,271,63438,1,8,0:0:0:0:
355,350,63855,2,0,B|291:344,2,60,0|0|8,0:0|0:0|0:0,0:0:0:0:
229,279,64688,2,0,P|200:279|164:295,1,60
118,339,65105,1,8,0:0:0:0:
18,234,65522,6,0,P|5:183|32:121,1,120,0|8,0:0|0:0,0:0:0:0:
86,77,66147,1,0,0:0:0:0:
146,115,66355,2,0,L|208:107,1,60
270,75,66772,2,0,P|299:116|274:193,1,120,8|0,0:0|0:0,0:0:0:0:
158,249,67605,2,0,L|174:311,1,60,8|0,0:0|0:0,0:0:0:0:
232,348,68022,2,0,P|291:352|339:316,1,120,0|8,0:0|0:0,0:0:0:0:
352,174,68855,5,0,0:0:0:0:
479,107,69272,1,8,0:0:0:0:
417,236,69688,1,0,0:0:0:0:
275,209,70105,2,0,B|202:216,2,60,8|0|0,0:0|0:0|0:0,0:0:0:0:
360,92,70938,2,0,B|297:86,1,60,8|0,0:0|0:0,0:0:0:0:
236,51,71355,1,0,0:0:0:0:
93,73,71772,6,0,P|63:119|79:179,1,120,8|0,0:0|0:0,0:0:0:0:
206,245,72605,2,0,L|197:310,1,60,8|0,0:0|0:0,0:0:0:0:
136,343,73022,1,0,0:0:0:0:
29,246,73438,1,8,0:0:0:0:
157,180,73855,2,0,P|215:164|272:195,1,120,0|8,0:0|0:0,0:0:0:0:
377,280,74688,2,0,L|441:264,2,60,0|0|8,0:0|0:0|0:0,0:0:0:0:
372,207,75313,6,0,L|430:191,1,60,8|6,0:0|0:0,0:0:0:0:
484,57,75938,1,8,0:0:0:0:
340,39,76355,2,0,P|311:37|276:42,1,60
211,62,76772,1,8,0:0:0:0:
85,132,77188,2,0,P|65:84|76:18,2,120,0|8|0,0:0|0:0|0:0,0:0:0:0:
218,186,78438,2,0,P|251:190|280:184,1,60,8|0,0:0|0:0,0:0:0:0:
345,161,78855,6,0,P|376:118|376:51,1,120,0|8,0:0|0:0,0:0:0:0:
246,115,79688,1,0,0:0:0:0:
324,235,80105,1,8,0:0:0:0:
467,225,80522,2,0,P|468:258|452:295,1,60
417,341,80938,2,0,P|394:363|363:369,1,60,8|0,0:0|0:0,0:0:0:0:
294,368,81355,2,0,B|261:348|233:349|199:357|163:339,1,120,0|8,0:0|0:0,0:0:0:0:
61,259,82188,5,0,0:0:0:0:
172,168,82605,2,0,P|179:194|172:227,1,60,8|0,0:0|0:0,0:0:0:0:
106,197,83022,2,0,P|96:132|114:70,1,120,0|8,0:0|0:0,0:0:0:0:
241,22,83855,2,0,P|277:13|316:20,1,60,0|0,0:0|0:0,0:0:0:0:
369,32,84272,1,8,0:0:0:0:
483,119,84688,2,0,P|490:152|482:191,1,60
459,244,85105,1,8,0:0:0:0:
330,178,85522,5,0,0:0:0:0:
339,321,85938,2,0,P|298:337|262:336,1,60,8|0,0:0|0:0,0:0:0:0:
210,342,86355,2,0,L|129:339,2,60,0|0|8,0:0|0:0|0:0,0:0:0:0:
320,249,87188,1,2,0:0:0:0:
195,176,87605,1,2,0:0:0:0:
65,238,88022,1,2,0:0:0:0:
80,95,88438,1,8,0:0:0:0:
138,52,88647,5,8,0:0:0:0:
138,52,88751,1,8,0:0:0:0:
138,52,88855,2,0,P|194:32|256:40,1,120,6|8,0:0|0:0,0:0:0:0:
385,95,89688,1,2,0:0:0:0:
487,196,90105,2,0,L|475:269,1,60,8|0,0:0|0:0,0:0:0:0:
409,229,90522,2,0,L|397:302,1,60,2|0,0:0|0:0,0:0:0:0:
445,343,90938,1,8,0:0:0:0:
300,339,91355,6,0,L|237:348,1,60,2|0,0:0|0:0,0:0:0:0:
240,275,91772,2,0,L|177:284,1,60,8|0,0:0|0:0,0:0:0:0:
114,312,92188,2,0,P|63:271|63:202,1,120,2|8,0:0|0:0,0:0:0:0:
105,83,93022,2,0,L|146:28,1,60,2|0,0:0|0:0,0:0:0:0:
199,76,93438,2,0,L|163:124,1,60,8|0,0:0|0:0,0:0:0:0:
141,192,93855,6,0,P|145:220|170:249,1,60,2|0,0:0|0:0,0:0:0:0:
218,292,94272,2,0,P|239:306|275:308,1,60,8|0,0:0|0:0,0:0:0:0:
344,305,94688,2,0,P|374:305|406:285,1,60,2|0,0:0|0:0,0:0:0:0:
454,244,95105,2,0,B|474:217|477:186,1,60,8|0,0:0|0:0,0:0:0:0:
471,117,95522,5,2,0:0:0:0:
332,78,95938,2,0,P|314:57|284:44,1,60,8|0,0:0|0:0,0:0:0:0:
212,46,96355,1,2,0:0:0:0:
138,169,96772,2,0,P|107:170|77:188,1,60,8|0,0:0|0:0,0:0:0:0:
38,240,97188,2,0,P|10:191|35:131,1,120,2|8,0:0|0:0,0:0:0:0:
171,104,98022,1,2,0:0:0:0:
127,241,98438,1,8,0:0:0:0:
233,338,98855,6,0,B|296:355|352:333,1,120,2|8,0:0|0:0,0:0:0:0:
464,245,99688,2,0,L|471:184,1,60,2|0,0:0|0:0,0:0:0:0:
449,116,100105,1,8,0:0:0:0:
319,173,100522,2,0,P|288:177|256:172,1,60,2|0,0:0|0:0,0:0:0:0:
199,134,100938,2,0,P|168:128|127:140,1,60,8|0,0:0|0:0,0:0:0:0:
76,167,101355,1,2,0:0:0:0:
148,291,101772,6,0,B|175:307|205:298|239:280|267:288,1,120,8|2,0:0|0:0,0:0:0:0:
399,339,102605,1,8,0:0:0:0:
504,240,103022,1,8,0:0:0:0:
434,114,103438,1,8,0:0:0:0:
290,127,103855,1,6,0:0:0:0:
319,186,130522,6,0,L|390:182,1,60,4|0,0:0|0:0,0:0:0:0:
247,123,131147,1,0,0:0:0:0:
177,141,131355,2,0,L|118:155,1,60
251,210,131980,1,0,0:0:0:0:
321,192,132188,2,0,L|380:178,1,60
241,124,132813,1,0,0:0:0:0:
173,149,133022,2,0,L|115:168,1,60
251,216,133647,5,0,0:0:0:0:
319,191,133856,2,0,L|376:171,1,60
235,125,134480,1,0,0:0:0:0:
169,156,134689,2,0,L|113:180,1,60
251,222,135313,1,0,0:0:0:0:
317,192,135522,2,0,L|372:167,1,60
229,127,136147,1,0,0:0:0:0:
166,164,136356,2,0,L|113:192,1,60,2|8,0:0|0:0,0:0:0:0:
52,230,136772,2,0,L|48:264,3,30,8|8|8|8,0:0|0:0|0:0|0:0,0:0:0:0:
68,289,137188,6,0,P|88:316|174:324,1,120,6|8,0:0|0:0,0:0:0:0:
256,212,138022,1,0,0:0:0:0:
341,327,138438,2,0,P|372:336|410:326,1,60,8|0,0:0|0:0,0:0:0:0:
467,308,138855,2,0,P|494:264|483:196,1,120,0|8,0:0|0:0,0:0:0:0:
409,75,139688,2,0,L|332:72,2,60,0|0|8,0:0|0:0|0:0,0:0:0:0:
268,42,140522,6,0,P|206:44|170:89,1,120,0|8,0:0|0:0,0:0:0:0:
200,226,141355,1,0,0:0:0:0:
131,204,141563,2,0,L|70:209,1,60,0|8,0:0|0:0,0:0:0:0:
18,343,142188,2,0,L|146:359,1,120,0|8,0:0|0:0,0:0:0:0:
280,376,143022,1,0,0:0:0:0:
409,314,143438,1,8,0:0:0:0:
373,174,143855,6,0,P|363:145|377:113,1,60
425,68,144272,2,0,B|485:50|485:50|498:77|484:109,1,120,8|0,0:0|0:0,0:0:0:0:
420,234,145105,1,8,0:0:0:0:
280,199,145522,2,0,L|213:184,1,60,0|0,0:0|0:0,0:0:0:0:
149,185,145938,2,0,P|126:136|147:71,2,120,8|0|8,0:0|0:0|0:0,0:0:0:0:
263,272,147188,5,0,0:0:0:0:
126,319,147605,2,0,P|93:313|61:289,1,60,8|0,0:0|0:0,0:0:0:0:
38,234,148022,2,0,L|22:109,1,120,0|8,0:0|0:0,0:0:0:0:
136,26,148855,1,0,0:0:0:0:
265,89,149272,2,0,P|303:100|338:99,1,60,8|0,0:0|0:0,0:0:0:0:
389,73,149688,1,0,0:0:0:0:
470,191,150105,2,0,P|476:220|466:251,1,60,2|8,0:0|0:0,0:0:0:0:
421,304,150522,5,6,0:0:0:0:
279,326,150938,2,0,B|218:331|218:331|176:275,1,120,8|0,0:0|0:0,0:0:0:0:
45,330,151772,2,0,P|34:275|57:213,1,120,8|0,0:0|0:0,0:0:0:0:
126,173,152605,1,8,0:0:0:0:
39,109,153022,2,0,L|26:39,2,60,0|0|8,0:0|0:0|0:0,0:0:0:0:
90,160,153647,1,0,0:0:0:0:
144,206,153855,6,0,L|168:327,1,120,0|8,0:0|0:0,0:0:0:0:
305,364,154688,2,0,P|368:362|410:322,1,120,0|8,0:0|0:0,0:0:0:0:
464,192,155522,2,0,L|448:119,1,60
386,165,155938,2,0,L|367:89,1,60,8|0,0:0|0:0,0:0:0:0:
428,62,156355,1,0,0:0:0:0:
306,139,156772,1,8,0:0:0:0:
406,241,157188,6,0,P|358:279|300:283,1,120,0|8,0:0|0:0,0:0:0:0:
158,262,158022,2,0,B|99:274,2,60,0|0|8,0:0|0:0|0:0,0:0:0:0:
50,166,158855,2,0,L|112:167,2,60,0|0|8,0:0|0:0|0:0,0:0:0:0:
160,72,159688,2,0,B|101:60,2,60,0|0|8,0:0|0:0|0:0,0:0:0:0:
298,112,160522,5,0,0:0:0:0:
433,63,160938,1,8,0:0:0:0:
291,34,161355,2,0,P|243:53|221:118,1,120,0|8,0:0|0:0,0:0:0:0:
324,211,162188,2,0,B|371:219|371:219|396:215|396:215|446:222,1,120,2|8,0:0|0:0,0:0:0:0:
482,360,163022,2,0,B|435:352|435:352|410:356|410:356|360:349,1,120,2|8,0:0|0:0,0:0:0:0:
295,326,163647,5,8,0:0:0:0:
295,326,163751,1,8,0:0:0:0:
295,326,163855,2,0,P|241:346|176:335,1,120,6|8,0:0|0:0,0:0:0:0:
116,303,164480,1,0,0:0:0:0:
87,236,164688,1,2,0:0:0:0:
126,97,165105,2,0,L|197:106,1,60,8|0,0:0|0:0,0:0:0:0:
257,112,165522,2,0,P|290:111|317:97,1,60,2|0,0:0|0:0,0:0:0:0:
357,42,165938,1,8,0:0:0:0:
484,108,166355,6,0,L|463:238,1,120,2|8,0:0|0:0,0:0:0:0:
393,236,166980,1,0,0:0:0:0:
437,292,167188,1,2,0:0:0:0:
312,364,167605,1,8,0:0:0:0:
174,320,168022,2,0,L|103:315,1,60,2|0,0:0|0:0,0:0:0:0:
48,286,168438,2,0,P|35:253|37:213,1,60,8|0,0:0|0:0,0:0:0:0:
43,157,168855,6,0,P|52:123|71:101,1,60,2|0,0:0|0:0,0:0:0:0:
125,61,169272,1,8,0:0:0:0:
196,50,169480,1,0,0:0:0:0:
265,66,169688,2,0,B|292:75|324:65|351:60|384:69,1,120,2|8,0:0|0:0,0:0:0:0:
494,161,170522,5,2,0:0:0:0:
351,141,170938,2,0,P|344:171|357:200,1,60,8|0,0:0|0:0,0:0:0:0:
420,166,171355,1,2,0:0:0:0:
499,286,171772,2,0,P|483:311|456:326,1,60,8|0,0:0|0:0,0:0:0:0:
385,329,172188,2,0,L|323:328,1,60,2|0,0:0|0:0,0:0:0:0:
253,320,172605,1,8,0:0:0:0:
114,281,173022,2,0,P|95:248|94:222,1,60,2|0,0:0|0:0,0:0:0:0:
146,178,173438,6,0,P|165:211|166:237,2,60,8|0|2,0:0|0:0|0:0,0:0:0:0:
28,94,174272,1,8,0:0:0:0:
163,45,174688,2,0,L|229:47,1,60,2|0,0:0|0:0,0:0:0:0:
293,31,175105,2,0,P|295:62|281:90,1,60,8|0,0:0|0:0,0:0:0:0:
223,128,175522,6,0,P|219:157|238:193,1,60,2|0,0:0|0:0,0:0:0:0:
287,228,175938,2,0,P|327:240|364:233,1,60,8|0,0:0|0:0,0:0:0:0:
410,209,176355,1,2,0:0:0:0:
306,309,176772,1,8,0:0:0:0:
234,306,176980,6,0,L|193:312,2,30,8|8|8,0:0|0:0|0:0,0:0:0:0:
91,324,177605,1,2,0:0:0:0:
18,199,178022,1,2,0:0:0:0:
125,103,178438,1,2,0:0:0:0:
258,157,178855,6,0,L|325:152,1,60,6|0,0:0|0:0,0:0:0:0:
210,248,179480,1,0,0:0:0:0:
139,235,179688,2,0,P|120:181|120:176,1,60
338,134,180522,2,0,L|400:146,1,60
259,190,181147,1,0,0:0:0:0:
217,131,181355,2,0,P|227:74|230:70,1,60
416,180,182188,6,0,L|446:236,1,60
338,135,182813,1,0,0:0:0:0:
331,63,183021,2,0,P|368:19|372:17,1,60
461,257,183855,2,0,L|458:320,1,60
416,180,184480,1,0,0:0:0:0:
445,114,184688,2,0,P|499:94|504:94,1,60
360,126,185313,2,0,L|319:119,2,30,0|0|4,0:0|0:0|0:0,0:0:0:0:
309,207,187188,6,0,P|256:226|198:207,2,120,0|0|0,0:0|0:0|0:0,0:0:0:0:
