osu file format v13

[General]
AudioFilename: 10 Kotobatoraborato.mp3
AudioLeadIn: 0
PreviewTime: 88438
Countdown: 0
SampleSet: Soft
StackLeniency: 0.7
Mode: 0
LetterboxInBreaks: 0
WidescreenStoryboard: 1

[Editor]
Bookmarks: 182813
DistanceSpacing: 1
BeatDivisor: 4
GridSize: 4
TimelineZoom: 1

[Metadata]
Title:Kotoba to Raborato
TitleUnicode:コトバトラボラト
Artist:daniwellP
ArtistUnicode:daniwellP Feat. 初音ミク
Creator:Rotte
Version:Insane
Source:Vocaloid
Tags:neko cute Nyan cat
BeatmapID:494856
BeatmapSetID:210336

[Difficulty]
HPDrainRate:7
CircleSize:4
OverallDifficulty:7
ApproachRate:8
SliderMultiplier:1.72
SliderTickRate:1

[Events]
//Background and Video events
0,0,"BG.png",0,0
//Break Periods
2,55722,59772
2,104056,129563
//Storyboard Layer 0 (Background)
//Storyboard Layer 1 (Fail)
//Storyboard Layer 2 (Pass)
//Storyboard Layer 3 (Foreground)
//Storyboard Sound Samples
//Background Colour Transformations
3,100,64,0,64

[TimingPoints]
522,416.666666666667,4,2,1,40,1,0
13855,-100,4,2,1,70,0,0
26980,-100,4,2,1,60,0,0
27188,-100,4,2,1,70,0,0
40105,-100,4,2,1,50,0,0
40522,-100,4,2,1,80,0,1
54897,-100,4,2,1,50,0,1
55105,-100,4,2,1,80,0,1
55470,-100,4,2,1,75,0,0
75313,-100,4,2,1,60,0,0
75522,-100,4,2,1,75,0,0
87188,-100,4,2,1,40,0,0
88855,-100,4,2,1,80,0,1
103855,-100,4,2,1,70,0,0
150313,-100,4,2,1,50,0,0
150522,-100,4,2,1,70,0,0
163855,-100,4,2,1,60,0,1
177188,-100,4,2,1,80,0,1
178438,-100,4,2,1,50,0,1
178855,-100,4,2,1,70,0,0

[Colours]
Combo1 : 242,205,149
Combo2 : 237,165,199
Combo3 : 134,194,255
Combo4 : 197,152,237

[HitObjects]
106,126,522,6,0,L|125:213,1,86
200,138,938,2,0,L|219:225,1,86,2|0,0:0|0:0,0:0:0:0:
293,149,1355,2,0,L|312:236,1,86
389,161,1772,2,0,L|408:248,1,86,2|0,0:0|0:0,0:0:0:0:
407,245,2188,1,0,0:0:0:0:
293,149,2397,1,0,0:0:0:0:
389,161,2605,1,2,0:0:0:0:
311,233,2813,1,0,0:0:0:0:
106,126,3022,1,0,0:0:0:0:
218,222,3230,1,0,0:0:0:0:
200,138,3438,1,2,0:0:0:0:
124,210,3647,1,0,0:0:0:0:
98,23,3855,5,0,0:0:0:0:
83,107,4063,1,0,0:0:0:0:
157,75,4272,2,0,L|250:72,1,86,2|0,0:0|0:0,0:0:0:0:
324,44,4688,2,0,P|366:38|409:55,1,86
470,109,5105,2,0,P|487:148|480:195,1,86,2|0,0:0|0:0,0:0:0:0:
424,254,5522,5,0,0:0:0:0:
342,279,5730,1,0,0:0:0:0:
256,254,5938,1,2,0:0:0:0:
193,194,6147,1,0,0:0:0:0:
176,109,6355,1,0,0:0:0:0:
331,37,6563,1,8,0:0:0:0:
480,122,6772,1,8,0:0:0:0:
474,164,6876,1,8,0:0:0:0:
469,206,6980,1,8,0:0:0:0:
464,248,7084,1,8,0:0:0:0:
456,290,7188,6,0,P|423:315|376:321,1,86,4|0,0:0|0:0,0:0:0:0:
307,274,7605,2,0,P|248:262|207:268,1,86,8|0,0:0|0:0,0:0:0:0:
139,285,8022,2,0,P|85:274|57:247,1,86
31,174,8438,2,0,P|31:119|53:86,1,86,8|0,0:0|0:0,0:0:0:0:
117,45,8855,1,0,0:0:0:0:
225,146,9063,1,0,0:0:0:0:
167,210,9272,1,8,0:0:0:0:
201,62,9480,1,0,0:0:0:0:
308,165,9688,1,0,0:0:0:0:
201,62,9897,1,0,0:0:0:0:
250,228,10105,1,8,0:0:0:0:
285,82,10313,1,0,0:0:0:0:
143,126,10522,5,2,0:0:0:0:
181,49,10730,1,0,0:0:0:0:
252,164,10938,2,0,L|343:153,1,86,8|0,0:0|0:0,0:0:0:0:
455,113,11355,2,0,P|475:71|468:30,1,86
388,63,11772,2,0,P|368:105|375:146,1,86,8|0,0:0|0:0,0:0:0:0:
441,195,12188,1,0,0:0:0:0:
442,281,12397,1,0,0:0:0:0:
368,328,12605,1,8,0:0:0:0:
292,288,12813,1,0,0:0:0:0:
364,241,13022,1,0,0:0:0:0:
256,144,13230,1,8,0:0:0:0:
208,284,13438,1,8,0:0:0:0:
164,292,13542,1,8,0:0:0:0:
120,300,13647,1,8,0:0:0:0:
76,308,13751,1,8,0:0:0:0:
32,316,13855,6,0,P|8:284|4:236,1,86,4|0,0:0|0:0,0:0:0:0:
48,168,14272,2,0,L|140:152,1,86,8|0,0:0|0:0,0:0:0:0:
296,72,14688,1,0,0:0:0:0:
208,132,14897,1,0,0:0:0:0:
68,56,15105,1,8,0:0:0:0:
240,16,15313,1,0,0:0:0:0:
328,88,15522,2,0,P|342:125|338:172,1,86
292,244,15938,1,8,0:0:0:0:
440,208,16147,1,0,0:0:0:0:
244,140,16355,2,0,L|159:148,1,86
408,188,16772,2,0,L|500:192,1,86,8|0,0:0|0:0,0:0:0:0:
312,240,17188,6,0,P|280:296|172:308,1,172,0|8,0:0|0:0,0:0:0:0:
124,212,17813,1,0,0:0:0:0:
240,148,18022,2,0,L|336:156,1,86
136,228,18438,1,8,0:0:0:0:
40,208,18647,1,0,0:0:0:0:
16,172,18751,1,0,0:0:0:0:
12,128,18855,2,0,P|20:88|60:52,2,86,0|0|8,0:0|0:0|0:0,0:0:0:0:
124,132,19480,1,0,0:0:0:0:
200,64,19688,2,0,L|292:48,1,86
444,92,20105,2,0,P|432:132|396:160,1,86,8|0,0:0|0:0,0:0:0:0:
312,152,20522,5,0,0:0:0:0:
388,24,20730,1,0,0:0:0:0:
472,144,20938,2,0,L|460:240,1,86,8|0,0:0|0:0,0:0:0:0:
376,200,21355,2,0,L|392:292,1,86
192,308,21772,1,8,0:0:0:0:
284,256,21980,1,0,0:0:0:0:
284,256,22188,2,0,L|332:336,1,86
192,308,22605,2,0,L|100:312,1,86,8|0,0:0|0:0,0:0:0:0:
92,228,23022,1,0,0:0:0:0:
24,280,23230,2,0,P|4:320|8:368,1,86,0|8,0:0|0:0,0:0:0:0:
192,308,23647,1,0,0:0:0:0:
92,228,23855,6,0,B|44:184|80:104|80:104|116:132,1,172,0|8,0:0|0:0,0:0:0:0:
256,184,24480,1,0,0:0:0:0:
420,228,24688,2,0,B|468:184|432:104|432:104|402:127,1,172,0|8,0:0|0:0,0:0:0:0:
256,184,25313,1,0,0:0:0:0:
192,100,25522,2,0,P|151:85|110:58,1,86
320,100,25938,2,0,P|360:85|401:58,1,86,8|0,0:0|0:0,0:0:0:0:
120,208,26355,1,0,0:0:0:0:
256,280,26563,1,0,0:0:0:0:
392,208,26772,1,8,0:0:0:0:
209,157,26980,5,8,0:0:0:0:
199,158,27084,1,8,0:0:0:0:
188,160,27188,2,0,P|244:196|308:196,1,129,4|0,0:0|0:0,0:0:0:0:
376,164,27605,2,0,P|402:111|386:43,1,129,8|0,0:0|0:0,0:0:0:0:
312,20,28022,2,0,L|224:28,1,86
72,48,28438,1,8,0:0:0:0:
8,128,28647,1,0,0:0:0:0:
8,128,28751,1,0,0:0:0:0:
8,128,28855,2,0,P|0:172|20:216,1,86
152,304,29272,2,0,P|194:288|222:249,1,86,8|0,0:0|0:0,0:0:0:0:
144,216,29688,1,0,0:0:0:0:
136,116,29897,1,0,0:0:0:0:
220,36,30105,1,8,0:0:0:0:
352,20,30313,1,0,0:0:0:0:
480,92,30522,6,0,P|500:152|481:212,1,129
428,268,30938,2,0,P|368:284|308:260,1,129,8|0,0:0|0:0,0:0:0:0:
264,196,31355,2,0,P|256:152|268:108,1,86
480,92,31772,1,8,0:0:0:0:
428,268,31980,1,0,0:0:0:0:
392,296,32084,1,0,0:0:0:0:
348,312,32188,1,0,0:0:0:0:
308,316,32292,2,0,L|244:304,1,43
60,312,32605,2,0,P|102:317|141:300,1,86,8|0,0:0|0:0,0:0:0:0:
92,180,33022,2,0,P|122:150|129:109,2,86,0|0|8,0:0|0:0|0:0,0:0:0:0:
80,40,33647,1,0,0:0:0:0:
216,120,33855,6,0,P|276:136|336:112,1,129
408,76,34272,2,0,P|468:100|492:160,1,129,8|0,0:0|0:0,0:0:0:0:
492,232,34688,2,0,P|472:268|432:288,1,86
292,200,35105,1,8,0:0:0:0:
408,76,35313,1,0,0:0:0:0:
448,88,35417,1,0,0:0:0:0:
480,116,35522,2,0,P|496:152|496:204,1,86
464,280,35938,2,0,P|436:305|377:310,1,86,8|0,0:0|0:0,0:0:0:0:
244,280,36355,1,0,0:0:0:0:
184,196,36563,1,0,0:0:0:0:
224,88,36772,1,8,0:0:0:0:
352,48,36980,1,0,0:0:0:0:
204,96,37188,6,0,P|160:108|72:96,1,129
276,60,37605,2,0,L|416:60,1,129,8|0,0:0|0:0,0:0:0:0:
484,96,38022,2,0,P|496:152|476:196,1,86
368,252,38438,1,8,0:0:0:0:
232,184,38647,1,0,0:0:0:0:
188,192,38751,1,0,0:0:0:0:
148,200,38855,2,0,P|108:232|116:352,2,172,0|0|0,0:0|0:0|0:0,0:0:0:0:
488,124,40105,5,8,0:0:0:0:
444,116,40209,1,8,0:0:0:0:
404,108,40313,1,8,0:0:0:0:
364,100,40417,1,8,0:0:0:0:
320,88,40522,2,0,B|256:73|256:110|192:88,1,129,4|0,0:0|0:0,0:0:0:0:
120,48,40938,2,0,P|67:32|32:40,1,86,8|0,0:0|0:0,0:0:0:0:
24,260,41355,2,0,B|64:276|104:276|128:244|152:260,1,129,0|0,0:0|0:0,0:0:0:0:
228,300,41772,2,0,P|280:315|316:308,1,86,8|0,0:0|0:0,0:0:0:0:
456,252,42188,1,2,0:0:0:0:
452,96,42397,1,0,0:0:0:0:
312,24,42605,1,8,0:0:0:0:
312,24,43022,5,2,0:0:0:0:
256,112,43230,1,0,0:0:0:0:
156,132,43438,1,8,0:0:0:0:
68,80,43647,1,0,0:0:0:0:
88,200,43855,6,0,L|108:332,1,129,2|0,0:0|0:0,0:0:0:0:
160,224,44272,2,0,P|204:184|276:176,1,129,8|0,0:0|0:0,0:0:0:0:
348,216,44688,2,0,P|388:220|440:208,1,86,2|0,0:0|0:0,0:0:0:0:
504,136,45105,2,0,P|508:96|488:48,1,86,8|0,0:0|0:0,0:0:0:0:
384,16,45522,5,2,0:0:0:0:
236,100,45730,1,0,0:0:0:0:
376,72,45938,1,8,0:0:0:0:
204,128,46147,1,0,0:0:0:0:
368,128,46355,1,2,0:0:0:0:
168,136,46563,1,0,0:0:0:0:
360,184,46772,1,8,0:0:0:0:
128,132,46980,1,0,0:0:0:0:
104,224,47188,6,0,B|148:244|180:196|212:204|212:204|196:216,1,129,2|0,0:0|0:0,0:0:0:0:
64,204,47605,2,0,P|36:172|32:128,1,86,8|0,0:0|0:0,0:0:0:0:
272,124,48022,2,0,P|308:176|304:240,1,129,2|0,0:0|0:0,0:0:0:0:
208,340,48438,2,0,P|168:360|120:356,1,86,8|0,0:0|0:0,0:0:0:0:
48,292,48855,1,2,0:0:0:0:
256,252,49063,1,0,0:0:0:0:
464,292,49272,1,8,0:0:0:0:
464,292,49688,5,2,0:0:0:0:
496,192,49897,1,0,0:0:0:0:
464,92,50105,1,8,0:0:0:0:
376,36,50313,1,0,0:0:0:0:
200,152,50522,6,0,B|156:172|124:124|92:132|92:132|108:144,1,129,2|0,0:0|0:0,0:0:0:0:
248,172,50939,2,0,P|276:140|268:52,1,129,8|0,0:0|0:0,0:0:0:0:
192,24,51355,2,0,L|104:40,1,86,2|0,0:0|0:0,0:0:0:0:
0,200,51772,2,0,L|88:216,1,86,8|0,0:0|0:0,0:0:0:0:
156,300,52188,5,2,0:0:0:0:
320,236,52397,1,0,0:0:0:0:
216,304,52605,1,8,0:0:0:0:
336,176,52813,1,0,0:0:0:0:
272,280,53022,1,2,0:0:0:0:
272,280,53438,6,0,L|224:208,1,86,8|8,0:0|0:0,0:0:0:0:
224,208,53751,1,8,0:0:0:0:
224,208,53855,1,8,0:0:0:0:
120,204,54272,1,8,0:0:0:0:
88,104,54688,5,8,0:0:0:0:
176,48,54897,1,2,0:0:0:0:
260,108,55105,1,8,0:0:0:0:
224,208,55313,1,8,0:0:0:0:
224,208,55417,1,8,0:0:0:0:
224,208,55522,1,4,0:0:0:0:
120,112,60522,5,0,0:0:0:0:
188,168,60730,1,0,0:0:0:0:
232,256,60938,1,2,0:0:0:0:
312,204,61147,1,0,0:0:0:0:
268,116,61355,1,2,0:0:0:0:
408,164,61563,1,10,0:0:0:0:
384,312,61772,1,8,0:0:0:0:
379,294,61876,1,8,0:0:0:0:
375,277,61980,1,8,0:0:0:0:
372,260,62084,1,8,0:0:0:0:
336,328,62188,6,0,P|300:348|256:352,1,86,4|0,0:0|0:0,0:0:0:0:
168,368,62605,2,0,P|132:346|107:310,1,86,8|0,0:0|0:0,0:0:0:0:
108,160,63022,1,0,0:0:0:0:
48,216,63230,1,0,0:0:0:0:
136,236,63438,2,0,P|179:211|193:171,1,86,8|0,0:0|0:0,0:0:0:0:
168,100,63855,2,0,P|125:74|83:83,1,86
28,140,64271,2,0,P|27:189|55:221,1,86,8|0,0:0|0:0,0:0:0:0:
136,236,64688,2,0,P|179:211|193:171,1,86
168,100,65105,2,0,P|125:74|83:83,1,86,8|0,0:0|0:0,0:0:0:0:
264,124,65522,6,0,B|296:132|296:132|332:116|343:76|343:76|352:96,1,129
380,168,65938,1,8,0:0:0:0:
464,68,66147,1,0,0:0:0:0:
496,224,66355,2,0,P|500:268|484:308,1,86
420,360,66772,1,8,0:0:0:0:
292,240,66980,1,0,0:0:0:0:
276,228,67084,1,0,0:0:0:0:
264,216,67188,2,0,P|244:256|208:276,1,86
40,312,67605,2,0,P|32:268|56:228,1,86,8|0,0:0|0:0,0:0:0:0:
208,120,68022,1,0,0:0:0:0:
136,196,68230,1,0,0:0:0:0:
44,148,68438,1,8,0:0:0:0:
112,76,68647,1,0,0:0:0:0:
208,120,68855,6,0,P|268:128|304:116,1,86
408,68,69272,2,0,P|464:92|480:120,1,86,8|0,0:0|0:0,0:0:0:0:
496,196,69688,1,0,0:0:0:0:
484,280,69897,1,0,0:0:0:0:
432,348,70105,1,8,0:0:0:0:
352,376,70313,5,0,0:0:0:0:
168,320,70522,1,0,0:0:0:0:
328,292,70730,1,0,0:0:0:0:
176,272,70938,1,8,0:0:0:0:
348,292,71147,1,0,0:0:0:0:
184,224,71355,5,0,0:0:0:0:
72,276,71563,1,0,0:0:0:0:
192,172,71772,1,8,0:0:0:0:
56,264,71980,1,0,0:0:0:0:
64,124,72188,6,0,P|104:60|160:40,1,129
228,56,72605,2,0,L|312:76,1,86,8|0,0:0|0:0,0:0:0:0:
476,88,73022,2,0,L|392:108,1,86
240,140,73438,2,0,L|324:160,1,86,8|0,0:0|0:0,0:0:0:0:
496,172,73855,1,0,0:0:0:0:
496,172,74063,1,0,0:0:0:0:
292,236,74272,1,8,0:0:0:0:
292,236,74480,1,0,0:0:0:0:
512,296,74688,1,0,0:0:0:0:
272,292,74897,1,0,0:0:0:0:
388,232,75105,1,8,0:0:0:0:
132,208,75313,5,8,0:0:0:0:
160,204,75417,1,8,0:0:0:0:
184,200,75522,2,0,L|184:328,1,129,4|0,0:0|0:0,0:0:0:0:
104,324,75938,2,0,P|58:295|40:213,1,129,8|0,0:0|0:0,0:0:0:0:
52,148,76355,2,0,P|76:110|118:90,1,86,0|0,0:0|0:0,0:0:0:0:
280,96,76772,1,8,0:0:0:0:
184,200,76980,1,0,0:0:0:0:
160,212,77084,1,0,0:0:0:0:
136,228,77188,2,0,P|116:192|120:148,1,86
168,80,77605,2,0,P|208:60|256:60,1,86,8|0,0:0|0:0,0:0:0:0:
396,136,78022,1,0,0:0:0:0:
464,40,78230,1,0,0:0:0:0:
372,144,78438,1,8,0:0:0:0:
488,200,78647,1,0,0:0:0:0:
268,196,78855,6,0,B|152:188|152:188|160:200,1,129
208,260,79272,2,0,P|268:284|328:256,1,129,8|0,0:0|0:0,0:0:0:0:
352,188,79688,2,0,P|336:144|304:120,1,86
160,200,80105,1,8,0:0:0:0:
72,288,80313,1,0,0:0:0:0:
36,264,80417,1,0,0:0:0:0:
24,224,80522,1,0,0:0:0:0:
32,176,80626,2,0,L|64:136,1,43
184,52,80938,2,0,B|224:32|224:32|264:44,1,86,8|0,0:0|0:0,0:0:0:0:
440,112,81355,2,0,P|452:148|436:200,1,86
364,152,81772,2,0,P|352:116|368:64,1,86,8|0,0:0|0:0,0:0:0:0:
440,112,82188,6,0,P|452:160|408:224,1,129,0|0,0:0|0:0,0:0:0:0:
328,228,82605,2,0,B|224:220|224:220|240:240,1,129,8|0,0:0|0:0,0:0:0:0:
384,332,83022,2,0,P|428:324|464:288,1,86
288,324,83438,1,8,0:0:0:0:
172,356,83647,1,0,0:0:0:0:
136,372,83751,1,0,0:0:0:0:
104,376,83855,2,0,P|56:360|32:320,1,86
20,248,84272,2,0,P|32:192|56:168,1,86,8|0,0:0|0:0,0:0:0:0:
236,40,84688,1,0,0:0:0:0:
184,108,84897,1,0,0:0:0:0:
100,132,85105,1,8,0:0:0:0:
20,100,85313,1,0,0:0:0:0:
184,108,85522,6,0,B|236:132|276:112|276:112|316:120,1,129
448,68,85938,2,0,L|316:36,1,129,8|0,0:0|0:0,0:0:0:0:
396,132,86355,2,0,P|388:168|352:200,1,86
268,204,86772,1,8,0:0:0:0:
120,252,86980,1,0,0:0:0:0:
92,264,87084,1,0,0:0:0:0:
68,276,87188,2,0,P|132:328|216:320,2,172,2|2|2,0:0|0:0|0:0,0:0:0:0:
188,188,88438,5,8,0:0:0:0:
76,88,88647,1,8,0:0:0:0:
64,72,88751,1,8,0:0:0:0:
52,56,88855,2,0,P|112:36|196:52,1,129,6|0,0:0|0:0,0:0:0:0:
292,160,89272,2,0,P|300:204|280:244,1,86,8|0,0:0|0:0,0:0:0:0:
190,309,89688,2,0,P|170:249|190:185,1,129,2|0,0:0|0:0,0:0:0:0:
328,84,90105,2,0,P|380:76|420:88,1,86,8|0,0:0|0:0,0:0:0:0:
488,124,90522,1,2,0:0:0:0:
488,296,90730,1,0,0:0:0:0:
328,360,90938,1,8,0:0:0:0:
328,360,91355,6,0,L|344:264,1,86,2|0,0:0|0:0,0:0:0:0:
256,316,91772,2,0,L|272:220,1,86,8|0,0:0|0:0,0:0:0:0:
400,120,92188,2,0,P|344:76|280:80,1,129,2|0,0:0|0:0,0:0:0:0:
208,112,92605,2,0,B|99:108|99:108|116:96,1,129,8|0,0:0|0:0,0:0:0:0:
264,44,93022,2,0,P|288:72|292:120,1,86,2|0,0:0|0:0,0:0:0:0:
240,188,93438,2,0,P|200:196|160:180,1,86,8|0,0:0|0:0,0:0:0:0:
208,112,93855,1,2,0:0:0:0:
132,244,94063,1,0,0:0:0:0:
224,152,94272,1,8,0:0:0:0:
96,280,94480,1,0,0:0:0:0:
240,188,94689,1,2,0:0:0:0:
48,288,94897,1,0,0:0:0:0:
256,224,95105,1,8,0:0:0:0:
0,272,95313,1,0,0:0:0:0:
220,332,95522,6,0,B|280:348|320:312|320:312|344:320,1,129,2|0,0:0|0:0,0:0:0:0:
420,324,95938,2,0,B|468:308|476:264,1,86,8|0,0:0|0:0,0:0:0:0:
456,88,96355,2,0,B|420:44|361:52|361:52|372:80,1,129,2|0,0:0|0:0,0:0:0:0:
376,160,96772,2,0,P|356:196|308:212,1,86,8|0,0:0|0:0,0:0:0:0:
232,212,97188,1,2,0:0:0:0:
64,176,97397,1,0,0:0:0:0:
156,32,97605,1,8,0:0:0:0:
172,52,98022,6,0,P|188:92|172:140,1,86,2|0,0:0|0:0,0:0:0:0:
100,172,98438,2,0,B|12:184,1,86,8|0,0:0|0:0,0:0:0:0:
180,216,98855,2,0,B|232:200|270:222|270:222|308:216,1,129,2|0,0:0|0:0,0:0:0:0:
392,224,99272,2,0,P|440:188|432:116,1,129,8|0,0:0|0:0,0:0:0:0:
376,68,99688,2,0,L|284:72,1,86,2|0,0:0|0:0,0:0:0:0:
104,116,100105,2,0,L|196:120,1,86,8|0,0:0|0:0,0:0:0:0:
356,84,100522,5,2,0:0:0:0:
221,178,100731,1,0,0:0:0:0:
310,115,100938,1,8,0:0:0:0:
176,208,101147,1,0,0:0:0:0:
265,147,101356,1,2,0:0:0:0:
233,108,101772,6,0,L|286:178,1,86,8|8,0:0|0:0,0:0:0:0:
284,176,102085,1,8,0:0:0:0:
284,176,102189,1,8,0:0:0:0:
388,180,102606,1,8,0:0:0:0:
420,280,103022,5,8,0:0:0:0:
332,336,103231,1,2,0:0:0:0:
248,276,103439,1,8,0:0:0:0:
284,176,103647,1,8,0:0:0:0:
284,176,103751,1,8,0:0:0:0:
284,176,103856,1,6,0:0:0:0:
360,108,130313,5,0,0:0:0:0:
100,120,130522,2,0,L|192:132,1,86,4|0,0:0|0:0,0:0:0:0:
88,104,131147,1,0,0:0:0:0:
384,148,131355,2,0,L|292:160,1,86,0|0,0:0|0:0,0:0:0:0:
396,132,131980,1,0,0:0:0:0:
112,192,132188,2,0,L|204:204,1,86
100,176,132813,1,0,0:0:0:0:
376,228,133022,2,0,L|284:240,1,86,0|0,0:0|0:0,0:0:0:0:
256,140,133647,5,0,0:0:0:0:
168,164,133855,2,0,P|128:164|88:140,1,86
256,140,134480,1,0,0:0:0:0:
344,164,134688,2,0,P|384:164|424:140,1,86,0|0,0:0|0:0,0:0:0:0:
256,248,135313,1,0,0:0:0:0:
208,320,135522,2,0,P|168:344|124:344,1,86,0|0,0:0|0:0,0:0:0:0:
256,248,136147,1,0,0:0:0:0:
300,320,136356,2,0,P|340:344|384:344,1,86,0|8,0:0|0:0,0:0:0:0:
500,260,136772,5,8,0:0:0:0:
500,232,136876,1,8,0:0:0:0:
492,212,136980,1,8,0:0:0:0:
476,196,137084,1,8,0:0:0:0:
484,172,137188,2,0,P|496:128|480:80,1,86,4|0,0:0|0:0,0:0:0:0:
420,32,137605,2,0,P|376:24|332:36,1,86,8|0,0:0|0:0,0:0:0:0:
268,84,138022,1,0,0:0:0:0:
264,168,138230,1,0,0:0:0:0:
324,232,138438,1,8,0:0:0:0:
412,232,138647,1,0,0:0:0:0:
324,232,138855,2,0,L|232:256,1,86
264,168,139272,2,0,B|176:192,1,86,8|0,0:0|0:0,0:0:0:0:
100,160,139688,2,0,L|8:144,1,86
112,240,140105,2,0,L|20:224,1,86,8|0,0:0|0:0,0:0:0:0:
132,320,140522,6,0,B|28:304|28:304|52:320,1,129
212,344,140938,2,0,B|300:336,1,86,8|0,0:0|0:0,0:0:0:0:
436,360,141355,2,0,P|464:316|460:268,1,86
420,208,141772,1,8,0:0:0:0:
320,96,141980,1,0,0:0:0:0:
320,96,142084,1,0,0:0:0:0:
320,96,142188,1,0,0:0:0:0:
444,48,142397,1,0,0:0:0:0:
328,136,142605,2,0,P|280:156|232:152,1,86,8|0,0:0|0:0,0:0:0:0:
208,232,143022,2,0,P|168:224|128:192,1,86
64,252,143438,2,0,P|33:225|14:177,1,86,8|0,0:0|0:0,0:0:0:0:
64,52,143855,5,0,0:0:0:0:
216,88,144063,1,0,0:0:0:0:
60,88,144272,1,8,0:0:0:0:
216,88,144480,1,0,0:0:0:0:
68,120,144688,1,0,0:0:0:0:
216,88,144897,1,0,0:0:0:0:
84,152,145105,1,8,0:0:0:0:
216,88,145313,1,0,0:0:0:0:
112,184,145522,2,0,P|140:212|184:224,1,86
312,176,145938,2,0,L|408:184,1,86,8|0,0:0|0:0,0:0:0:0:
483,170,146355,2,0,P|511:130|511:94,1,86
426,107,146772,2,0,P|398:147|398:183,1,86,8|0,0:0|0:0,0:0:0:0:
452,248,147188,6,0,P|456:300|360:352,1,172,0|8,0:0|0:0,0:0:0:0:
280,332,147813,2,0,B|188:344,2,86,0|0|0,0:0|0:0|0:0,0:0:0:0:
340,268,148438,2,0,P|344:226|320:184,1,86,8|0,0:0|0:0,0:0:0:0:
248,148,148855,1,0,0:0:0:0:
96,232,149063,1,0,0:0:0:0:
248,232,149272,1,8,0:0:0:0:
56,200,149480,1,0,0:0:0:0:
188,296,149688,5,0,0:0:0:0:
40,152,149897,1,0,0:0:0:0:
124,56,150105,1,8,0:0:0:0:
256,48,150313,1,8,0:0:0:0:
284,56,150417,1,8,0:0:0:0:
305,83,150522,6,0,B|346:39|403:43|403:43|400:64,1,129,4|0,0:0|0:0,0:0:0:0:
299,177,150938,2,0,B|240:162|214:111|214:111|237:108,1,129,8|0,0:0|0:0,0:0:0:0:
384,136,151355,2,0,P|393:174|380:225,1,86
308,264,151772,1,8,0:0:0:0:
144,292,151980,1,0,0:0:0:0:
120,296,152084,1,0,0:0:0:0:
96,304,152188,2,0,P|44:280|28:236,1,86
124,168,152605,2,0,L|220:148,1,86,8|0,0:0|0:0,0:0:0:0:
280,200,153022,2,0,P|276:244|236:276,1,86
20,164,153438,2,0,P|24:120|64:88,1,86,8|0,0:0|0:0,0:0:0:0:
156,48,153855,6,0,B|188:33|219:59|250:72|283:62,1,129
356,36,154272,2,0,P|408:28|464:76,1,129,8|0,0:0|0:0,0:0:0:0:
476,152,154688,2,0,L|452:248,1,86
334,312,155105,1,8,0:0:0:0:
334,312,155313,1,0,0:0:0:0:
310,276,155417,1,0,0:0:0:0:
306,232,155522,1,0,0:0:0:0:
314,192,155626,1,0,0:0:0:0:
338,156,155730,1,0,0:0:0:0:
235,313,155938,2,0,B|214:346|214:346|156:352,1,86,8|0,0:0|0:0,0:0:0:0:
61,354,156355,2,0,P|10:308|17:247,1,129
93,190,156772,1,8,0:0:0:0:
28,68,156980,1,0,0:0:0:0:
28,68,157188,6,0,P|88:52|152:68,1,129,0|0,0:0|0:0,0:0:0:0:
212,120,157605,2,0,P|232:172|216:248,1,129,8|0,0:0|0:0,0:0:0:0:
148,280,158022,2,0,L|60:288,1,86
220,320,158438,1,8,0:0:0:0:
220,320,158647,1,0,0:0:0:0:
244,336,158751,1,0,0:0:0:0:
272,352,158855,2,0,L|360:336,1,86
468,336,159272,2,0,P|488:280|476:240,1,86,8|0,0:0|0:0,0:0:0:0:
424,192,159688,1,0,0:0:0:0:
344,220,159897,1,0,0:0:0:0:
408,276,160105,1,8,0:0:0:0:
508,176,160313,1,0,0:0:0:0:
392,76,160522,6,0,P|336:56|264:80,1,129
212,124,160938,2,0,B|186:175|216:228|216:228|196:216,1,129,8|0,0:0|0:0,0:0:0:0:
120,168,161355,1,0,0:0:0:0:
304,172,161563,1,0,0:0:0:0:
128,252,161772,2,0,P|80:244|52:216,1,86,8|0,0:0|0:0,0:0:0:0:
40,180,162084,1,0,0:0:0:0:
44,136,162188,2,0,B|48:68|100:56|100:56|168:80,1,172,0|8,0:0|0:0,0:0:0:0:
468,136,163022,2,0,B|464:68|412:56|412:56|344:80,1,172,0|8,0:0|0:0,0:0:0:0:
256,56,163647,1,8,0:0:0:0:
256,84,163751,1,8,0:0:0:0:
256,112,163855,6,0,L|256:240,1,129,6|0,0:0|0:0,0:0:0:0:
208,312,164272,2,0,P|168:328|120:316,1,86,8|0,0:0|0:0,0:0:0:0:
256,112,164688,2,0,L|256:240,1,129,2|0,0:0|0:0,0:0:0:0:
304,312,165105,2,0,P|344:328|392:316,1,86,8|0,0:0|0:0,0:0:0:0:
156,204,165522,1,2,0:0:0:0:
356,204,165730,1,0,0:0:0:0:
256,241,165938,1,8,0:0:0:0:
256,241,166355,6,0,P|264:196|252:152,1,86,2|0,0:0|0:0,0:0:0:0:
188,100,166772,2,0,P|144:92|96:112,1,86,8|0,0:0|0:0,0:0:0:0:
48,168,167188,2,0,B|28:228|72:268|72:268|92:248,1,129,2|0,0:0|0:0,0:0:0:0:
156,204,167605,2,0,L|168:336,1,129,8|0,0:0|0:0,0:0:0:0:
244,372,168022,2,0,P|288:376|328:356,1,86,2|0,0:0|0:0,0:0:0:0:
392,308,168438,2,0,P|416:272|420:228,1,86,8|0,0:0|0:0,0:0:0:0:
400,148,168855,1,2,0:0:0:0:
248,152,169063,1,0,0:0:0:0:
348,80,169272,1,8,0:0:0:0:
240,192,169480,1,0,0:0:0:0:
272,40,169688,1,2,0:0:0:0:
248,228,169897,1,0,0:0:0:0:
188,32,170105,1,8,0:0:0:0:
268,260,170313,1,0,0:0:0:0:
48,152,170522,6,0,P|104:180|176:172,1,129,2|0,0:0|0:0,0:0:0:0:
300,128,170938,2,0,L|396:140,1,86,8|0,0:0|0:0,0:0:0:0:
476,228,171355,2,0,P|472:288|412:336,1,129,2|0,0:0|0:0,0:0:0:0:
288,284,171772,2,0,L|196:276,1,86,8|0,0:0|0:0,0:0:0:0:
88,320,172188,1,2,0:0:0:0:
8,168,172397,1,0,0:0:0:0:
100,24,172605,1,8,0:0:0:0:
116,56,173022,6,0,P|156:80|208:76,1,86,2|0,0:0|0:0,0:0:0:0:
460,160,173438,2,0,P|420:172|364:160,1,86,8|0,0:0|0:0,0:0:0:0:
304,128,173855,2,0,B|256:80|272:32|272:32|296:40,1,129,2|0,0:0|0:0,0:0:0:0:
424,104,174272,2,0,P|456:156|440:220,1,129,8|0,0:0|0:0,0:0:0:0:
376,264,174688,2,0,L|284:280,1,86,2|0,0:0|0:0,0:0:0:0:
304,204,175105,2,0,L|212:220,1,86,8|0,0:0|0:0,0:0:0:0:
219,218,175522,1,2,0:0:0:0:
176,312,175730,1,0,0:0:0:0:
72,300,175938,1,8,0:0:0:0:
52,200,176147,1,0,0:0:0:0:
144,152,176355,1,2,0:0:0:0:
328,56,176772,5,8,0:0:0:0:
424,96,176980,1,8,0:0:0:0:
448,108,177084,1,8,0:0:0:0:
468,120,177188,2,0,P|492:208|440:264,1,172,4|8,0:0|0:0,0:0:0:0:
240,228,178022,2,0,P|216:140|268:84,1,172,8|2,0:0|0:0,0:0:0:0:
356,176,178855,5,4,0:0:0:0:
216,304,179480,2,0,L|120:296,1,86
240,168,180313,2,0,L|325:175,1,86
212,296,181147,2,0,L|117:279,1,86
248,176,181980,2,0,L|332:190,1,86
212,288,182813,2,0,L|118:263,1,86
256,188,183646,2,0,L|339:209,1,86
216,276,184480,2,0,L|128:235,1,86
268,200,185313,6,0,L|320:196,2,43,0|0|4,0:0|0:0|0:0,0:0:0:0:
200,183,185730,1,0,0:0:0:0:
248,133,185938,1,0,0:0:0:0:
193,90,186147,1,0,0:0:0:0:
319,132,186355,1,0,0:0:0:0:
294,67,186563,1,0,0:0:0:0:
369,185,186772,1,0,0:0:0:0:
393,120,186980,1,0,0:0:0:0:
339,277,187188,5,0,0:0:0:0:
256,312,187605,1,0,0:0:0:0:
173,277,188022,1,0,0:0:0:0:
