osu file format v9

[General]
AudioFilename: Ode to Jarby.mp3
AudioLeadIn: 0
PreviewTime: 91110
Countdown: 0
SampleSet: Soft
StackLeniency: 0.7
Mode: 0
LetterboxInBreaks: 0

[Editor]
Bookmarks: 83458
DistanceSpacing: 1
BeatDivisor: 4
GridSize: 4

[Metadata]
Title:Ode to Jarby
Artist:daniwell-P & La Roux
Creator:SapphireGhost
Version:Normal
Source:
Tags:OzzyOzrock Tiger and Bunny Nyan Cat Nyanyanyanyanyanyanya Momone Momo UTAU Cover My Eyes

[Difficulty]
HPDrainRate:4
CircleSize:4
OverallDifficulty:4
ApproachRate:4
SliderMultiplier:1.43999990463257
SliderTickRate:2

[Events]
//Background and Video events
Video,0,"NotShinta - Aha.flv"
0,0,"I HAVE TO COOOVER MY EYES.png"
//Break Periods
2,36134,41575
2,83881,90212
//Storyboard Layer 0 (Background)
//Storyboard Layer 1 (Fail)
//Storyboard Layer 2 (Pass)
//Storyboard Layer 3 (Foreground)
//Storyboard Sound Samples
//Background Colour Transformations
3,100,255,255,128

[TimingPoints]
5712,422.535211267606,4,1,0,65,1,0
91110,422.535211267606,4,1,0,65,1,0
91532,-133.333333333333,4,1,0,65,0,0
104314,-200,4,2,1,65,0,0

[HitObjects]
40,136,9092,2,0,B|64:60|148:24|232:60|256:136,1,287.999980926514,0|8
184,260,10360,1,2
312,192,10782,2,0,B|348:177|388:194|405:234|391:271,1,143.999990463257,0|8
412,344,11416,1,0
340,332,11627,2,0,B|303:346|263:329|246:289|260:252,1,143.999990463257,2|0
192,120,12472,6,0,B|168:68|108:36|48:68|24:120,1,215.999985694886,4|0
23,193,13318,2,0,B|47:245|107:277|167:245|191:193,1,215.999985694886,8|0
256,156,14163,1,2
376,236,14585,1,0
256,312,15008,1,8
116,60,15853,6,0,B|143:109|111:157|81:145|51:133|19:180|47:230,1,215.999985694886,4|0
84,292,16698,1,2
200,208,17120,2,0,B|212:176|256:148|300:176|312:208,1,143.999990463257,0|8
256,340,17965,2,0,B|256:248,2,71.9999952316285,0|0|2
428,292,18811,1,8
408,148,19233,6,0,B|422:109|405:70|366:53|329:67,1,143.999990463257,2|0
184,68,20078,2,0,B|147:53|107:70|90:110|105:148,1,143.999990463257,2|0
160,280,20923,2,0,B|160:208|256:140|352:208|352:280,1,287.999980926514,4|0
292,324,21980,1,0
220,324,22191,1,8
84,280,22613,6,0,B|44:238|53:172|92:119|149:116,1,215.999985694886,2|0
196,60,23458,2,0,B|224:104|288:104|316:60,1,143.999990463257,0|8
360,116,24092,1,0
316,172,24303,1,2
170,265,24726,1,0
342,265,25149,1,8
196,172,25571,1,4
308,78,25994,6,2,B|350:47|418:49|469:95|478:146,1,215.999985694886,2|0
421,192,26839,2,0,B|379:231|319:207|317:150,1,143.999990463257,8|0
180,192,27684,6,0,B|137:161|69:163|18:209|9:260,1,215.999985694886,4|0
67,306,28529,2,0,B|108:345|168:321|170:264,1,143.999990463257,2|0
184,112,29374,6,0,B|328:112,1,143.999990463257,0|8
388,150,30008,1,0
328,188,30219,2,0,B|184:188,1,143.999990463257,2|0
68,272,31064,2,0,B|144:364|256:393|368:364|444:272,1,431.999971389771,4|0
316,164,32754,6,8,B|300:136|256:112|212:136|196:164,1,143.999990463257,0|8
196,236,33388,2,0,B|212:264|256:288|300:264|316:236,1,143.999990463257,0|0
256,200,34022,1,8
116,164,34444,1,2
184,36,34867,1,0
328,36,35289,1,8
396,164,35712,1,2
256,192,42895,5,4
348,80,43318,2,0,B|368:48|408:32|448:48|468:80,1,143.999990463257,8|0
407,119,43951,1,0
412,124,44163,2,2,B|411:268,1,143.999990463257,2|4
292,352,45008,2,0,B|212:352,1,71.9999952316285,8|0
168,300,45430,2,0,B|176:204|256:172|336:204|344:300,1,287.999980926514,2|4
440,192,46698,5,8
412,52,47120,2,0,B|397:88|356:104|316:88|300:52,1,143.999990463257,2|0
256,112,47754,1,0
212,50,47965,2,0,B|195:88|155:104|114:88|100:52,2,143.999990463257,2|0|0
256,192,49233,1,8
365,288,49656,6,0,B|449:180|387:61|268:0|161:84,1,431.999971389771,2|0
148,288,51346,2,0,B|63:180|125:61|244:0|351:84,1,431.999971389771,2|0
184,188,53036,6,0,B|192:124|256:95|320:124|328:188,2,215.999985694886,2|8|2
188,332,54726,2,2,B|179:295|196:255|236:238|272:247,1,143.999990463257,2|0
324,300,55360,2,0,B|332:336|315:376|275:393|239:384,1,143.999990463257,2|8
256,316,55994,1,8
112,300,56416,6,2,B|55:247|105:176|153:196|202:215|252:145|195:92,1,287.999980926514,2|0
256,48,57472,1,0
256,48,57684,2,0,B|340:48,1,71.9999952316285,8|0
388,92,58106,5,0
328,224,58529,1,2
184,224,58951,1,0
124,92,59374,1,8
256,32,59796,6,2,B|306:15|371:40|397:105|380:156,1,215.999985694886,2|0
323,213,60642,2,0,B|272:229|207:204|181:139|198:88,1,215.999985694886,2|0
124,104,61487,2,0,B|105:234|216:301|343:330|420:223,1,431.999971389771,8|4
472,136,63177,6,0,B|448:60|364:24|280:60|256:136,1,287.999980926514,0|8
328,260,64444,1,2
200,192,64867,2,0,B|164:177|124:194|107:234|121:271,1,143.999990463257,0|8
100,344,65501,1,0
172,332,65712,2,0,B|209:346|249:329|266:289|252:252,1,143.999990463257,2|0
320,120,66557,6,0,B|344:68|404:36|464:68|488:120,1,215.999985694886,4|0
489,193,67402,2,0,B|465:245|405:277|345:245|321:193,1,215.999985694886,8|0
256,156,68247,1,2
136,236,68670,1,0
256,312,69092,1,8
396,60,69937,6,0,B|369:109|401:157|431:145|461:133|493:180|465:230,1,215.999985694886,4|0
428,292,70782,1,2
312,208,71205,2,0,B|300:176|256:148|212:176|200:208,1,143.999990463257,0|8
256,340,72050,2,0,B|256:248,2,71.9999952316285,0|0|2
84,292,72895,1,8
104,148,73318,6,0,B|90:109|107:70|146:53|183:67,1,143.999990463257,2|0
328,68,74163,2,0,B|365:53|405:70|422:110|407:148,1,143.999990463257,2|0
352,280,75008,2,0,B|352:208|256:140|160:208|160:280,1,287.999980926514,4|0
220,324,76064,1,0
292,324,76275,1,8
428,280,76698,6,0,B|468:238|459:172|420:119|363:116,1,215.999985694886,2|0
316,60,77543,2,0,B|288:104|224:104|196:60,1,143.999990463257,0|8
152,116,78177,1,0
196,172,78388,1,2
342,265,78811,1,0
170,265,79233,1,8
316,172,79656,1,4
256,192,80078,12,4,83458
100,192,91532,5,8
192,140,91955,2,0,B|220:84|292:84|320:140,2,161.999984443188,2|4|0
208,248,93645,2,0,B|232:276|280:276|304:248,1,107.999989628792,0|8
360,156,94490,6,2,B|360:60|256:12|152:60|152:156,1,323.999968886377,2|0
256,188,96180,2,0,B|256:244|256:244|264:260|264:260|248:260|248:260|256:276|256:276|256:340,2,161.999984443188,4|0|8
181,112,97870,6,0,B|189:56|263:26|307:60,2,161.999984443188,0|2|0
225,212,99560,2,0,B|269:246|343:216|351:160,2,161.999984443188,4|0|2
160,300,101250,6,0,B|188:340|256:356|324:340|352:300,1,215.999979257584
420,216,102518,1,8
384,112,102940,1,4
128,112,103786,1,2
256,324,104631,6,0,B|160:324|112:240|148:152|232:168|256:100|256:100|280:168|364:152|384:236|352:296|316:304,1,575.999961853028,0|4
