osu file format v9

[General]
AudioFilename: Ode to Jarby.mp3
AudioLeadIn: 0
PreviewTime: 91110
Countdown: 0
SampleSet: Soft
StackLeniency: 0.7
Mode: 0
LetterboxInBreaks: 0

[Editor]
Bookmarks: 83458
DistanceSpacing: 1
BeatDivisor: 4
GridSize: 4

[Metadata]
Title:Ode to Jarby
Artist:daniwell-P & La Roux
Creator:SapphireGhost
Version:Insane
Source:
Tags:OzzyOzrock Tiger and Bunny Nyan Cat Nyanyanyanyanyanyanya Momone Momo UTAU Cover My Eyes

[Difficulty]
HPDrainRate:8
CircleSize:4
OverallDifficulty:8
ApproachRate:8
SliderMultiplier:2.39999990463257
SliderTickRate:2

[Events]
//Background and Video events
Video,0,"NotShinta - Aha.flv"
0,0,"I HAVE TO COOOVER MY EYES.png"
//Break Periods
2,36345,42145
2,83881,90782
//Storyboard Layer 0 (Background)
//Storyboard Layer 1 (Fail)
//Storyboard Layer 2 (Pass)
//Storyboard Layer 3 (Foreground)
//Storyboard Sound Samples
//Background Colour Transformations
3,100,255,255,128

[TimingPoints]
5712,422.535211267606,4,1,0,65,1,0
91110,422.535211267606,4,1,0,65,1,0
91321,-133.333333333333,4,1,0,65,0,0
104314,-200,4,2,1,65,0,0

[HitObjects]
172,104,9092,1,0
256,192,9303,1,0
340,104,9515,2,0,B|393:67|472:84|495:169|458:222,1,239.999990463257,8|0
396,324,10149,1,0
308,244,10360,2,0,B|284:276|228:276|204:244,1,119.999995231628,2|0
152,136,10782,6,0,B|176:104|232:104|256:136,1,119.999995231628,4|0
264,148,11099,1,0
272,160,11205,1,8
392,160,11416,1,0
408,280,11627,2,0,B|382:259|346:256|322:283|318:315,1,119.999995231628,2|0
196,316,12050,1,8
184,316,12156,1,0
172,316,12261,1,0
160,316,12367,1,0
148,316,12472,6,0,B|24:316,1,119.999995231628,2|0
84,208,12895,2,2,B|112:164|164:172|188:208|212:244|264:252|292:208,1,239.999990463257,2|0
308,88,13529,2,0,B|284:56|228:56|204:88,2,119.999995231628,0|8|0
372,196,14163,2,0,B|326:236|326:236|326:295,1,119.999995231629,2|0
184,296,14585,2,0,B|183:236|183:236|138:196,1,119.999995231629,8|0
256,148,15008,1,4
256,136,15113,1,0
256,124,15219,1,0
256,244,15430,2,0,B|256:364,1,119.999995231629,2|0
184,248,15853,6,0,B|184:168|256:144|328:168|328:248,2,239.999990463257,0|0|2
172,248,16803,1,0
160,248,16909,1,0
192,116,17120,2,0,B|197:75|158:35|118:41,1,119.999995231628,4|0
320,116,17543,2,0,B|314:75|353:35|393:41,1,119.999995231628,8|0
424,156,17965,1,2
320,216,18177,1,0
304,336,18388,1,0
292,336,18494,1,0
280,336,18599,1,8
268,336,18705,1,0
256,336,18811,1,8
244,336,18916,1,0
232,336,19022,1,8
220,336,19127,1,8
208,336,19233,5,4
192,216,19444,1,2
128,112,19656,2,0,B|153:91|189:88|213:115|217:146,1,119.999995231628,8|0
384,112,20078,2,0,B|358:91|322:88|298:115|294:146,1,119.999995231628,2|0
320,264,20501,2,2,B|332:344|256:380|180:344|192:264,1,239.999990463257,2|0
96,192,21134,1,0
16,104,21346,1,8
28,108,21451,1,0
40,112,21557,1,0
136,40,21768,2,0,B|260:40,1,119.999995231629,2|0
376,40,22191,2,0,B|252:40,1,119.999995231629,4|0
316,144,22613,6,2,B|316:164|316:164|316:228|256:256|196:228|196:164|196:164|196:144,1,239.999990463257,2|0
88,192,23247,1,2
198,291,23458,2,0,B|256:314|314:291,1,119.999995231629,0|2
424,192,23881,1,2
412,192,23987,1,0
400,192,24092,1,0
372,76,24303,2,0,B|332:70|292:109|298:149,1,119.999995231628,0|8
140,76,24726,2,0,B|179:70|219:109|213:149,1,119.999995231628,8|0
196,268,25149,2,0,B|340:268,1,119.999995231629,0|8
436,268,25571,1,8
440,256,25677,1,0
436,244,25782,1,0
432,232,25888,1,0
436,220,25994,5,2
316,192,26205,1,0
196,192,26416,2,2,B|278:160|258:68|164:48|133:129,1,239.999990463257,2|0
40,52,27050,1,0
0,164,27261,2,0,B|-11:226|45:260|73:231|96:209|152:243|141:305,1,239.999990463257,2|0
256,348,27895,1,0
240,228,28106,2,0,B|305:215|343:269,1,119.999995231629,8|8
212,156,28529,2,0,B|344:127|419:239,1,239.999990463257,0|8
284,40,29374,5,4
171,75,29585,1,0
160,80,29691,1,0
148,84,29796,1,2
96,192,30008,1,0
172,284,30219,2,0,B|208:258|257:285|255:330,1,119.999995231629,2|0
340,284,30642,2,0,B|303:258|254:285|256:330,1,119.999995231629,8|0
256,212,31064,1,4
256,212,31275,1,0
300,100,31487,5,2
288,95,31592,1,0
277,91,31698,1,0
266,86,31803,1,0
255,82,31909,1,0
180,176,32120,1,2
168,176,32226,1,0
156,176,32332,1,0
36,176,32543,1,8
92,280,32754,6,0,B|155:362|267:360|348:284|336:181,1,359.999985694885,4|0
174,181,33599,2,2,B|163:284|244:360|356:362|420:280,1,359.999985694885,2|0
500,192,34444,1,2
380,192,34656,1,0
368,188,34761,1,0
356,192,34867,1,0
344,196,34972,1,0
332,192,35078,1,0
320,188,35184,1,0
308,192,35289,1,0
296,196,35395,1,0
284,192,35501,1,8
272,188,35606,1,0
260,192,35712,1,0
140,192,35923,1,8
140,192,36134,1,2
256,192,42895,5,4
360,136,43106,1,0
328,252,43318,2,2,B|287:309|213:300|154:255|164:186,1,239.999990463257,2|0
196,72,43951,1,0
80,108,44163,2,0,B|109:141|88:193|44:197,1,119.999995231629,8|0
80,312,44585,1,2
176,240,44796,1,0
256,332,45008,1,8
256,320,45113,1,0
256,308,45219,1,0
256,296,45325,1,0
256,284,45430,1,0
256,164,45642,2,0,B|256:124|256:124|251:112|251:112|261:112|261:112|256:100|256:100|256:56,2,119.999995231629,0|8|0
364,112,46275,6,2,B|436:120|468:192|436:264|364:272,1,239.999990463257,2|0
256,324,46909,1,2
160,254,47120,2,0,B|181:228|184:192|157:168|125:164,1,119.999995231628,0|2
208,76,47543,1,2
220,80,47649,1,0
232,84,47754,1,0
244,88,47860,1,0
256,92,47965,1,4
328,192,48177,1,0
184,192,48388,1,8
256,300,48599,1,0
112,300,48811,2,2,B|127:252|143:192|87:64|-16:104|-44:192|-16:280|87:320|143:192|127:132|112:84,1,479.999980926514,2|2
220,128,49867,5,0
316,56,50078,2,0,B|381:36|443:64|471:126|451:191,1,239.999990463257,8|0
384,292,50712,1,0
256,292,50923,1,2
244,292,51029,1,0
232,292,51134,1,0
220,292,51240,1,0
208,292,51346,2,0,B|204:260|180:233|144:236|118:257,1,119.999995231628,4|0
20,192,51768,1,8
68,80,51980,1,0
188,80,52191,2,2,B|118:129|170:204|261:216|255:148|249:80|340:91|392:166|320:213,1,359.999985694885,2|0
256,316,53036,5,4
376,316,53247,1,0
388,312,53353,1,0
400,308,53458,1,8
376,192,53670,1,0
256,192,53881,2,0,B|217:232|133:235|77:172|79:116,1,239.999990463257,2|0
191,100,54515,2,2,B|78:365,1,239.999990463257,2|0
208,320,55149,2,0,B|224:290|256:274|288:290|304:318,1,119.999995231628,2|0
256,208,55571,1,4
256,196,55677,1,0
256,184,55782,1,0
256,172,55888,1,0
256,160,55994,1,8
256,40,56205,1,0
376,40,56416,6,0,B|363:105|417:143,1,119.999995231629,2|0
428,136,56733,1,0
436,124,56839,2,0,B|370:111|332:165,1,119.999995231629,2|0
328,176,57156,1,0
324,188,57261,2,0,B|300:324,1,119.999995231629,4|8
424,292,57684,2,0,B|425:235|369:172|285:175|246:215,1,239.999990463257,8|2
256,96,58318,1,0
136,96,58529,2,0,B|80:112|68:164|104:180|132:192|104:204|68:220|80:272|136:288,1,239.999990463257,4|0
192,184,59163,1,0
256,288,59374,1,8
320,184,59585,1,0
296,68,59796,6,0,B|408:112,1,119.999995231629,2|0
216,68,60219,2,0,B|104:112,1,119.999995231629,2|0
192,184,60642,2,2,B|180:264|256:298|332:264|320:184,1,239.999990463257,0|2
364,296,61275,1,0
148,296,61487,1,8
256,200,61698,1,0
267,194,61803,1,0
272,183,61909,1,0
278,171,62015,1,0
289,166,62120,1,8
301,160,62226,1,0
306,149,62332,1,8
312,137,62437,1,0
323,132,62543,1,8
335,126,62649,1,8
340,115,62754,1,0
172,115,62965,1,2
256,276,63177,5,4
376,276,63388,1,0
340,164,63599,2,2,B|328:92|256:72|184:92|172:164,1,239.999990463257
136,276,64233,1,0
256,180,64444,1,8
376,276,64656,1,0
320,124,64867,2,0,B|273:67|201:86|148:139|174:208,1,239.999990463257,2|8
256,300,65501,1,0
280,184,65712,1,4
268,184,65818,1,0
256,184,65923,1,8
244,184,66029,1,0
232,184,66134,1,8
112,184,66346,1,2
208,112,66557,6,0,B|223:82|255:65|288:81|304:109,1,119.999995231628,4|0
420,144,66980,2,2,B|457:197|440:276|355:299|302:262,1,239.999990463257,2|0
256,372,67613,1,2
210,261,67825,2,0,B|157:299|72:276|55:197|92:144,1,239.999990463257,2|8
208,112,68458,1,0
220,112,68564,1,0
232,112,68670,1,0
346,76,68881,1,8
346,196,69092,2,0,B|320:175|284:172|260:199|256:231,1,119.999995231628,4|8
166,196,69515,2,0,B|192:175|228:172|252:199|256:231,1,119.999995231628,8|0
352,288,69937,6,2,B|332:348|256:364|180:348|160:288,1,239.999990463257,2|2
88,192,70571,1,0
196,136,70782,2,0,B|324:136,1,119.999995231629,4|8
256,32,71205,2,0,B|384:32,1,119.999995231629,2|0
440,136,71627,2,0,B|384:175|397:240,1,119.999995231629,4|0
408,240,71944,1,0
420,240,72050,2,0,B|354:226|315:282,1,119.999995231629,8|0
256,180,72472,1,2
256,192,72578,1,0
256,204,72684,1,0
256,216,72789,1,0
256,228,72895,1,0
256,348,73106,1,8
152,288,73318,6,0,B|86:307|24:279|-3:217|16:152,1,239.999990463257,0|2
104,68,73951,1,0
204,136,74163,2,0,B|224:112|256:100|288:112|308:136,1,119.999995231629,0|8
332,264,74585,1,2
180,264,74796,1,0
292,200,75008,2,0,B|280:120|356:84|432:120|420:199,1,239.999990463257,4|0
392,316,75642,1,8
268,316,75853,1,2
256,316,75958,1,0
244,316,76064,1,0
148,244,76275,2,0,B|172:224|184:192|172:160|148:140,1,119.999995231629,2|0
64,56,76698,5,4
184,76,76909,1,0
256,172,77120,2,0,B|256:292,1,119.999995231629,8|0
336,200,77543,2,0,B|339:168|363:141|399:144|425:165,1,119.999995231628,2|0
176,200,77965,2,0,B|172:168|148:141|112:144|86:165,2,119.999995231628,0|2|8
328,76,78599,1,0
448,56,78811,1,4
448,68,78916,1,0
448,80,79022,1,0
448,92,79127,1,0
448,104,79233,1,8
448,116,79339,1,0
448,128,79444,1,0
448,140,79550,1,8
448,152,79656,1,0
448,164,79761,1,0
448,176,79867,1,8
448,188,79972,1,0
256,192,80078,12,4,83458
216,48,91532,6,0,B|232:32|256:24|280:32|296:48,1,89.9999937415126,8|0
340,128,91955,2,2,B|304:152|256:168|208:152|172:128,1,179.999987483025,2|0
124,208,92588,2,0,B|172:193|218:224|232:278|202:319,1,179.999987483025,4|0
256,384,93222,1,8
310,319,93433,2,2,B|279:278|293:224|339:193|388:208,1,179.999987483025,2|0
432,128,94067,2,0,B|340:128,1,89.9999937415126,2|0
300,48,94490,6,2,B|204:30|129:108|179:192|229:275|153:353|58:336,1,449.999968707563,2|0
84,244,95757,1,8
84,244,95969,2,0,B|264:244,1,179.999987483025,4|0
324,180,96602,2,0,B|324:157|335:134|357:123|380:123,1,89.9999937415126,2|0
444,188,97025,2,0,B|444:210|432:233|410:244|387:244,2,89.9999937415126,8|8|8
472,104,97659,1,4
40,104,98293,5,2
64,192,98504,1,0
152,192,98715,2,2,B|168:143|220:123|272:143|288:191,1,179.999987483025,2|0
220,216,99349,2,0,B|220:32,1,179.999987483025,4|0
292,88,99983,1,8
372,128,100194,2,2,B|335:152|301:190|297:240|305:283,1,179.999987483025,2|0
256,360,100828,1,2
206,283,101039,2,0,B|214:240|210:190|176:152|140:128,1,179.999987483025,4|8
212,72,101673,6,0,B|308:72,1,89.9999937415126,8|0
392,72,102095,2,2,B|428:96|452:148|428:200|392:224,1,179.999987483025,2|0
340,148,102729,2,0,B|304:172|280:224|304:276|340:300,1,179.999987483025,2|0
432,300,103363,1,8
256,372,103786,1,2
80,300,104208,1,0
256,192,104631,6,0,B|236:124|392:80|408:244|348:320|272:320|220:328|148:280|132:252|132:184|148:124|168:100|180:72|236:28|284:16|400:44|448:80|428:172|428:208|436:296|344:336,1,959.999961853028,0|4
