osu file format v5

[General]
AudioFilename: 10-you -destructive.mp3
AudioLeadIn: 0
PreviewTime: -1
Countdown: 0
SampleSet: Soft
StackLeniency: 0.7
Mode: 0
LetterboxInBreaks: 1

[Editor]
Bookmarks: 26157,122044,149086
DistanceSpacing: 1
BeatDivisor: 4
GridSize: 8

[Metadata]
Title:you -destructive
Artist:dai
Creator:Takuma
Version:Normal
Source:
Tags:

[Difficulty]
HPDrainRate:4
CircleSize:4
OverallDifficulty:5
SliderMultiplier:1.4
SliderTickRate:2

[Events]
//Background and Video events
0,0,"you-bg.png"
//Break Periods
2,33934,39717
2,68160,73520
2,88441,93802
2,135765,141126
//Storyboard Layer 0 (Background)
//Storyboard Layer 1 (Fail)
//Storyboard Layer 2 (Pass)
//Storyboard Layer 3 (Foreground)
//Storyboard Sound Samples
//Background Colour Transformations
3,100,163,162,255

[TimingPoints]
-68,422.535211267606,4,2,1,50,1,0
53805,-100,4,2,1,30,0,0
54227,-100,4,2,1,50,0,0
74298,-100,4,2,1,30,0,0
107572,-100,4,1,1,30,0,0
108206,-100,4,2,1,30,0,0
120143,-200,4,2,1,30,0,0
121199,-100,4,2,1,30,0,0

[Colours]
Combo1 : 255,150,0
Combo2 : 5,240,5
Combo3 : 5,5,240
Combo4 : 240,5,5

[HitObjects]
256,192,26446,12,4,27396
256,192,27819,5,0
96,56,28453,6,0,B|152:112,1,70
416,56,29298,2,0,B|360:112,1,70
256,192,30143,1,0
256,192,30354,1,0
96,328,30988,6,0,B|152:272,1,70
416,328,31833,2,0,B|360:272,1,70
187,192,32678,2,0,B|331:192,2,140
187,192,33734,1,0
328,192,40917,5,0
184,192,41340,1,2
328,192,41762,1,0
184,192,42185,1,2
256,264,42608,5,0
256,120,43031,1,2
256,264,43453,1,0
256,192,43664,1,2
256,120,43876,1,0
112,120,44298,6,0,B|40:120|40:192|40:256|128:256,2,210,0|0|2
256,120,45988,2,0,B|328:120|328:192|328:256|240:256,2,210,0|0|2
376,48,47678,5,0
376,48,48101,1,2
448,48,48312,2,0,B|448:128,3,70,0|2|0|2
448,256,49368,5,0
448,256,49791,1,2
376,256,50002,2,0,B|296:256,3,70,0|2|0|2
304,112,51058,5,0
232,232,51481,1,2
232,88,51903,1,0
160,208,52326,1,2
256,192,52748,12,4,53593
256,192,54016,6,0,B|336:192,2,70,8|0|2
184,192,54650,2,0,B|144:264|184:328,1,140
182,325,55284,1,2
256,272,55706,1,0
256,272,56129,5,2
256,192,56551,1,2
256,112,56974,1,4
456,56,57608,6,0,B|512:208|456:352,1,280
328,288,58875,2,0,B|328:224|392:224|392:160,1,140
391,167,59509,1,2
256,112,59932,1,2
121,167,60354,1,4
256,192,60777,1,0
256,264,60988,6,0,B|256:336,2,70,0|2|0
120,216,61833,2,0,B|120:288,3,70,0|2|0|2
120,104,62889,2,0,B|256:104|408:104,1,280,2|4
400,240,64368,6,0,B|416:272|400:312,2,70,0|2|0
400,240,65213,2,0,B|368:256|328:240,2,70,0|2|0
400,240,66058,2,0,B|384:208|400:168,2,70,0|2|0
400,240,66903,2,0,B|432:224|472:240,1,70,0|2
256,192,67220,12,4,67960
256,64,74720,5,2
184,192,75143,2,0,B|112:192,2,70,0|0|2
256,168,75777,1,0
328,192,75988,2,0,B|400:192,2,70,0|0|2
256,240,76622,2,0,B|256:320,4,70,0|2|0|2|0
256,168,77678,1,4
168,56,78101,5,0
344,56,78523,1,8
344,192,78946,5,0
168,192,79368,1,8
168,328,79791,5,0
344,328,80213,1,4
344,192,80636,1,4
256,192,80847,1,0
168,192,81058,1,8
104,64,81481,6,0,B|184:112|328:32|408:104,1,280
379,85,82748,1,8
456,200,83171,6,0,B|408:272|264:256|344:168|400:200|400:272|376:312|296:336,1,280
315,329,84439,1,8
176,328,84861,6,0,B|0:328|32:120,1,280
29,140,86129,1,8
144,64,86551,6,0,B|296:32|424:112,1,280,0|8
414,105,87819,1,8
414,105,88030,1,8
414,105,88241,1,4
216,240,95002,6,0,B|168:192|176:88|280:48|392:72|456:192|368:312|248:264,1,490
216,312,96692,6,0,B|16:312|40:184|40:64,1,350
39,78,97960,1,2
176,80,98382,6,0,B|232:128|376:40|456:104,1,280
256,192,99650,1,0
336,304,100072,6,0,B|264:248|136:344|56:280,1,280
256,192,101340,1,0
116,192,101762,6,2,B|404:192,3,280
256,52,105143,6,2,B|256:340,2,280
88,192,107678,5,4
88,192,108101,1,4
224,192,108523,2,0,B|376:192,3,140,0|8|0|8
432,72,110213,1,2
432,72,110636,1,0
432,72,111058,1,2
208,48,111903,6,0,B|128:48,1,70,2|0
216,128,112326,2,0,B|152:168,1,70,8|0
296,128,112748,2,0,B|355:165,1,70,2|0
304,48,113170,2,0,B|374:48,1,70,8|0
256,192,113593,12,8,114861
256,120,115284,5,2
256,192,115495,1,0
112,192,115917,2,0,B|24:192,2,70,0|2|0
112,328,116762,1,0
184,328,116974,2,0,B|184:184,2,140,2|8|2
304,256,118241,1,8
376,256,118453,5,0
408,192,118664,1,2
376,128,118875,1,0
272,192,119298,1,0
304,128,119509,1,2
336,192,119720,1,0
256,192,120354,12,8,121622
256,192,122044,5,4
256,120,122255,5,0
184,240,122678,1,0
328,240,123101,1,2
256,192,123312,2,0,B|256:344,1,140,8|0
256,332,124157,1,8
256,332,124579,1,4
120,88,125424,6,0,B|200:128|304:40|400:104,1,280,8|2
456,128,126481,2,0,B|432:168|464:200,2,70,0|8|0
456,128,127115,1,2
320,176,127537,1,8
192,232,127960,1,4
192,232,128382,2,0,B|48:232,1,140,8|4
56,232,129016,5,2
152,352,129439,2,2,B|384:352,1,210,0|8
360,352,130495,1,2
360,208,130917,2,0,B|440:208,2,70,8|2|4
288,88,131762,5,8
216,88,131974,2,0,B|136:88,2,70,0|4|2
288,208,132819,2,0,B|192:208,2,70,0|4|2
208,328,133664,2,0,B|128:328,2,70,0|4|2
288,328,134298,2,0,B|440:328,2,140,0|2|0
256,192,135565,1,4
256,48,142326,5,0
256,48,142748,1,0
256,120,143171,1,0
256,120,143593,1,0
256,192,144016,2,0,B|256:336,1,140
256,328,144650,1,2
392,328,145072,6,0,B|472:328,3,70,0|2|0|4
392,129,146340,2,0,B|256:73|112:129,1,280
118,126,147396,1,2
118,126,147819,1,0
256,192,148241,12,4,149086
168,192,149509,5,8
256,104,149932,1,2
344,192,150354,1,8
256,280,150777,1,2
168,192,151199,2,0,B|256:192|256:96,2,140,8|2|8
256,104,152467,5,2
392,80,152889,2,0,B|392:224,2,140,8|2|8
256,128,154157,2,0,B|256:272,2,140,2|8|2
120,168,155424,1,8
96,232,155636,1,8
72,296,155847,6,0,B|216:296,1,140,4|8
352,296,156692,1,2
280,176,157115,1,8
352,296,157537,2,0,B|424:272|424:184,1,140,2|8
432,120,158171,1,0
360,112,158382,1,2
352,184,158593,1,0
360,112,158805,1,8
256,192,159227,12,4,161762
