osu file format v5

[General]
AudioFilename: 10-you -destructive.mp3
AudioLeadIn: 0
PreviewTime: -1
Countdown: 0
SampleSet: Soft
StackLeniency: 0.7
Mode: 0
LetterboxInBreaks: 1

[Editor]
Bookmarks: 26157
DistanceSpacing: 1
BeatDivisor: 4
GridSize: 8

[Metadata]
Title:you -destructive
Artist:dai
Creator:Takuma
Version:Hard
Source:
Tags:

[Difficulty]
HPDrainRate:6
CircleSize:5
OverallDifficulty:6
SliderMultiplier:1.4
SliderTickRate:2

[Events]
//Background and Video events
0,0,"you-bg.png"
//Break Periods
2,33963,40045
2,68188,73848
2,88469,94130
2,135765,141276
//Storyboard Layer 0 (Background)
//Storyboard Layer 1 (Fail)
//Storyboard Layer 2 (Pass)
//Storyboard Layer 3 (Foreground)
//Storyboard Sound Samples
//Background Colour Transformations
3,100,163,162,255

[TimingPoints]
-68,422.535211267606,4,2,1,50,1,0
53805,-100,4,2,1,30,0,0
54227,-100,4,2,1,50,0,0
74298,-100,4,2,1,30,0,0
107572,-100,4,1,1,30,0,0
108206,-100,4,2,1,30,0,0
120143,-200,4,2,1,30,0,0
121199,-100,4,2,1,30,0,0

[Colours]
Combo1 : 255,150,0
Combo2 : 5,240,5
Combo3 : 5,5,240
Combo4 : 240,5,5

[HitObjects]
256,192,26446,12,4,27396
256,192,27608,5,0
256,192,27819,1,0
184,72,28241,5,0
152,96,28453,1,0
144,136,28664,1,0
256,192,29086,5,0
256,192,29298,1,0
256,192,29509,1,0
328,312,29931,5,0
360,288,30143,1,0
368,248,30354,1,0
144,248,30777,5,0
152,288,30988,1,0
184,312,31199,1,0
328,72,31622,5,0
360,96,31833,1,0
368,136,32044,1,0
256,344,32467,5,0
256,312,32678,1,0
256,280,32889,1,0
256,40,33312,5,0
256,72,33523,1,0
256,104,33734,1,0
256,72,40917,5,2
184,248,41340,5,0
216,312,41551,1,0
296,312,41762,1,0
328,248,41974,1,0
296,184,42185,1,0
216,184,42396,1,0
256,248,42608,1,2
360,72,43030,6,0,B|144:72,1,210,0|2
88,104,43875,1,0
120,168,44086,1,0
184,136,44298,1,2
320,136,44720,1,0
360,192,44932,1,0
320,248,45143,1,2
365,344,45565,2,0,B|405:344,2,35
293,344,45988,1,2
221,344,46199,1,0
149,344,46410,2,0,B|109:344,4,35,2|0|2|0|0
224,224,47255,5,0
256,160,47467,1,0
288,224,47678,1,2
424,160,48101,6,0,B|424:80,2,70,0|2|0
88,224,48946,6,0,B|88:304,2,70,0|0|2
136,176,49579,1,0
208,176,49791,1,0
240,112,50002,1,2
312,112,50213,2,0,B|392:112,2,70,0|2|0
256,240,51058,5,0
256,32,51481,2,0,B|296:32,2,35,2|0|0
184,32,51903,2,0,B|128:88,1,70
88,128,52326,2,0,B|48:128,3,35
88,128,52748,1,2
264,192,53171,6,0,B|296:216|296:248|248:256|224:248|216:208|256:184,1,140
256,48,54016,1,8
328,48,54227,5,0
384,88,54439,1,2
440,48,54650,1,0
440,184,55072,1,0
460,116,55284,1,2
336,184,55706,1,0
316,116,55917,1,2
264,168,56129,6,0,B|120:168,1,140,0|2
56,168,56762,2,0,B|24:232,1,70,0|2
128,328,57396,1,0
200,328,57608,5,0
256,288,57819,1,2
312,328,58030,1,0
200,248,58453,1,0
256,208,58664,2,0,B|256:56,1,140,0|2
256,72,59298,1,2
184,72,59509,5,0
328,120,59720,1,0
184,168,59932,1,0
328,216,60143,1,0
256,272,60354,1,2
88,200,60777,5,0
152,240,60988,1,0
88,272,61199,1,2
24,232,61410,1,0
256,136,61833,1,0
256,64,62044,1,2
192,96,62255,1,0
192,168,62467,1,2
256,208,62678,1,0
256,136,62889,2,0,B|408:136,1,140,2|2
464,136,63523,1,0
430,197,63734,1,2
360,320,64157,5,0
288,320,64368,1,0
232,272,64579,1,2
256,208,64791,1,0
144,240,65213,5,0
192,184,65424,1,2
256,208,65636,1,0
224,96,66058,5,0
280,144,66270,1,2
256,208,66481,1,0
448,192,66903,5,0
448,192,67115,1,2
256,192,67220,12,4,67960
200,72,74720,5,2
256,192,75143,6,0,B|216:192,2,35,8|0|2
256,120,75565,1,0
320,152,75777,1,2
256,192,75988,1,8
320,224,76199,2,0,B|360:224,2,35,0|0|2
256,344,76833,5,8
192,344,77044,1,0
168,280,77255,1,2
104,280,77467,1,0
72,224,77678,1,8
256,120,78101,5,2
392,120,78523,2,0,B|440:120,2,35,8|0|0
392,192,78946,1,2
320,192,79157,1,0
320,264,79368,2,0,B|248:264,2,70,8|0|2
152,192,80213,6,0,B|120:224,4,35,10|0|2|0|4
114,132,80847,1,0
152,72,81058,1,8
288,72,81481,5,2
360,72,81692,1,0
352,144,81903,1,8
328,280,82326,2,0,B|400:280,2,70,2|0|8
256,240,82960,1,0
184,280,83171,5,2
220,352,83382,1,0
292,352,83593,1,8
432,192,84016,5,2
80,192,84439,1,8
256,32,84861,5,2
288,96,85072,1,0
280,168,85284,1,8
280,168,85706,5,2
216,136,85917,1,0
192,200,86129,1,8
192,200,86551,5,2
224,256,86762,1,0
296,256,86974,1,8
296,256,87396,5,8
320,320,87608,1,2
256,360,87819,1,8
200,320,88030,1,8
136,352,88241,1,4
160,192,95002,5,0
352,192,95424,1,0
160,192,95847,1,0
352,192,96270,1,0
256,96,96692,5,0
256,288,97115,1,0
256,96,97537,1,0
256,288,97960,1,0
160,96,98382,5,0
352,288,98805,1,0
160,96,99227,1,0
352,288,99650,1,0
352,96,100072,5,0
160,288,100495,1,0
352,96,100917,1,0
160,288,101340,1,0
256,160,101762,5,2
256,224,101974,1,0
256,160,102185,1,2
256,224,102396,1,0
192,192,102608,5,2
320,192,103030,1,2
160,288,103453,5,2
256,344,103875,1,0
352,288,104298,1,2
360,72,105143,6,0,B|272:72,1,70,2|0
152,120,105565,2,0,B|240:120,1,70,2|0
288,160,105988,2,0,B|312:192,1,35,0|2
224,224,106305,2,0,B|200:256,1,35,2|0
256,304,106622,1,0
256,304,106833,1,2
256,192,106939,12,4,107678
88,80,108101,5,4
136,80,108312,1,0
184,80,108523,2,0,B|256:80,2,70,2|0|2
216,176,109368,1,0
264,176,109579,2,0,B|344:176,2,70,2|0|2
240,240,110213,2,2,B|88:240,1,140,0|2
56,280,110847,1,0
88,328,111058,1,2
168,128,111481,6,0,B|168:32|256:32|352:32|352:136,2,280,2|2|2
256,232,113593,1,2
256,232,113805,1,0
256,232,114439,2,0,B|256:272,2,35,2|0|2
320,192,114861,5,8
192,192,115072,1,8
192,264,115284,6,0,B|192:312|144:312,1,70,2|0
320,120,115917,2,0,B|320:72|368:72,2,70,0|2|0
320,264,116762,2,0,B|320:312|368:312,2,70,0|2|0
256,264,117396,1,2
256,192,117608,1,0
256,192,117819,1,4
392,192,118241,1,8
392,264,118453,6,0,B|448:320,2,70,0|2|0
392,264,119086,1,8
256,264,119509,1,2
256,192,119720,1,0
256,120,119932,1,8
256,120,120354,2,0,B|256:272,1,140,0|2
256,328,121410,1,0
256,328,121622,1,8
256,328,122044,5,4
256,328,122255,2,0,B|200:224|352:160|248:48,1,280,0|2
200,24,123312,2,0,B|176:64|136:56,1,70,0|2
72,48,123734,1,0
64,120,123946,2,0,B|88:152|56:184,2,70,0|2|0
72,48,124579,1,4
72,48,124791,1,2
72,48,125002,1,8
168,152,125424,5,4
152,216,125636,2,0,B|376:216,2,210,0|0|2
128,280,127115,1,8
192,312,127326,1,0
256,336,127537,1,8
320,312,127748,1,2
384,280,127959,1,4
384,136,128382,6,0,B|432:136,2,35,8|0|8
352,72,128805,1,2
320,136,129016,2,0,B|168:136,2,140,0|0|2
288,200,130072,2,0,B|272:232|232:200|232:240,1,70,0|2
248,304,130495,1,0
248,304,130706,1,2
248,304,130917,2,0,B|176:352|88:296,1,140,8|4
40,192,131762,1,8
88,144,131974,6,0,B|144:88,2,70,0|4|2
216,96,132819,2,0,B|272:40,2,70,0|4|2
344,48,133664,2,0,B|424:48,2,70,0|4|2
344,192,134509,5,2
256,192,134720,1,4
256,280,134932,2,0,B|256:320,6,35,2|0|2|0|2|0|6
256,192,142326,5,2
256,48,142748,1,0
184,48,142960,2,0,B|144:48,2,35,0|0|2
184,120,143382,1,0
112,120,143593,2,0,B|24:120,2,70,0|2|0
256,192,144439,1,0
256,192,144650,5,2
256,192,144755,1,0
176,264,145072,5,0
336,264,145284,1,2
176,336,145495,1,0
336,336,145707,1,4
256,192,146129,1,0
176,192,146340,6,0,B|136:192,2,35,0|0|2
256,192,146762,1,0
336,192,146974,2,0,B|376:192,1,35,0|2
392,72,147396,6,0,B|296:112|200:24|112:88,1,280,2|2
256,192,148347,12,4,149086
328,192,149509,6,0,B|368:192,2,35,8|0|0
256,192,149932,1,2
256,120,150143,1,0
184,120,150354,2,0,B|184:80,3,35,8|0|0|0
184,120,150777,1,2
193,279,151199,2,0,B|257:228|337:287,2,140,8|2|8
256,192,152467,5,2
112,192,152889,2,0,B|72:192,2,35,8|0|0
112,120,153312,1,2
184,120,153523,1,0
184,192,153734,2,0,B|256:192,2,70,8|0|2
184,48,154579,2,0,B|240:64|280:32|328:56,1,140,8|2
376,96,155213,1,0
440,128,155424,2,0,B|416:160|448:192,2,70,8|8|4
352,240,156270,5,8
304,288,156481,1,0
256,336,156692,2,0,B|176:336,2,70,2|0|8
304,288,157326,1,0
256,240,157537,2,0,B|256:96,1,140,2|8
192,72,158171,1,0
224,8,158382,1,2
288,32,158593,1,0
256,96,158805,1,8
256,192,159227,12,4,161762
