osu file format v9

[General]
AudioFilename: 04 - You-Destructive.mp3
AudioLeadIn: 0
PreviewTime: 149379
Countdown: 0
SampleSet: Soft
StackLeniency: 0.7
Mode: 0
LetterboxInBreaks: 1

[Editor]
DistanceSpacing: 0.8
BeatDivisor: 4
GridSize: 4

[Metadata]
Title:You -Destructive-
Artist:dai
Creator:Kite
Version:Normal
Source:Higurashi no Naku Koro ni
Tags:dear arrange when they cry ayeen

[Difficulty]
HPDrainRate:4
CircleSize:3
OverallDifficulty:5
ApproachRate:4
SliderMultiplier:1.2
SliderTickRate:0.5

[Events]
//Background and Video events
0,0,"destructive.jpg"
//Break Periods
2,95494,102425
2,135635,141298
//Storyboard Layer 0 (Background)
//Storyboard Layer 1 (Fail)
//Storyboard Layer 2 (Pass)
//Storyboard Layer 3 (Foreground)
//Storyboard Sound Samples
//Background Colour Transformations
3,100,163,162,255

[TimingPoints]
647,422.535211267606,4,2,0,49,1,0
20717,-100,4,1,1,29,0,0
21139,-100,4,2,1,49,0,0
22301,-100,4,1,1,29,0,0
22830,-100,4,2,1,49,0,0
24203,-100,4,1,1,29,0,0
24520,-100,4,2,1,49,0,0
25682,-100,4,1,1,29,0,0
26210,-100,4,2,1,49,0,0
27477,-100,4,1,1,40,0,0
27794,-100,4,2,1,49,0,0
30963,-100,4,1,1,40,0,0
31175,-100,4,2,1,49,0,0
34344,-100,4,1,1,29,0,0
34555,-100,4,2,1,49,0,0
35189,-100,4,1,1,29,0,0
35400,-100,4,2,0,49,0,0
36034,-100,4,1,1,29,0,0
36245,-100,4,2,1,49,0,0
36879,-100,4,1,1,29,0,0
37090,-100,4,2,1,49,0,0
37724,-100,4,1,1,29,0,0
37935,-100,4,2,1,49,0,0
38569,-100,4,1,1,29,0,0
38780,-100,4,2,1,49,0,0
39414,-100,4,1,1,29,0,0
39625,-100,4,2,1,49,0,0
40259,-100,4,1,1,29,0,0
40470,-100,4,2,1,49,0,0
41104,-100,4,1,1,48,0,0
41316,-100,4,2,1,49,0,0
41527,-100,4,1,1,48,0,0
41738,-100,4,2,1,49,0,0
41949,-100,4,1,1,48,0,0
42583,-100,4,2,1,49,0,0
42794,-100,4,1,1,49,0,0
43428,-100,4,2,1,49,0,0
43639,-100,4,1,1,49,0,0
44273,-100,4,2,1,49,0,0
44485,-100,4,1,1,49,0,0
44696,-100,4,2,1,49,0,0
44907,-100,4,1,1,49,0,0
45118,-100,4,2,1,49,0,0
45330,-100,4,1,1,49,0,0
45963,-100,4,2,1,49,0,0
46175,-100,4,1,1,49,0,0
46808,-100,4,2,1,49,0,0
47020,-100,4,1,1,49,0,0
48499,-100,4,2,1,49,0,0
48710,-100,4,1,1,49,0,0
49344,-100,4,2,1,49,0,0
49555,-100,4,1,1,49,0,0
50189,-100,4,2,1,49,0,0
50400,-100,4,1,1,49,0,0
51879,-100,4,2,1,49,0,0
52090,-100,4,1,1,49,0,0
52724,-100,4,2,1,49,0,0
52935,-100,4,1,1,49,0,0
53569,-100,4,2,1,49,0,0
53780,-100,4,1,1,49,0,0
54414,-100,4,2,1,49,0,0
54625,-100,4,1,1,49,0,0
54837,-100,4,2,1,49,0,0
61069,-100,4,1,1,35,0,0
61597,-100,4,2,1,49,0,0
63076,-100,4,1,1,35,0,0
63287,-100,4,2,1,49,0,0
64766,-100,4,1,1,24,0,0
64977,-100,4,2,1,49,0,0
65611,-100,4,1,1,35,0,0
65823,-100,4,2,1,49,0,0
66456,-100,4,1,1,49,0,0
66668,-100,4,2,1,49,0,0
68252,-100,4,1,1,49,0,1
68780,-100,4,2,1,49,0,1
68992,-100,4,1,1,49,0,1
69625,-100,4,2,1,49,0,1
69837,-100,4,1,1,49,0,1
70470,-100,4,2,1,49,0,1
70682,-100,4,1,1,49,0,1
72161,-100,4,2,1,49,0,1
72372,-100,4,1,1,49,0,1
73006,-100,4,2,1,49,0,1
73217,-100,4,1,1,49,0,1
73851,-100,4,2,1,49,0,1
74062,-100,4,1,1,49,0,1
75541,-100,4,2,1,49,0,1
75752,-100,4,1,1,49,0,1
76386,-100,4,2,1,49,0,1
76597,-100,4,1,1,49,0,1
77231,-100,4,2,1,49,0,1
77442,-100,4,1,1,49,0,1
78921,-100,4,2,1,49,0,1
79132,-100,4,1,1,49,0,1
79766,-100,4,2,1,49,0,1
79977,-100,4,1,1,49,0,1
80611,-100,4,2,1,49,0,1
80823,-100,4,1,1,49,0,1
81351,-100,4,1,1,49,0,0
81879,-100,4,2,1,49,0,0
82513,-100,4,1,1,49,0,0
82724,-100,4,2,1,49,0,0
83358,-100,4,1,1,49,0,0
83569,-100,4,2,1,49,0,0
84203,-100,4,1,1,49,0,0
84414,-100,4,2,1,49,0,0
85048,-100,4,1,1,49,0,0
85259,-100,4,2,1,49,0,0
85893,-100,4,1,1,49,0,0
86104,-100,4,2,1,49,0,0
86738,-100,4,1,1,49,0,0
86949,-100,4,2,1,49,0,0
87583,-100,4,1,1,49,0,0
87794,-100,4,2,1,49,0,0
88111,-100,4,1,1,49,0,0
88639,-100,4,2,1,49,0,0
89273,-100,4,1,1,49,0,0
89485,-100,4,2,1,49,0,0
90118,-100,4,1,1,49,0,0
90330,-100,4,2,1,49,0,0
90963,-100,4,1,1,49,0,0
91175,-100,4,2,1,49,0,0
91808,-100,4,1,1,49,0,0
92020,-100,4,2,1,49,0,0
92654,-100,4,1,1,49,0,0
92865,-100,4,2,1,49,0,0
93499,-100,4,1,1,49,0,0
93710,-100,4,2,1,49,0,0
94344,-100,4,1,1,49,0,0
94555,-100,4,2,1,49,0,0
107759,-100,4,1,1,49,0,0
108182,-100,4,2,1,49,0,0
108816,-100,4,1,1,49,0,0
108921,-100,4,2,1,49,0,0
109344,-100,4,1,1,49,0,0
109766,-100,4,2,1,49,0,0
110189,-100,4,1,1,49,0,0
110611,-100,4,2,1,49,0,0
111034,-100,4,1,1,49,0,0
111456,-100,4,2,1,49,0,0
112090,-100,4,1,1,49,0,0
112301,-100,4,2,1,49,0,0
112830,-100,4,1,1,49,0,0
113147,-100,4,2,1,49,0,0
113675,-100,4,1,1,49,0,0
113992,-100,4,2,1,49,0,0
114731,-100,4,1,1,49,0,0
114837,-100,4,2,1,49,0,0
115259,-100,4,1,1,49,0,0
115682,-100,4,2,1,49,0,0
116210,-100,4,1,1,49,0,0
116527,-100,4,2,1,49,0,0
117055,-100,4,1,1,49,0,0
117372,-100,4,2,1,49,0,0
117794,-100,4,1,1,49,0,0
118217,-100,4,2,1,49,0,0
118639,-100,4,1,1,49,0,0
119062,-100,4,2,1,49,0,0
119485,-100,4,1,1,49,0,0
119907,-100,4,2,1,49,0,0
120435,-100,4,1,1,49,0,0
120752,-100,4,2,1,49,0,0
122337,-100,4,1,1,49,0,0
122442,-100,4,2,1,49,0,0
123921,-100,4,1,1,49,0,0
124344,-100,4,2,1,49,0,0
124555,-100,4,1,1,49,0,0
124977,-100,4,2,1,49,0,0
125611,-100,4,1,1,49,0,0
125823,-100,4,2,1,49,0,0
127301,-100,4,1,1,49,0,0
127513,-100,4,2,1,49,0,0
127830,-100,4,1,1,49,0,0
128358,-100,4,2,1,49,0,0
128992,-100,4,1,1,49,0,0
129203,-100,4,2,1,49,0,0
130682,-100,4,1,1,49,0,0
131104,-100,4,2,1,49,0,0
131316,-100,4,1,1,49,0,0
131738,-100,4,2,1,49,0,0
132372,-100,4,1,1,49,0,0
132583,-100,4,2,1,49,0,0
133217,-100,4,1,1,49,0,0
133428,-100,4,2,1,49,0,0
134062,-100,4,1,1,49,0,0
134273,-100,4,2,1,26,0,0
135435,-100,4,2,1,48,0,0
142513,-100,4,1,1,48,0,0
142724,-100,4,2,1,48,0,0
144203,-100,4,1,1,48,0,0
144414,-100,4,2,1,48,0,0
145893,-100,4,1,1,48,0,0
146104,-100,4,2,1,48,0,0
147583,-100,4,1,1,48,0,0
147794,-100,4,2,1,48,0,0
149379,-100,4,1,1,49,0,1
149801,-100,4,2,1,49,0,1
149907,-100,4,2,1,49,0,1
150118,-100,4,2,1,49,0,1
150752,-100,4,2,1,49,0,1
150963,-100,4,2,1,49,0,1
151597,-100,4,2,1,49,0,1
151808,-100,4,2,1,49,0,1
153287,-100,4,2,1,49,0,1
153499,-100,4,2,1,49,0,1
154132,-100,4,2,1,49,0,1
154344,-100,4,2,1,49,0,1
154977,-100,4,2,1,49,0,1
155189,-100,4,2,1,49,0,1
156668,-100,4,2,1,49,0,1
156879,-100,4,2,1,49,0,1
157513,-100,4,2,1,49,0,1
157724,-100,4,2,1,49,0,1
158358,-100,4,2,1,49,0,1
158569,-100,4,2,1,49,0,1
160048,-100,4,2,1,49,0,1
160259,-100,4,2,1,49,0,1
160893,-100,4,2,1,49,0,1
161104,-100,4,2,1,49,0,1
161738,-100,4,2,1,49,0,1
161949,-100,4,2,1,49,0,1
168076,-100,4,2,1,49,0,1
168710,-100,4,2,1,49,0,1
168921,-100,4,2,1,49,0,1
169344,-100,4,2,1,49,0,1
169766,-100,4,2,1,49,0,1
170400,-100,4,2,1,49,0,1
170611,-100,4,2,1,49,0,1
171245,-100,4,2,1,49,0,1
171456,-100,4,2,1,49,0,1
172090,-100,4,2,1,49,0,1
172301,-100,4,2,1,49,0,1
172935,-100,4,2,1,49,0,1
173147,-100,4,2,1,49,0,1
173780,-100,4,2,1,49,0,1
173992,-100,4,2,1,49,0,1
174625,-100,4,2,1,49,0,1
174837,-100,4,2,1,49,0,1
176421,-100,4,2,1,49,0,0

[Colours]
Combo1 : 183,60,131
Combo2 : 146,56,226
Combo3 : 231,124,231

[HitObjects]
56,332,20928,2,4,B|156:244|172:124,1,240,4|0
256,80,22196,1,2
340,127,22618,2,0,B|356:244|456:332,1,240,4|2
256,324,24308,6,0,B|256:192|164:108,1,240,4|0
256,76,25576,1,2
346,109,25999,2,0,B|256:192|256:324,1,240,4|2
255,323,27266,1,2
160,316,27689,6,0,B|92:288|92:216,1,120,4|2
112,132,28534,2,0,B|148:76|216:64,1,120,0|2
304,68,29379,2,0,B|364:78|400:134,1,120,0|2
420,228,30224,2,0,B|420:290|352:318,1,120,0|2
256,308,31069,5,4
176,252,31492,2,0,B|108:228|92:168,1,120,2|0
184,140,32337,1,2
256,76,32759,5,0
336,132,33182,2,0,B|404:156|420:216,1,120,2|0
328,244,34027,1,2
388,320,34449,6,0,B|444:276,2,60,4|0|8
328,244,35294,2,0,B|288:192,2,60,0|0|8
408,192,36139,2,0,B|464:148,2,60,0|0|8
356,112,36985,2,0,B|316:60,2,60,0|0|8
300,192,37830,5,4
256,108,38252,1,8
212,192,38675,1,0
256,276,39097,1,8
160,280,39520,2,0,B|112:316,2,60,0|0|8
116,192,40365,1,4
308,172,41210,5,4
400,196,41632,2,0,B|424:128,2,60,8|2|0
424,288,42477,2,0,B|456:352,2,60,8|2|0
332,264,43323,2,0,B|252:260,2,60,0|2|0
308,172,44168,1,8
256,92,44590,5,4
204,172,45013,2,0,B|152:120,2,60,8|2|0
268,244,45858,2,0,B|316:292,2,60,8|2|0
172,264,46703,2,0,B|112:312,2,60,8|2|0
76,100,47970,5,4
60,196,48393,1,8
60,196,48604,1,2
60,196,48816,1,0
152,164,49238,2,0,B|192:104,2,60,8|2|0
132,256,50083,1,8
132,256,50294,1,2
132,256,50506,1,0
44,288,50928,1,8
60,192,51351,5,4
112,112,51773,2,0,B|84:48,2,60,8|2|0
152,200,52618,2,0,B|188:272,2,60,8|2|0
204,120,53463,1,8
204,120,53675,1,2
204,120,53886,1,0
332,56,54520,5,2
332,56,54731,2,0,B|420:84|424:176|356:176|384:280,2,240,4|2|2
256,112,56844,1,2
176,60,57266,1,2
120,192,57900,5,2
120,192,58111,2,0,B|200:216|216:320|320:344,2,240,4|0|2
52,260,60224,1,2
116,332,60647,1,2
256,304,61280,5,0
256,304,61492,2,0,B|388:272|396:132,2,240,4|2|4
256,208,63604,1,2
256,112,64027,1,2
120,68,64661,5,2
120,68,64872,1,4
120,68,65083,1,0
80,156,65506,2,0,B|160:156,2,60,2|4|0
116,244,66351,1,2
116,244,66562,1,4
116,244,66773,1,0
180,316,67196,1,2
180,316,67407,6,0,B|264:324|352:292|400:228,1,240,0|4
432,144,68675,2,0,B|460:84,2,60,8|2|0
336,164,69520,2,0,B|280:132,2,60,8|2|0
408,228,70365,2,0,B|440:288,2,60,8|2|0
316,260,71210,1,8
256,336,71632,5,4
200,256,72055,2,0,B|240:204,2,60,8|2|0
104,264,72900,2,0,B|72:324,2,60,8|2|0
80,172,73745,1,8
80,172,73956,1,2
80,172,74168,1,4
224,48,75013,5,4
252,140,75435,2,0,B|188:144,2,60,8|2|0
336,92,76280,2,0,B|384:40,2,60,8|2|0
324,188,77125,1,8
324,188,77337,1,2
324,188,77548,2,0,B|396:204|420:288,1,120,0|8
320,296,78393,5,4
224,304,78816,2,0,B|164:332,2,60,8|2|0
224,208,79661,2,0,B|152:208,2,60,8|2|0
256,116,80506,1,8
256,116,80717,1,2
256,116,80928,1,0
440,60,81773,6,0,B|416:120|436:184,1,120,4|8
408,268,82618,2,0,B|336:284|296:328,1,120,0|8
208,324,83463,2,0,B|174:286|102:270,1,120,0|8
76,180,84308,2,0,B|94:122|70:62,1,120,0|8
168,52,85154,5,4
256,88,85576,1,10
344,52,85999,2,0,B|408:56|448:128,1,120,0|10
348,144,86844,1,0
348,240,87266,1,10
440,268,87689,2,0,B|407:327|343:331,1,120,0|4
256,296,88534,5,0
168,332,88956,1,10
76,308,89379,2,0,B|48:240|100:172,1,120,0|10
180,192,90224,2,0,B|216:132|192:60,1,120,0|10
100,64,91069,1,0
48,144,91492,1,10
256,192,91914,12,6,95294
256,192,103745,12,6,107125
200,192,107548,6,0,B|212:256|280:276,1,120,2|4
372,260,108393,2,0,B|424:312,2,60,2|2|4
320,180,109238,2,0,B|380:132|380:68,2,120,8|0|8
272,96,110506,2,0,B|208:68,2,60,0|2|10
220,176,111351,2,0,B|156:168|96:212,1,120,0|10
172,272,112196,6,0,B|232:328|324:332|408:300,2,240,4|0|0
76,288,114308,2,0,B|40:228|64:160,2,120,4|0|4
168,316,115576,6,0,B|247:311|329:270|361:195,2,240,4|0|0
112,236,117689,1,10
168,160,118111,1,0
112,80,118534,1,10
208,72,118956,6,0,B|280:44|376:56|436:112,2,240,4|0|0
256,156,121069,1,2
248,252,121492,2,0,B|184:268|104:248|76:176|76:132,1,240,4|4
152,72,122759,5,8
180,164,123182,2,0,B|252:152|276:88,1,120,2|8
364,60,124027,2,0,B|392:124|452:148,2,120,0|8|4
360,204,125506,5,2
360,204,125717,2,0,B|352:304|244:332,2,180,4|0|8
264,188,127407,2,0,B|272:120|332:80,2,120,0|0|4
160,288,128886,5,2
160,288,129097,2,0,B|60:280|32:172,2,180,4|0|2
176,192,130787,2,0,B|132:152,2,60,0|0|2
252,248,131632,2,0,B|276:312|340:336,1,120,0|10
380,252,132477,6,0,B|448:212|456:144,1,120,4|10
372,108,133323,2,0,B|328:60|260:52,1,120,0|10
208,128,134168,2,0,B|164:192|204:264,1,120,0|10
272,300,135013,2,0,B|340:320|392:268,1,120,4|2
384,320,142618,5,4
416,228,143041,1,0
384,136,143463,1,2
304,80,143886,1,0
208,80,144308,5,4
128,136,144731,1,0
96,228,145153,1,2
128,320,145576,1,0
204,260,145999,6,0,B|256:300|320:260,1,120,4|2
372,184,146844,2,0,B|256:108|144:184,2,240,2|4|0
316,262,148956,6,0,B|256:300|204:260,1,120,2|4
108,256,149801,2,0,B|48:300,2,60,8|2|0
104,160,150647,2,0,B|40:144,2,60,8|2|0
176,100,151492,2,0,B|148:28,2,60,8|2|0
196,196,152337,1,8
256,272,152759,5,4
344,312,153182,1,8
344,312,153393,1,2
344,312,153604,1,0
412,244,154027,2,0,B|480:244,2,60,8|2|0
344,176,154872,1,8
344,176,155083,1,2
344,176,155294,1,4
180,80,156139,5,4
212,172,156562,2,0,B|192:232,2,60,8|2|0
276,100,157407,2,0,B|332:64,2,60,8|2|0
180,80,158252,2,0,B|112:60|60:136,2,120,8|2|8
152,172,159520,5,4
116,260,159942,2,0,B|96:320,2,60,8|2|0
204,300,160787,1,8
204,300,160999,1,2
204,300,161210,1,0
244,212,161632,2,0,B|304:184|312:112,2,120,10|0|12
256,192,162900,12,0,167970
208,240,168393,5,8
304,240,168816,1,2
256,156,169238,1,8
256,192,169661,12,4,176421
