osu file format v5

[General]
AudioFilename: Touhou Youyou Yume ~Perfect Cherry Blossom~ (PC Game Rip) - Border of Life (dBU Arr.).mp3
AudioLeadIn: 3000
PreviewTime: -1
Countdown: 1
SampleSet: Soft
StackLeniency: 0.7
Mode: 0
LetterboxInBreaks: 1

[Editor]
Bookmarks: 19904,21443,23077,24520,26059,27693,29136,30290,31829,33752,35291,37214,38368,41060,42599,44137,44522,46061,46638,47599,48753,50677,52215,53754,54139,54523,54908,58370,65486,67121,68564,69910,71545,73180,74718,74911,75103,75295,75391,75584,75776,75968,76161,76353,76545,76642,77699,77892,78084,78373,78469,79334,79719,79911,80873,83950,85489,87797,90105,93375,96644,99529,102606,105683,108760,115300
DistanceSpacing: 1.20000004768372
BeatDivisor: 4
GridSize: 16

[Metadata]
Title:Border of Life
Artist:dBu Music
Creator:charlesisgay
Version:Hard
Source:
Tags:

[Difficulty]
HPDrainRate:6
CircleSize:4
OverallDifficulty:5
SliderMultiplier:1.4
SliderTickRate:1

[Events]
//Background and Video events
0,0,"JmpaEd.png"
//Break Periods
2,12249,12909
2,56838,57170
2,61647,64286
//Storyboard Layer 0 (Background)
//Storyboard Layer 1 (Fail)
//Storyboard Layer 2 (Pass)
//Storyboard Layer 3 (Foreground)
//Storyboard Sound Samples
//Background Colour Transformations
3,100,251,255,162

[TimingPoints]
6891,425.531914893617,4,2,0,62,1,0
14109,384.664700602641,4,2,0,62,1,0

[Colours]
Combo1 : 0,16,217
Combo2 : 236,0,236
Combo3 : 97,221,4
Combo4 : 228,255,43

[HitObjects]
112,272,6891,2,2,B|-15:272|-15:208|112:208,1,210,2|8
240,208,8167,1,8
320,208,8593,2,2,B|448:208|448:144|312:144,1,210,0|8
192,144,9869,5,8
240,64,10295,1,2
160,64,10720,1,8
80,64,11146,1,4
80,144,11571,2,8,B|80:208|224:208,1,140,8|10
256,192,14109,12,4,15071
336,288,15263,5,0
288,288,15455,2,2,B|192:288,1,70
176,288,15840,1,8
128,288,16032,2,0,B|128:208,1,70
240,176,16802,6,2,B|336:176,1,70,2|2
288,144,17186,2,8,B|192:144,1,70,8|12
192,112,17571,2,8,B|240:112|288:112,2,70
64,64,18340,6,2,B|64:160,1,70,2|2
64,176,18725,2,8,B|64:272,1,70
64,288,19110,2,2,B|32:320|64:352,2,70
128,224,19879,6,8,B|224:224,1,70
192,176,20264,2,4,B|96:176,1,70
80,160,20648,2,2,B|80:64,1,70
48,64,21033,1,8
256,96,21418,6,8,B|192:160,2,70,8|8|8
288,80,21995,2,4,B|320:48|352:80,1,70
352,112,22379,2,2,B|352:208,1,70,2|10
272,192,22956,5,4
192,192,23341,2,8,B|128:160|160:128,1,70
112,128,23726,2,4,B|32:128,2,70
256,64,24495,6,8,B|192:128,1,70,8|10
256,160,24880,2,2,B|320:224,1,70,2|10
256,256,25264,2,8,B|192:320,1,70,8|10
256,352,25649,1,4
352,208,26034,5,8
272,208,26418,2,4,B|272:176|304:176|304:144,1,70
272,112,26803,2,8,B|304:80|336:112,2,70
224,112,27380,2,6,B|224:208,1,70
256,192,27669,12,2,28727
256,96,29111,5,4
256,224,29687,1,2
112,192,30265,6,2,B|112:32|432:32|432:192,1,420,6|6
352,208,31804,2,8,B|288:208|288:144|224:144,1,140
160,160,33727,6,8,B|288:160|160:64|352:64,2,210
288,256,35266,2,8,B|384:192|128:192,1,210,8|4
400,160,36420,2,0,B|400:64|304:64,1,140,4|8
192,160,37189,2,0,B|192:64|288:64,1,140,4|8
304,224,37958,2,0,B|304:64,1,140,4|8
144,96,39497,5,8
224,96,39689,1,8
320,96,39906,2,2,B|320:48|368:48|368:160|320:160|320:240,1,210
80,240,41036,2,8,B|128:144|208:144,1,140
432,144,41997,1,8
192,80,42574,6,8,B|272:80|272:160|336:160,4,140,8|8|2|8|2
256,192,44498,12,4,46037
256,96,46613,6,8,B|192:32|400:32|240:192,1,210
256,336,47575,2,2,B|256:192,2,140,2|8|2
192,128,48729,6,0,B|336:128,4,140,8|2|8|2|8
16,128,50652,5,2
256,192,50748,12,14,52191
112,128,52576,6,0,B|112:112|176:112|176:128,1,70,2|8
336,128,53153,2,8,B|416:128,2,70
336,208,53730,5,10
112,48,54114,1,10
112,320,54499,1,10
368,208,54884,1,10
256,80,55268,5,8
176,224,55653,2,8,B|256:224,1,70,2|8
416,224,56230,2,8,B|432:176|416:128,2,70,8|8|12
432,304,58346,5,4
272,256,58730,2,2,B|272:304|208:304,1,70,8|10
112,176,59307,2,8,B|192:176,3,70,8|8|8|2
256,16,60269,1,4
288,176,60654,1,4
256,336,61038,1,4
224,176,61423,1,4
432,64,65462,6,4,B|400:16|368:64,2,70
432,144,66039,1,8
32,256,67001,6,8,B|112:256,1,70,8|10
176,208,67385,2,8,B|176:128,1,70,8|10
112,64,68539,6,0,B|144:16|192:16,1,70
240,48,68924,1,0
320,80,69116,1,6
240,112,69309,1,0
160,128,69501,1,6
240,160,69693,1,0
320,176,69886,1,6
240,208,70078,1,0
160,240,70270,1,6
160,320,70463,1,14
96,288,71617,6,8,B|192:288,1,70
256,288,72001,2,0,B|256:192,1,70,2|4
464,144,73155,6,0,B|512:80|400:80|448:144|400:144|416:112|352:112|352:112,1,140
64,112,74694,5,8
128,48,74886,5,2
176,112,75078,5,8
224,48,75270,5,2
272,112,75463,5,8
320,48,75655,5,2
368,112,75847,5,8
416,48,76040,5,2
464,112,76232,5,8
464,192,76424,6,2,B|464:288,1,70,2|6
144,128,77771,5,2
208,192,77963,1,0
256,128,78155,1,2
304,192,78348,1,8
352,128,78540,1,8
176,288,79310,6,0,B|272:288,1,70,2|0
336,288,79694,1,2
272,224,79887,2,8,B|192:224,1,70
32,208,80848,6,0,B|64:176|96:208,1,70,2|8
176,208,81233,6,0,B|208:240|240:208,1,70,2|8
320,208,81617,6,0,B|352:176|384:208,1,70,2|8
464,208,82002,6,0,B|496:176|464:144,2,70,2|8|2
384,208,82579,6,0,B|352:176|320:208,1,70,8|6
144,16,83926,6,8,B|208:80,1,70
256,112,84310,2,2,B|256:192,1,70
368,16,85464,6,2,B|304:80,1,70
256,112,85849,2,8,B|256:192,1,70
256,208,87003,5,8
320,144,87195,2,2,B|352:112|320:80,1,70
192,192,87772,2,0,B|224:160|256:192,1,70,8|2
320,144,88157,2,0,B|352:112|320:80,1,70,8|2
256,32,88542,2,4,B|224:0|192:32,2,70
256,192,90080,12,0,93349
128,128,93542,5,8
208,128,93735,2,2,B|256:128|272:32|192:32,1,140
112,32,94312,1,8
48,192,94696,5,8
96,256,94889,1,2
144,192,95081,1,8
208,256,95273,2,8,B|448:256|448:48|208:48,1,420
160,48,96620,1,2
256,192,96812,12,0,102581
368,144,102774,5,8
320,80,102967,2,2,B|288:32|256:16|192:16|128:32|80:64|48:112|32:160|32:209|48:256,1,420
96,288,104313,1,8
176,304,104505,2,2,B|208:352|240:368|304:368|368:352|416:320|448:272|464:224|463:174|448:128,1,420
400,96,105852,5,8
336,32,106044,1,2
160,32,106429,1,8
96,96,106621,1,2
96,256,107006,5,8
176,288,107198,1,2
96,320,107390,1,8
176,288,107583,2,2,B|240:288|240:224|320:224,3,140
384,224,108929,1,0
256,192,109121,12,0,111813
464,192,112006,5,0
384,192,112199,2,0,B|352:160|224:208,1,140
160,208,112776,1,0
80,208,113160,2,0,B|80:160|144:160,1,70
208,144,113545,1,0
256,80,113737,2,4,B|400:80,2,140
