osu file format v7

[General]
AudioFilename: Native Faith.mp3
AudioLeadIn: 2000
PreviewTime: 47538
Countdown: 0
SampleSet: Normal
StackLeniency: 0.7
Mode: 1
LetterboxInBreaks: 0
SkinPreference:taiko

[Editor]
DistanceSpacing: 0.5
BeatDivisor: 4
GridSize: 8

[Metadata]
Title:Shinkou Fuuka Kyoku ~ Native Faith
Artist:dBu
Creator:saymun
Version:Taiko Oni
Source:Touhou
Tags:Moriya Suwako

[Difficulty]
HPDrainRate:5
CircleSize:5
OverallDifficulty:5
SliderMultiplier:1.4
SliderTickRate:4

[Events]
//Background and Video events
//Break Periods
//Storyboard Layer 0 (Background)
Sprite,Background,Centre,"bg.jpg",320,240 S,0,-1995,106221,0.63 M,0,6,,320,478
//Storyboard Layer 1 (Fail)
//Storyboard Layer 2 (Pass)
//Storyboard Layer 3 (Foreground)
Sprite,Foreground,Centre,"taikobg.png",320,240 S,0,-1995,106221,0.8 M,0,6,,320,240
//Storyboard Sound Samples
//Background Colour Transformations
3,100,0,0,0

[TimingPoints]
175,348.837209302326,4,1,0,100,1,0
92268,-100,4,1,0,100,0,1
104477,-100,4,1,0,100,0,0

[Colours]
Combo1 : 223,156,0
Combo2 : 128,0,255
Combo3 : 45,223,0
Combo4 : 230,40,40

[HitObjects]
32,32,175,1,0
96,32,872,1,0
160,32,1570,1,0
224,32,2268,1,0
288,32,2791,1,0
352,32,2965,1,8
416,32,3140,1,0
480,32,3314,1,0
480,96,3488,1,8
416,96,3663,1,8
352,96,3837,1,0
288,96,4012,1,8
224,96,4186,1,0
160,96,4361,1,8
96,96,4535,1,8
32,96,4709,1,0
32,160,4884,1,0
96,160,5058,1,0
160,160,5145,1,0
224,160,5233,1,0
288,160,5320,1,0
352,160,5407,1,8
416,160,5494,1,8
480,160,5581,1,0
480,224,5756,1,0
416,224,5843,1,8
352,224,6018,1,8
288,224,6105,1,0
224,224,6279,1,0
160,224,6454,1,0
96,224,6541,1,0
32,224,6628,1,8
32,288,6715,1,0
96,288,6802,1,0
160,288,6977,1,8
224,288,7151,1,0
288,288,7238,1,8
352,288,7413,1,0
416,288,7500,1,8
480,288,7675,1,8
480,352,7762,1,0
416,352,7849,1,0
352,352,8023,1,8
288,352,8198,1,8
224,352,8372,1,8
160,352,8547,1,8
96,352,8634,1,0
32,352,8808,1,8
32,288,8895,1,0
32,224,9070,1,0
32,160,9157,1,0
32,96,9244,1,8
32,32,9331,1,8
96,32,9419,1,0
96,96,9506,1,0
96,160,9593,1,8
96,224,9768,1,0
96,288,9942,1,8
96,352,10029,1,0
160,352,10204,1,8
160,288,10291,1,0
160,224,10465,1,0
160,160,10640,1,8
160,96,10727,1,8
160,32,10814,1,0
224,32,10901,1,0
224,96,10988,1,8
224,160,11076,1,8
224,224,11163,1,0
224,288,11337,1,0
224,352,11512,1,0
288,352,11599,1,0
288,288,11686,1,0
288,224,11773,1,0
288,160,11860,1,0
288,96,11948,1,0
288,32,12035,1,8
352,32,12122,1,0
352,96,12209,1,0
352,160,12297,1,0
352,224,12384,1,8
352,288,12471,1,0
352,352,12558,1,0
416,352,12733,1,0
416,288,12907,1,0
416,224,12994,1,0
416,160,13081,1,0
416,96,13168,1,0
416,32,13256,1,0
480,32,13343,1,0
480,96,13430,1,8
480,160,13518,1,0
480,288,13605,1,8
480,224,13692,1,0
480,352,13779,1,8
416,352,13866,1,0
352,352,13954,1,8
288,352,14128,1,0
224,352,14302,1,0
160,352,14390,1,0
96,352,14477,1,8
32,352,14651,1,8
32,288,14826,1,0
96,288,14913,1,0
160,288,15000,1,8
224,288,15087,1,0
288,288,15175,1,0
352,288,15349,1,8
416,288,15523,1,0
480,288,15785,1,0
480,224,16047,1,0
416,224,16221,1,0
352,224,16570,1,0
288,224,16744,1,0
224,224,16919,1,0
160,224,17006,1,0
96,224,17093,1,8
32,224,17268,1,0
32,160,17442,1,8
96,160,17616,1,0
160,160,17704,1,0
224,160,17791,1,8
288,160,17965,1,0
352,160,18140,1,8
416,160,18314,2,0,L|480:160|480:96|320:96,1,280
288,96,19361,1,0
224,96,19535,1,0
160,96,19709,1,0
96,96,19884,1,0
32,96,20058,1,8
32,32,20233,1,0
96,32,20320,1,0
160,32,20407,1,0
224,32,20581,1,0
288,32,20669,1,0
352,32,20756,1,0
416,32,20930,1,0
480,32,21105,1,0
480,96,21192,1,8
480,160,21366,1,8
480,224,21454,1,0
480,288,21628,1,0
480,352,21802,1,8
416,352,21890,1,0
416,288,22064,1,8
416,224,22151,1,0
416,160,22326,1,0
416,96,22500,1,0
416,32,22849,1,8
352,32,23198,1,0
352,96,23459,1,0
352,160,23721,1,8
352,224,23895,1,0
352,288,24070,1,8
352,352,24244,1,0
288,352,24419,1,8
288,288,24593,1,0
288,224,24768,1,0
288,160,24855,1,0
288,96,24942,1,0
288,32,25029,1,0
224,32,25116,1,8
224,96,25204,1,8
224,160,25291,1,0
224,224,25465,1,8
224,288,25640,1,0
224,352,25727,1,0
160,352,25814,1,8
160,288,25988,1,0
160,224,26163,1,8
160,160,26250,1,0
160,96,26337,1,8
160,32,26512,1,0
96,32,26686,1,0
96,96,26948,1,0
96,160,27209,1,0
96,224,27384,1,0
352,224,27733,1,0
288,224,27907,1,0
224,224,28082,1,0
160,224,28169,1,0
96,224,28256,1,8
32,224,28431,1,0
32,160,28605,1,8
96,160,28779,1,0
160,160,28867,1,0
224,160,28954,1,8
288,160,29128,1,0
352,160,29303,1,8
416,160,29477,2,0,L|480:160|480:96|328:96,1,280
288,96,30523,1,0
224,96,30697,1,0
160,96,30871,1,0
96,96,31046,1,8
32,96,31220,1,8
32,32,31395,1,0
96,32,31482,1,0
160,32,31569,1,0
224,32,31743,1,0
288,32,31831,1,0
352,32,31918,1,0
416,32,32092,1,0
480,32,32267,1,0
480,96,32354,1,8
480,160,32528,1,8
480,224,32616,1,0
480,288,32790,1,0
480,352,32964,1,8
416,352,33052,1,0
416,288,33226,1,8
416,224,33313,1,0
416,160,33488,1,0
416,96,33662,1,0
416,32,34011,1,8
352,32,34360,1,0
352,96,34621,1,0
352,160,34883,1,8
352,224,35058,2,0,L|352:368|288:368|288:136,1,420
64,56,36454,1,0
56,208,36541,1,0
64,344,36628,1,8
144,160,36802,1,0
152,296,36977,1,8
64,56,37151,1,0
56,208,37238,1,0
64,344,37325,1,8
144,160,37499,1,8
152,296,37674,1,0
64,56,37849,1,0
56,208,37936,1,0
64,344,38023,1,8
144,160,38198,1,0
152,296,38372,1,8
64,56,38547,1,0
64,344,38721,1,0
144,160,38895,1,8
152,296,39070,1,8
296,88,39244,1,0
352,96,39331,1,0
416,176,39419,1,8
368,304,39506,1,0
320,232,39593,1,0
456,248,39768,1,8
296,88,39942,1,0
352,96,40029,1,0
416,176,40117,1,8
368,304,40204,1,8
320,232,40291,1,0
456,248,40466,1,0
296,88,40640,1,8
352,96,40727,1,8
416,176,40815,1,0
368,304,40902,1,0
320,232,40989,1,8
456,248,41164,1,0
296,88,41337,1,0
352,96,41424,1,0
416,176,41512,1,0
368,304,41599,1,0
320,232,41686,1,8
456,248,41861,1,0
192,320,42035,1,0
64,232,42209,1,0
80,176,42297,1,0
160,128,42384,1,8
144,216,42471,1,8
64,232,42558,1,0
80,176,42645,1,0
160,128,42733,1,8
144,216,42820,1,8
64,232,42907,1,0
80,176,42994,1,8
160,128,43082,1,0
144,216,43169,1,0
216,200,43256,1,8
192,320,43430,1,0
64,232,43605,1,0
80,176,43692,1,8
160,128,43780,1,0
144,216,43867,1,0
64,232,43954,1,8
160,128,44129,1,0
144,216,44216,1,0
80,176,44391,1,8
160,128,44478,1,8
216,200,44652,1,8
192,320,44826,1,8
320,272,44913,1,8
64,232,45000,1,0
80,176,45087,1,0
160,128,45175,1,8
144,216,45262,1,8
64,232,45349,1,0
80,176,45436,1,0
160,128,45523,1,8
144,216,45611,1,8
64,232,45698,1,0
80,176,45785,1,0
160,128,45872,1,8
144,216,45960,1,0
216,200,46047,1,0
192,320,46221,1,0
320,272,46308,1,0
64,232,46395,1,8
80,176,46482,1,8
160,128,46570,1,0
144,216,46657,1,0
64,232,46744,1,8
80,176,46831,1,8
160,128,46918,1,0
144,216,47006,1,0
64,232,47093,1,8
80,176,47180,1,8
160,128,47268,1,0
144,216,47355,1,8
216,200,47442,1,8
288,352,47616,1,0
224,352,47790,1,0
160,352,47878,1,0
96,352,47965,1,8
32,352,48139,1,8
32,288,48314,1,0
96,288,48401,1,0
160,288,48488,1,8
224,288,48575,1,0
288,288,48663,1,0
352,288,48837,1,8
416,288,49011,1,0
480,288,49273,1,0
480,224,49535,1,0
416,224,49709,1,0
352,224,50058,1,0
288,224,50232,1,0
224,224,50407,1,0
160,224,50494,1,0
96,224,50581,1,8
32,224,50756,1,0
32,160,50930,1,8
96,160,51104,1,0
160,160,51192,1,0
224,160,51279,1,8
288,160,51453,1,0
352,160,51628,1,8
416,160,51802,2,0,L|480:160|480:96|320:96,1,280
288,96,52849,1,0
224,96,53023,1,0
160,96,53197,1,0
96,96,53372,1,0
32,96,53546,1,8
32,32,53721,1,0
96,32,53808,1,0
160,32,53895,1,0
224,32,54069,1,0
288,32,54157,1,0
352,32,54244,1,0
416,32,54418,1,0
480,32,54593,1,0
480,96,54680,1,8
480,160,54854,1,8
480,224,54942,1,0
480,288,55116,1,0
480,352,55290,1,8
416,352,55378,1,0
416,288,55552,1,8
416,224,55639,1,0
416,160,55814,1,0
416,96,55988,1,0
416,32,56337,1,8
352,32,56686,1,0
352,96,56947,1,0
352,160,57209,1,8
352,224,57383,1,0
352,288,57558,1,8
352,352,57732,1,0
288,352,57907,1,8
288,288,58081,1,0
288,224,58256,1,0
288,160,58343,1,0
288,96,58430,1,0
288,32,58517,1,0
224,32,58604,1,8
224,96,58692,1,8
224,160,58779,1,0
224,224,58953,1,8
224,288,59128,1,0
224,352,59215,1,0
160,352,59302,1,8
160,288,59476,1,0
160,224,59651,1,8
160,160,59738,1,0
160,96,59825,1,8
160,32,60000,1,0
96,32,60174,1,0
96,96,60436,1,0
96,160,60697,1,0
96,224,60872,1,0
352,224,61221,1,0
288,224,61395,1,0
224,224,61570,1,0
160,224,61657,1,0
96,224,61744,1,8
32,224,61919,1,0
32,160,62093,1,8
96,160,62267,1,0
160,160,62355,1,0
224,160,62442,1,8
288,160,62616,1,0
352,160,62791,1,8
416,160,62965,2,0,L|480:160|480:96|320:96,1,280
288,96,64011,1,0
224,96,64185,1,0
160,96,64361,1,0
96,96,64534,1,8
32,96,64708,1,8
32,32,64883,1,0
96,32,64970,1,0
160,32,65057,1,0
224,32,65233,1,0
288,32,65319,1,0
352,32,65406,1,0
416,32,65580,1,0
480,32,65755,1,0
480,96,65842,1,8
480,160,66018,1,8
480,224,66104,1,0
480,288,66278,1,0
480,352,66454,1,8
416,352,66541,1,0
416,288,66714,1,8
416,224,66801,1,0
416,160,66976,1,0
416,96,67150,1,0
416,32,67499,1,8
352,32,67848,1,0
352,96,68111,1,0
352,160,68371,1,8
352,224,68546,2,0,L|352:368|288:368|288:128,1,420
256,128,69942,1,0
152,96,70204,1,8
96,208,70465,1,0
136,280,70640,1,0
184,224,70988,1,8
72,136,71337,1,0
152,176,71599,1,8
224,168,71861,1,0
256,272,72035,1,0
112,256,72297,1,8
200,312,72558,1,0
368,320,72733,1,0
184,232,72994,1,8
304,224,73256,1,8
368,320,73430,1,0
184,232,73692,1,8
304,224,73953,1,8
208,128,74128,1,0
96,152,74651,1,8
112,80,74826,1,0
176,48,74913,1,0
224,48,75000,1,8
296,48,75087,1,8
344,56,75175,1,0
344,56,75262,1,8
408,56,75349,1,0
136,256,75523,1,8
208,280,75611,1,0
296,288,75698,1,0
136,256,75785,1,8
208,280,75873,1,0
296,288,75960,1,0
136,256,76047,1,8
208,280,76135,1,0
296,288,76222,1,0
184,160,76395,1,8
304,176,76570,1,0
352,176,76657,1,0
352,176,76744,1,0
48,192,76919,1,8
120,208,77616,1,0
80,280,78314,1,8
160,288,78401,1,0
200,288,78488,1,0
80,280,78576,1,8
160,288,78663,1,0
200,288,78750,1,0
80,280,78837,1,8
160,288,78924,1,0
200,288,79011,1,0
128,120,79099,1,8
224,112,79186,1,0
304,112,79273,1,8
352,112,79361,1,0
128,120,79448,1,8
224,112,79535,1,0
304,112,79622,1,8
352,112,79710,1,0
256,200,79797,1,8
336,216,79884,1,8
352,112,79971,1,0
256,200,80058,1,8
336,216,80145,1,8
352,112,80233,1,0
256,200,80320,1,8
336,216,80407,1,8
352,112,80494,1,0
256,200,80581,1,8
336,216,80668,1,8
352,112,80756,1,0
256,200,80843,1,8
336,216,80930,1,8
256,128,81105,1,0
152,96,81367,1,8
96,208,81628,1,0
136,280,81803,1,0
184,224,82151,1,8
72,136,82500,1,0
152,176,82762,1,8
224,168,83024,1,0
256,272,83198,1,0
112,256,83460,1,8
200,312,83721,1,0
368,320,83896,1,0
184,232,84157,1,8
304,224,84419,1,8
368,320,84593,1,0
184,232,84855,1,8
304,224,85116,1,8
208,128,85291,1,0
96,152,85814,1,8
112,80,85989,1,0
176,48,86076,1,0
224,48,86163,1,8
296,48,86250,1,8
344,56,86338,1,0
344,56,86425,1,8
408,56,86512,1,0
136,256,86686,1,8
208,280,86774,1,0
296,288,86861,1,0
136,256,86948,1,8
208,280,87036,1,0
296,288,87123,1,0
136,256,87210,1,8
208,280,87298,1,0
296,288,87385,1,0
184,160,87558,1,8
304,176,87733,1,0
352,176,87820,1,0
352,176,87907,1,0
48,192,88082,1,8
120,208,88779,1,0
80,280,89477,1,8
160,288,89564,1,0
200,288,89651,1,0
80,280,89739,1,8
160,288,89826,1,0
200,288,89913,1,0
80,280,90000,1,8
160,288,90087,1,0
200,288,90174,1,0
128,120,90262,1,8
224,112,90349,1,0
304,112,90436,1,8
352,112,90524,1,0
128,120,90611,1,8
224,112,90698,1,0
304,112,90785,1,8
352,112,90873,1,0
256,200,90960,1,8
336,216,91047,1,8
352,112,91134,1,0
256,200,91221,1,8
336,216,91308,1,8
352,112,91396,1,0
256,200,91483,1,8
336,216,91570,1,8
352,112,91657,1,0
256,200,91744,1,8
336,216,91831,1,8
352,112,91919,1,0
256,200,92006,1,8
336,216,92093,1,8
96,208,92268,1,0
88,264,92355,1,0
120,296,92442,1,8
224,312,92616,1,0
184,256,92791,1,8
96,208,92965,1,0
88,264,93052,1,0
120,296,93139,1,8
224,312,93313,1,0
184,256,93488,1,8
96,208,93663,1,0
88,264,93750,1,8
120,296,93837,1,8
224,312,94012,1,8
184,256,94186,1,0
96,208,94361,1,0
88,264,94448,1,8
120,296,94535,1,8
224,312,94709,1,8
184,256,94884,1,0
96,208,95058,1,8
88,264,95145,1,0
120,296,95232,1,0
224,312,95406,1,8
184,256,95581,1,0
96,208,95756,1,8
88,264,95843,1,0
120,296,95930,1,0
224,312,96104,1,0
184,256,96279,1,8
96,208,96454,1,0
88,264,96541,1,8
120,296,96628,1,0
224,312,96802,1,8
184,256,96977,1,0
96,208,97151,1,8
88,264,97238,1,0
120,296,97325,1,8
224,312,97499,1,0
184,256,97674,1,8
96,104,97849,1,0
160,96,97936,1,0
240,96,98023,1,8
336,96,98111,1,0
376,96,98198,1,8
416,160,98372,1,0
96,104,98547,1,0
160,96,98634,1,8
240,96,98721,1,0
336,96,98809,1,0
376,96,98896,1,8
416,160,99070,1,0
96,104,99244,1,8
160,96,99331,1,0
240,96,99419,1,8
336,96,99506,1,8
376,96,99593,1,0
416,160,99767,1,0
96,104,99942,1,0
160,96,100029,1,8
240,96,100116,1,8
336,96,100204,1,0
376,96,100291,1,8
416,160,100465,1,0
120,168,100640,1,0
192,184,100727,1,0
256,200,100814,1,8
304,208,100901,1,8
360,232,100988,1,0
344,264,101076,1,0
392,256,101163,1,8
120,168,101337,1,0
192,184,101424,1,8
256,200,101511,1,0
304,208,101598,1,0
360,232,101685,1,8
344,264,101773,1,8
392,256,101860,1,0
120,168,102035,1,8
192,184,102122,1,0
256,200,102209,1,0
304,208,102297,1,8
360,232,102384,1,0
344,264,102471,1,0
392,256,102558,1,8
120,168,102645,1,0
192,184,102732,1,0
256,200,102819,1,8
304,208,102906,1,0
360,232,102993,1,0
344,264,103081,1,8
392,256,103168,1,8
120,280,103256,1,0
288,304,103430,1,0
200,72,103518,1,0
272,96,103605,1,8
344,72,103692,1,0
408,64,103779,1,0
280,40,103866,1,0
136,40,103954,1,8
128,96,104041,1,0
384,152,104215,1,8
432,152,104302,1,0
424,160,104361,1,0
416,168,104419,1,0
464,304,104477,1,8
232,280,104826,1,4
