osu file format v7

[General]
AudioFilename: Native Faith.mp3
AudioLeadIn: 2000
PreviewTime: 47538
Countdown: 0
SampleSet: Normal
StackLeniency: 0.7
Mode: 0
LetterboxInBreaks: 0

[Editor]
DistanceSpacing: 0.800000011920929
BeatDivisor: 4
GridSize: 8

[Metadata]
Title:Shinkou Fuuka Kyoku ~ Native Faith
Artist:dBu
Creator:saymun
Version:Easy
Source:Touhou
Tags:Moriya Suwako

[Difficulty]
HPDrainRate:0
CircleSize:3
OverallDifficulty:2
SliderMultiplier:1
SliderTickRate:1

[Events]
//Background and Video events
0,0,"bg.jpg"
//Break Periods
2,36654,37684
2,70142,71173
2,92468,93498
//Storyboard Layer 0 (Background)
//Storyboard Layer 1 (Fail)
//Storyboard Layer 2 (Pass)
//Storyboard Layer 3 (Foreground)
//Storyboard Sound Samples
//Background Colour Transformations
3,100,0,0,0

[TimingPoints]
175,348.837209302326,4,1,0,90,1,0
5581,-100,4,1,0,70,0,0
13953,-100,4,1,0,90,0,0

[Colours]
Combo1 : 223,156,0
Combo2 : 128,0,255
Combo3 : 45,223,0
Combo4 : 230,40,40

[HitObjects]
256,104,175,1,4
416,104,872,1,4
416,264,1570,1,4
256,264,2268,1,4
96,264,2965,6,0,B|48:248|24:184|48:120|96:104,3,200
248,56,5756,6,0,B|416:64|456:280|320:344,1,400
168,344,7849,1,0
72,216,8547,6,0,B|136:112|256:160|344:280|448:152,2,400
176,336,12035,5,0
336,336,12733,1,0
256,200,13430,1,0
336,64,14128,6,0,B|227:31|117:67,1,200
104,216,15523,2,0,B|112:280|80:320,2,100,0|0|2
240,320,16919,6,0,B|360:336|416:232,2,200
240,160,19012,1,0
240,80,19361,1,0
160,80,19709,6,0,B|40:112|48:240,3,200
176,320,22500,5,0
256,320,22849,1,0
336,320,23198,2,0,B|448:320,4,100
432,192,25291,6,0,B|424:64|280:88,1,200
136,96,26686,2,0,B|80:104|16:96,2,100,0|0|2
88,200,28081,6,0,B|88:328|232:320,1,200
288,296,29128,1,0
352,344,29477,2,0,B|464:320|488:192|464:64|352:40,1,400
192,40,31570,5,0
136,192,32268,1,0
192,344,32965,1,0
256,192,33663,12,0,36454
432,336,39244,5,0
288,272,39942,1,0
144,336,40640,1,0
0,272,41338,1,0
144,192,42035,6,4,B|168:80|296:56|424:80|448:192,2,400
256,304,45523,1,0
416,304,46221,1,0
336,168,46919,1,0
184,120,47616,6,0,B|168:56|112:48|56:56|40:120,1,200
40,280,49012,2,0,B|56:344|112:352|168:344|184:280,1,200,0|2
192,120,50407,6,0,B|328:120|296:264,1,200
432,336,51802,1,0
432,256,52151,1,0
432,176,52500,1,0
432,96,52849,1,0
352,80,53198,6,0,B|256:24|160:80,1,200
64,208,54593,2,0,B|160:264|256:208,1,200
368,328,55988,5,0
288,328,56337,1,0
208,328,56686,1,0
128,328,57035,1,0
48,328,57384,1,0
464,104,58779,6,0,B|448:56|384:32|320:56|304:104,1,200
48,104,60175,2,0,B|64:56|128:32|192:56|208:104,1,200,0|2
352,192,61570,6,0,B|136:192,1,200
104,344,62965,2,0,B|416:344,1,300
448,272,64361,5,0
64,272,65756,1,0
256,56,67151,5,0
256,136,67500,1,0
256,216,67849,1,0
256,192,68547,12,4,69942
472,192,72733,6,0,B|448:256|368:272|288:256|256:192|224:128|144:112|64:128|40:192,2,500
376,64,76919,6,0,B|264:64,1,100
200,40,77616,2,0,B|88:40,1,100,0|0
256,192,78314,12,0,81105
392,80,82500,6,0,B|184:80,1,200
112,80,83547,1,0
96,160,83895,6,0,B|96:280,1,100
176,280,84593,2,0,B|176:160,1,100,0|0
256,168,85291,2,0,B|256:336,1,150
456,312,86686,5,0
424,152,87384,1,0
408,72,87733,1,0
328,72,88081,2,0,B|104:72,1,200
256,192,89477,12,0,92268
160,208,95058,6,0,B|160:344|312:312,1,200
384,192,96454,2,0,B|384:56|232:88,1,200
96,80,97849,6,0,B|24:176|80:288,1,200
232,288,99244,2,0,B|304:192|248:80,1,200
416,112,100640,5,0
416,272,101337,1,0
256,192,102035,12,4,104826
