osu file format v10

[General]
AudioFilename: Super Meat Boy It Ends (Indie Game Music HD).mp3
AudioLeadIn: 0
PreviewTime: 42585
Countdown: 0
SampleSet: Normal
StackLeniency: 0.7
Mode: 0
LetterboxInBreaks: 0

[Editor]
DistanceSpacing: 0.8
BeatDivisor: 4
GridSize: 4

[Metadata]
Title:It Ends (Cut Ver.)
TitleUnicode:It Ends (Cut Ver.)
Artist:dB soundworks
ArtistUnicode:dB soundworks
Creator:Mercurial
Version:The Hospital
Source:Super Meat Boy
Tags:Touche Danny Baranowsky Deif catch the beat ctb iMercurial CoroQuetz Steam XBOX 360 Team Meat
BeatmapID:142446
BeatmapSetID:39256

[Difficulty]
HPDrainRate:4
CircleSize:4
OverallDifficulty:4
ApproachRate:4
SliderMultiplier:1.1
SliderTickRate:2

[Events]
//Background and Video events
0,0,"Meatboy2.png"
//Break Periods
2,34251,41227
2,51242,58218
//Storyboard Layer 0 (Background)
//Storyboard Layer 1 (Fail)
//Storyboard Layer 2 (Pass)
//Storyboard Layer 3 (Foreground)
//Storyboard Sound Samples
//Background Colour Transformations
3,100,163,162,255

[TimingPoints]
8565,530.973451327434,4,1,0,60,1,0
42547,-66.6666666666667,4,1,0,75,0,1
51042,-100,4,1,0,60,0,0
59538,-100,4,2,0,60,0,0
68034,-100,4,1,0,60,0,0

[Colours]
Combo1 : 213,135,83
Combo2 : 255,55,55
Combo3 : 128,0,0

[HitObjects]
104,96,8564,1,4,0:0:0
280,88,9626,2,0,B|336:88|336:88|376:136,2,110,8|0|8,0:0|0:0|0:0,0:0:0
112,136,11750,6,0,B|104:200|160:224,1,110,0|8,0:0|0:0,0:0:0
212,152,12812,2,0,B|220:88|164:64,1,110,0|8,0:0|0:0,0:0:0
112,136,13874,1,0,0:0:0
124,224,14405,1,8,0:0:0
208,252,14936,6,0,B|255:295|309:252,1,110,0|8,0:0|0:0,0:0:0
368,192,15998,2,0,B|408:232,2,55,0|0|8,0:0|0:0|0:0,0:0:0
368,104,17060,5,4,0:0:0
280,104,17591,2,0,B|216:104|200:168,2,110,8|0|8,0:0|0:0|0:0,0:0:0
368,104,19184,5,0,0:0:0
368,192,19715,2,0,B|432:208|424:272,1,110,8|0,0:0|0:0,0:0:0
336,272,20777,1,8,0:0:0
248,272,21308,6,0,B|192:272|192:272|160:228,1,110,0|8,0:0|0:0,0:0:0
72,232,22370,2,0,B|72:176|72:176|116:144,1,110,0|8,0:0|0:0,0:0:0
164,72,23432,5,4,0:0:0
348,72,24494,1,4,0:0:0
160,192,25556,5,4,0:0:0
208,120,26087,1,8,0:0:0
296,120,26618,1,0,0:0:0
296,120,27149,2,0,B|408:120,1,110,8|0,0:0|0:0,0:0:0
384,204,28211,6,0,B|380:268|328:292,1,110,8|0,0:0|0:0,0:0:0
240,288,29272,1,8,0:0:0
256,192,29803,12,0,31926,0:0:0
256,192,32989,5,8,0:0:0
256,192,34051,1,4,0:0:0
184,236,42547,6,0,B|148:160|192:76,1,165.000006294251,4|8,0:0|0:0,0:0:0
320,77,43609,2,0,B|364:160|328:236,1,165.000006294251,0|8,0:0|0:0,0:0:0
320,368,44671,5,0,0:0:0
188,368,45202,1,8,0:0:0
256,256,45733,2,0,B|200:212|312:144|256:108,2,165.000006294251,0|8|4,0:0|0:0|0:0,0:0:0
372,192,47326,5,8,0:0:0
324,68,47857,1,0,0:0:0
192,68,48388,1,8,0:0:0
140,192,48918,5,0,0:0:0
184,316,49449,2,0,B|256:388|328:316,2,165.000006294251,8|0|8,0:0|0:0|0:0,0:0:0
256,264,51042,1,4,0:0:0
200,68,59538,5,0,0:0:0
112,72,60069,2,0,B|120:136|176:152,1,110,8|0,0:0|0:0,0:0:0
256,192,61131,1,8,0:0:0
184,248,61662,5,0,0:0:0
264,288,62193,1,8,0:0:0
324,224,62724,1,0,0:0:0
404,264,63255,1,8,0:0:0
400,176,63786,6,0,B|440:140|440:140|412:92,1,110,0|8,0:0|0:0,0:0:0
328,116,64848,2,0,B|288:152|288:152|316:200,1,110,0|8,0:0|0:0,0:0:0
372,268,65910,5,0,0:0:0
308,332,66441,2,0,B|256:364|204:332,2,110,8|0|8,0:0|0:0|0:0,0:0:0
256,260,68034,5,4,0:0:0
204,188,68565,2,0,B|256:156|308:188,1,110,8|2,0:0|0:0,0:0:0
132,192,70157,5,0,0:0:0
172,272,70688,1,8,0:0:0
256,292,71219,1,0,0:0:0
328,240,71750,1,8,0:0:0
400,288,72281,5,0,0:0:0
464,228,72812,2,0,B|496:172|460:124,1,110,8|2,0:0|0:0,0:0:0
288,152,74405,5,0,0:0:0
244,76,74936,2,0,B|200:44|200:44|156:80,2,110,8|0|8,0:0|0:0|0:0,0:0:0
200,152,76529,5,0,0:0:0
112,152,77060,2,0,B|68:188,2,55,8|0|0,0:0|0:0|0:0,0:0:0
156,228,78122,1,8,0:0:0
196,308,78653,5,0,0:0:0
284,292,79184,2,0,B|296:260|304:236,2,55,8|0|0,0:0|0:0|0:0,0:0:0
372,312,80246,1,8,0:0:0
424,244,80777,5,0,0:0:0
432,156,81308,1,8,0:0:0
384,80,81839,1,0,0:0:0
304,40,82370,1,8,0:0:0
216,40,82901,6,0,B|160:40|160:40|120:96,1,110,0|8,0:0|0:0,0:0:0
120,168,83963,2,0,B|80:192|80:256|144:280,1,110,0|8,0:0|0:0,0:0:0
200,260,85025,6,0,B|177:310,2,55,0|0|8,0:0|0:0|0:0,0:0:0
272,212,86087,2,0,B|304:140,2,55,0|0|8,0:0|0:0|0:0,0:0:0
352,248,87149,5,0,0:0:0
400,176,87680,2,0,B|428:117|392:72,1,110,8|0,0:0|0:0,0:0:0
312,40,88741,1,8,0:0:0
240,88,89272,5,0,0:0:0
152,104,89803,2,0,B|152:156|152:156|104:188,1,110,8|0,0:0|0:0,0:0:0
168,248,90865,1,8,0:0:0
256,192,91396,12,4,93520,0:0:0
