osu file format v5

[General]
AudioFilename: kirakira.mp3
AudioLeadIn: 1004
PreviewTime: -1
Countdown: 0
SampleSet: Normal
StackLeniency: 0.7
Mode: 0
LetterboxInBreaks: 1

[Editor]
Bookmarks: 2524
DistanceSpacing: 0.800000011920929
BeatDivisor: 4
GridSize: 8

[Metadata]
Title:kirakira
Artist:d2b
Creator:miccoliasms
Version:Hard
Source:game
Tags:game

[Difficulty]
HPDrainRate:7
CircleSize:5
OverallDifficulty:7
SliderMultiplier:1.4
SliderTickRate:2

[Events]
//Background and Video events
0,0,"kirakira.jpg"
Video,0,"kirakira.avi"
//Break Periods
2,75348,78406
//Storyboard Layer 0 (Background)
//Storyboard Layer 1 (Fail)
//Storyboard Layer 2 (Pass)
//Storyboard Layer 3 (Foreground)
//Storyboard Sound Samples
//Background Colour Transformations
3,100,163,162,255

[TimingPoints]
14,297.029702970297,4,1,0,100,1,0
46944,-100,4,1,0,100,0,1

[Colours]
Combo1 : 0,255,0
Combo2 : 255,255,0
Combo3 : 255,0,0
Combo4 : 255,0,255
Combo5 : 255,128,0

[HitObjects]
144,96,2538,2,0,B|379:97,1,210
464,96,3280,2,0,B|464:192|464:160,2,70
408,96,3726,6,0,C|184:96,1,210
88,96,4468,2,0,B|88:192|88:160,2,70
136,128,4914,6,0,B|341:210,1,210
440,208,5657,2,0,B|440:112,2,70
392,176,6102,6,0,B|172:177,1,210
144,136,6696,6,0,B|379:137,1,210
320,88,7290,6,0,B|100:89,1,210
56,184,8033,1,0
88,224,8181,1,0
128,264,8330,1,0
168,296,8478,1,0
328,336,8925,5,0
416,272,9222,1,0
440,224,9370,1,0
464,176,9519,1,0
488,128,9667,1,0
344,32,10113,5,0
232,32,10410,1,0
208,80,10558,1,0
184,128,10707,1,0
160,176,10855,1,0
256,120,11152,1,0
344,192,11449,1,0
288,288,11746,1,0
344,288,11895,1,0
472,272,12192,5,0
472,160,12489,1,0
472,48,12786,1,0
360,48,13083,1,0
248,48,13380,5,0
136,48,13677,1,0
24,48,13974,1,0
24,160,14271,1,0
136,160,14568,5,0
248,160,14865,1,0
360,160,15162,1,0
472,160,15459,1,0
416,256,15756,5,4
360,256,15905,1,4
248,256,16201,1,4
16,72,17240,5,4
16,184,17538,1,4
232,120,18132,2,0,C|336:120,1,70
416,120,18577,1,0
416,232,18874,1,0
360,232,19023,1,0
320,272,19171,2,0,C|472:272,1,140
448,328,19617,1,0
392,328,19765,1,0
336,328,19914,1,0
240,272,20211,1,0
344,224,20508,2,0,C|272:224,1,70
272,168,20805,2,0,C|200:168,1,70
200,112,21102,2,0,C|56:112,1,140,0|0
56,168,21547,1,0
56,224,21696,1,0
168,224,21993,5,4
280,224,22290,1,4
96,352,22884,2,0,C|200:352,1,70
280,352,23330,1,0
392,352,23627,1,0
392,296,23775,1,0
392,240,23924,2,0,C|208:240,1,175
192,240,24369,1,0
136,240,24518,1,0
80,240,24666,1,0
80,128,24963,1,0
192,128,25260,2,0,C|192:48,4,70
40,192,26745,5,4
152,192,27042,1,4
376,192,27637,2,0,C|480:192,1,70
448,304,28082,2,0,C|280:304,1,140
248,304,28528,1,0
248,248,28676,2,0,C|248:208|232:176|200:152|152:136|88:128,1,210
112,72,29270,1,0
56,72,29419,1,0
56,184,29716,1,0
56,296,30013,2,0,C|56:376,6,70
56,72,31498,5,4
168,72,31795,1,4
392,72,32389,2,0,C|392:112,1,35
392,136,32538,2,0,C|392:176,1,35
392,256,32835,1,0
392,368,33132,1,0
336,368,33280,1,0
280,368,33429,1,0
168,368,33726,2,0,C|80:368,5,70
16,288,34765,1,0
32,232,34914,1,0
64,184,35062,1,0
96,136,35211,1,0
136,96,35359,1,0
176,56,35508,1,0
224,24,35656,1,0
224,80,35805,6,0,C|464:80,1,210
432,192,36547,2,0,C|432:280,2,70
384,224,36993,6,0,C|384:8,1,210
272,16,37736,2,0,C|168:16,2,70
240,56,38181,6,0,C|240:272,1,210
352,264,38924,2,0,C|448:265,2,70
384,304,39369,5,0
272,304,39666,1,0
216,304,39815,1,0
160,304,39963,1,0
104,304,40112,2,0,C|32:304,2,70
104,248,40557,2,0,C|102:32,1,210
192,104,41300,2,0,C|192:20,2,70
232,144,41745,1,0
392,200,42191,1,0
280,200,42488,1,0
336,200,42637,1,0
280,200,42785,1,0
256,192,42934,12,4,46572
192,128,47538,6,0,C|168:192|192:264,2,140
304,136,48429,1,0
328,248,48726,1,0
168,128,49320,2,0,C|144:192|168:264,2,140
392,96,50509,5,0
392,96,50657,1,0
392,96,50806,1,0
392,208,51103,1,0
280,208,51400,1,0
280,264,51548,1,0
392,264,51845,1,0
280,264,52142,1,0
280,208,52291,1,0
128,40,52885,5,0
240,40,53182,1,0
296,40,53330,1,0
352,40,53479,1,0
352,192,54073,5,0
240,192,54370,1,0
184,192,54518,1,0
128,192,54667,1,0
352,192,55261,6,0,C|352:352,2,140
240,192,56152,1,0
240,136,56301,1,0
240,24,56598,1,0
408,24,57043,5,0
408,136,57340,1,0
408,248,57637,1,0
328,328,57934,1,0
272,328,58083,1,0
216,328,58231,1,0
32,192,58825,5,0
88,96,59122,1,0
128,136,59271,1,0
168,96,59419,1,0
368,192,60013,1,0
288,272,60311,1,0
248,232,60459,1,0
208,272,60608,1,0
120,336,60905,1,0
64,336,61053,1,0
64,224,61350,1,0
72,112,61647,1,0
72,112,61721,1,0
72,112,61796,1,0
280,32,62390,5,0
280,144,62687,1,0
280,200,62835,1,0
280,256,62984,1,0
456,112,63578,5,0
456,224,63875,2,0,C|456:184,2,35
456,280,64172,2,0,C|504:280,2,35
296,344,64766,5,0
184,344,65063,1,0
128,344,65212,1,0
72,344,65360,1,0
136,256,65657,5,0
192,256,65806,1,0
304,256,66103,1,0
312,144,66400,5,0
256,144,66548,1,0
200,144,66697,1,0
144,144,66845,1,0
88,144,66994,1,0
88,32,67291,1,0
200,32,67588,1,0
312,32,67885,1,0
408,96,68182,1,0
408,208,68479,1,0
408,320,68776,1,0
408,320,68850,1,0
408,320,68924,1,0
296,320,69221,5,0
184,320,69518,1,0
128,320,69667,1,0
16,320,69964,1,0
16,208,70261,1,0
16,96,70558,1,0
128,96,70855,1,0
208,176,71152,5,0
248,216,71301,1,0
288,256,71449,1,0
328,296,71598,1,0
368,336,71746,1,0
480,336,72043,1,0
480,224,72340,1,0
480,112,72637,1,0
392,40,72934,1,0
280,40,73231,1,0
280,152,73528,5,0
280,152,73603,1,0
280,152,73677,1,0
280,208,73825,1,0
280,264,73974,1,0
256,192,74122,12,4,75162
216,8,79320,6,0,C|208:120|72:168|176:240|144:376|288:304|448:376|400:216|480:104|328:104|208:0,1,1505
