osu file format v13

[General]
AudioFilename: Dork.mp3
AudioLeadIn: 1000
PreviewTime: 31482
Countdown: 0
SampleSet: Soft
StackLeniency: 0.7
Mode: 0
LetterboxInBreaks: 0
WidescreenStoryboard: 0

[Editor]
DistanceSpacing: 0.8
BeatDivisor: 4
GridSize: 4
TimelineZoom: 1

[Metadata]
Title:hsgn2011reel
TitleUnicode:hsgn2011reel
Artist:cubesato
ArtistUnicode:cubesato
Creator:[Ranger]
Version:Normal
Source:
Tags:feedsy dork trance house My Little Pony: Friendship is Magic
BeatmapID:202188
BeatmapSetID:70259

[Difficulty]
HPDrainRate:4
CircleSize:3
OverallDifficulty:4
ApproachRate:5
SliderMultiplier:1.4
SliderTickRate:1

[Events]
//Background and Video events
Video,299,"dork.avi"
0,0,"BG.jpg",0,0
//Break Periods
//Storyboard Layer 0 (Background)
//Storyboard Layer 1 (Fail)
//Storyboard Layer 2 (Pass)
//Storyboard Layer 3 (Foreground)
//Storyboard Sound Samples

[TimingPoints]
1246,472.44094488189,4,2,1,50,1,0
16364,-100,4,2,1,70,0,0
31482,-100,4,2,1,70,0,1
46600,-100,4,2,1,50,0,0
59828,-100,4,2,1,30,0,0

[Colours]
Combo1 : 237,80,241
Combo2 : 97,38,206
Combo3 : 119,159,225
Combo4 : 192,192,192
Combo5 : 255,150,0
Combo6 : 233,241,80

[HitObjects]
112,328,1246,6,0,P|85:276|105:200,1,140,0|8,0:0|0:0,0:0:0:0:
156,180,1954,2,0,P|176:104|144:48,2,140,0|0|8,0:0|0:0|0:0,0:0:0:0:
268,160,3371,2,0,P|304:156|336:172,1,70
360,280,4080,2,0,L|360:352,2,70,0|0|2,0:0|0:0|0:0,0:0:0:0:
256,328,5025,5,8,0:0:0:0:
160,272,5497,1,0,0:0:0:0:
112,244,5734,1,0,0:0:0:0:
132,192,5970,1,2,0:0:0:0:
200,104,6442,2,0,L|280:104,1,70,8|0,0:0|0:0,0:0:0:0:
392,100,7151,1,0,0:0:0:0:
392,100,7387,2,0,P|432:140|384:196,1,140,8|2,0:0|0:0,0:0:0:0:
300,264,8332,1,8,0:0:0:0:
216,192,8805,5,8,0:0:0:0:
128,120,9277,2,0,P|112:88|80:72,2,70,8|0|0,0:0|0:0|0:0,0:0:0:0:
40,192,10222,2,0,P|56:296|208:312,1,280,8|0,0:0|0:0,0:0:0:0:
312,272,11639,2,0,L|356:332,2,70,0|0|2,0:0|0:0|0:0,0:0:0:0:
388,192,12584,5,8,0:0:0:0:
312,108,13057,1,2,0:0:0:0:
256,108,13293,1,0,0:0:0:0:
200,108,13529,1,2,0:0:0:0:
124,192,14001,1,8,0:0:0:0:
72,288,14474,1,0,0:0:0:0:
176,328,14946,2,0,B|200:280|288:304|296:240,1,140,2|0,0:0|0:0,0:0:0:0:
384,192,15891,1,8,0:0:0:0:
384,192,16364,5,4,0:0:0:0:
304,112,16836,1,8,0:0:0:0:
224,192,17308,1,0,0:0:0:0:
172,92,17781,2,0,P|116:140|116:204,1,140,8|0,0:0|0:0,0:0:0:0:
204,272,18726,2,0,P|160:328|96:316,2,140,8|0|2,0:0|0:0|0:0,0:0:0:0:
128,192,20143,5,8,0:0:0:0:
204,112,20616,1,2,0:0:0:0:
204,112,21088,2,0,P|256:72|308:112,1,140,0|8,0:0|0:0,0:0:0:0:
388,192,22033,2,0,P|304:296|168:288,2,280,0|0|2,0:0|0:0|0:0,0:0:0:0:
300,120,24395,5,0,0:0:0:0:
264,76,24631,1,0,0:0:0:0:
208,76,24868,1,0,0:0:0:0:
112,136,25340,2,0,L|112:280,1,140,8|2,0:0|0:0,0:0:0:0:
208,336,26285,2,0,L|208:192,2,140,8|0|2,0:0|0:0|0:0,0:0:0:0:
296,268,27702,5,8,0:0:0:0:
296,268,28175,2,0,P|308:300|340:320,2,70,2|0|0,0:0|0:0|0:0,0:0:0:0:
404,236,29120,2,0,P|380:172|312:152,1,140,8|0,0:0|0:0,0:0:0:0:
228,212,30064,2,0,P|196:148|232:92,2,140,8|0|8,0:0|0:0|0:0,0:0:0:0:
256,320,31482,5,4,0:0:0:0:
164,256,31954,2,0,L|92:256,2,70,8|0|0,0:0|0:0|0:0,0:0:0:0:
256,192,32899,1,8,0:0:0:0:
256,192,33371,2,0,P|192:152|192:88,1,140,0|8,0:0|0:0,0:0:0:0:
300,76,34316,2,0,L|352:24,2,70,0|0|2,0:0|0:0|0:0,0:0:0:0:
384,152,35261,5,8,0:0:0:0:
360,264,35734,1,2,0:0:0:0:
360,264,36206,2,0,P|312:320|248:320,1,140,0|8,0:0|0:0,0:0:0:0:
152,268,37151,2,0,L|104:204,2,70,0|0|8,0:0|0:0|0:0,0:0:0:0:
244,204,38096,2,0,L|292:140,2,70,0|0|2,0:0|0:0|0:0,0:0:0:0:
164,128,39041,5,8,0:0:0:0:
72,192,39513,1,0,0:0:0:0:
164,256,39986,2,0,P|212:296|268:256,1,140,0|8,0:0|0:0,0:0:0:0:
380,248,40931,2,0,L|420:312,2,70,8|0|8,0:0|0:0|0:0,0:0:0:0:
380,136,41875,2,0,L|420:72,2,70,8|0|2,0:0|0:0|0:0,0:0:0:0:
300,56,42820,5,8,0:0:0:0:
300,56,43293,1,2,0:0:0:0:
192,92,43765,2,0,P|128:84|96:148,1,140,0|8,0:0|0:0,0:0:0:0:
60,248,44710,2,0,P|84:328|152:312,1,140,0|8,0:0|0:0,0:0:0:0:
200,240,45655,2,0,P|216:208|248:188,2,70,2|0|8,0:0|0:0|0:0,0:0:0:0:
288,308,46600,5,4,0:0:0:0:
380,248,47072,1,0,0:0:0:0:
380,136,47545,2,0,P|364:72|300:72,1,140,0|8,0:0|0:0,0:0:0:0:
268,180,48490,2,0,P|204:180|188:116,2,140,0|8|0,0:0|0:0|0:0,0:0:0:0:
256,292,49907,1,2,0:0:0:0:
144,276,50379,5,8,0:0:0:0:
220,192,50852,1,0,0:0:0:0:
300,116,51324,2,0,B|388:124|316:204|396:204,1,140,0|8,0:0|0:0,0:0:0:0:
296,268,52269,6,0,B|208:276|280:356|200:356,1,140,0|8,0:0|0:0,0:0:0:0:
108,304,53214,2,0,L|108:232,1,70,8|0,0:0|0:0,0:0:0:0:
156,204,53686,2,0,L|156:132,1,70,2|2,0:0|0:0,0:0:0:0:
156,76,54159,5,8,0:0:0:0:
256,124,54631,1,0,0:0:0:0:
356,76,55104,2,0,L|428:76,2,70,0|0|8,0:0|0:0|0:0,0:0:0:0:
380,184,56049,1,0,0:0:0:0:
380,184,56521,2,0,P|348:248|284:248,1,140,8|0,0:0|0:0,0:0:0:0:
192,192,57466,1,2,0:0:0:0:
116,276,57938,5,8,0:0:0:0:
116,276,58411,1,0,0:0:0:0:
76,172,58883,2,0,P|116:108|180:108,1,140,0|8,0:0|0:0,0:0:0:0:
256,192,59828,12,2,61246,0:0:0:0:
