osu file format v13

[General]
AudioFilename: Dork.mp3
AudioLeadIn: 1000
PreviewTime: 31482
Countdown: 0
SampleSet: Soft
StackLeniency: 0.7
Mode: 0
LetterboxInBreaks: 0
WidescreenStoryboard: 0

[Editor]
DistanceSpacing: 1.2
BeatDivisor: 4
GridSize: 4
TimelineZoom: 1

[Metadata]
Title:hsgn2011reel
TitleUnicode:hsgn2011reel
Artist:cubesato
ArtistUnicode:cubesato
Creator:[Ranger]
Version:Hard
Source:
Tags:feedsy dork trance house My Little Pony: Friendship is Magic
BeatmapID:201997
BeatmapSetID:70259

[Difficulty]
HPDrainRate:5
CircleSize:4
OverallDifficulty:6
ApproachRate:7
SliderMultiplier:1.8
SliderTickRate:1

[Events]
//Background and Video events
Video,299,"dork.avi"
0,0,"BG.jpg",0,0
//Break Periods
//Storyboard Layer 0 (Background)
//Storyboard Layer 1 (Fail)
//Storyboard Layer 2 (Pass)
//Storyboard Layer 3 (Foreground)
//Storyboard Sound Samples

[TimingPoints]
1246,472.44094488189,4,2,1,50,1,0
16364,-100,4,2,1,70,0,0
31482,-100,4,2,1,70,0,1
46600,-100,4,2,1,50,0,0
59828,-100,4,2,1,30,0,0

[Colours]
Combo1 : 237,80,241
Combo2 : 97,38,206
Combo3 : 119,159,225
Combo4 : 192,192,192
Combo5 : 255,150,0
Combo6 : 233,241,80

[HitObjects]
216,136,1246,6,0,P|256:72|288:144,1,180,0|8,0:0|0:0,0:0:0:0:
296,248,1954,2,0,P|256:312|224:240,1,180
128,192,2663,1,8,0:0:0:0:
128,192,2899,1,0,0:0:0:0:
312,84,3371,5,0,0:0:0:0:
312,84,3608,2,0,P|400:84|448:156,1,180,2|0,0:0|0:0,0:0:0:0:
344,184,4316,1,0,0:0:0:0:
380,284,4553,2,0,P|292:284|244:213,1,180,2|8,0:0|0:0,0:0:0:0:
112,40,5497,5,2,0:0:0:0:
192,112,5734,1,0,0:0:0:0:
88,136,5970,2,0,P|96:188|128:208,2,90,0|0|8,0:0|0:0|0:0,0:0:0:0:
192,112,6679,2,0,P|256:48|344:48,1,180,2|0,0:0|0:0,0:0:0:0:
304,148,7387,1,8,0:0:0:0:
392,336,7860,5,0,0:0:0:0:
312,264,8096,1,0,0:0:0:0:
200,264,8332,1,8,0:0:0:0:
120,336,8568,1,0,0:0:0:0:
80,232,8805,6,0,P|48:152|112:96,1,180,0|8,0:0|0:0,0:0:0:0:
168,184,9513,1,0,0:0:0:0:
248,256,9749,1,0,0:0:0:0:
264,152,9986,1,0,0:0:0:0:
248,256,10222,2,0,P|384:320|440:160,1,360,8|0,0:0|0:0,0:0:0:0:
384,72,11403,1,0,0:0:0:0:
384,72,11521,1,0,0:0:0:0:
384,72,11639,2,0,P|416:32|456:32,2,90,0|0|2,0:0|0:0|0:0,0:0:0:0:
168,104,12584,5,8,0:0:0:0:
168,104,13057,2,0,L|88:144,1,90,2|0,0:0|0:0,0:0:0:0:
32,240,13529,2,0,L|112:280,1,90,0|0,0:0|0:0,0:0:0:0:
208,328,14001,1,8,0:0:0:0:
208,328,14238,1,0,0:0:0:0:
316,120,14710,2,0,L|412:120,1,90,0|2,0:0|0:0,0:0:0:0:
444,332,15419,5,2,0:0:0:0:
372,344,15576,1,0,0:0:0:0:
304,320,15734,1,0,0:0:0:0:
280,252,15891,1,8,0:0:0:0:
448,112,16364,6,0,P|408:48|376:120,1,180,4|8,0:0|0:0,0:0:0:0:
296,192,17072,2,0,P|264:256|218:192,1,180,0|0,0:0|0:0,0:0:0:0:
256,88,17781,1,8,0:0:0:0:
152,56,18017,1,0,0:0:0:0:
72,128,18253,1,0,0:0:0:0:
104,232,18490,2,0,L|72:264,2,45,0|0|8,0:0|0:0|0:0,0:0:0:0:
200,288,18962,1,0,0:0:0:0:
256,192,19198,1,0,0:0:0:0:
312,288,19434,1,0,0:0:0:0:
312,288,19671,2,0,P|387:329|462:285,1,180,2|8,0:0|0:0,0:0:0:0:
384,72,20616,6,0,L|344:152,1,90,2|0,0:0|0:0,0:0:0:0:
216,272,21088,2,0,L|256:192,1,90
112,312,21560,1,8,0:0:0:0:
40,232,21797,2,0,P|33:150|113:110,1,180
136,216,22505,2,0,P|216:184|216:95,1,180,8|0,0:0|0:0,0:0:0:0:
320,56,23214,1,0,0:0:0:0:
320,56,23450,1,2,0:0:0:0:
484,192,23923,5,8,0:0:0:0:
320,328,24395,1,0,0:0:0:0:
256,240,24631,1,0,0:0:0:0:
192,328,24868,2,0,B|104:304|216:216|112:192,1,180,8|8,0:0|0:0,0:0:0:0:
48,104,25576,1,0,0:0:0:0:
152,72,25812,6,0,L|176:32,2,45,2|0|0,0:0|0:0|0:0,0:0:0:0:
256,104,26285,1,8,0:0:0:0:
256,104,26521,1,0,0:0:0:0:
256,104,26757,2,0,L|256:200,2,90,0|0|2,0:0|0:0|0:0,0:0:0:0:
304,312,27702,6,0,P|392:320|448:256,1,180,8|2,0:0|0:0,0:0:0:0:
344,224,28411,2,0,P|256:216|200:280,1,180
104,328,29120,1,8,0:0:0:0:
32,248,29356,1,0,0:0:0:0:
104,48,29828,5,0,0:0:0:0:
184,120,30064,1,8,0:0:0:0:
184,120,30537,2,0,P|208:192|272:144,1,180,2|8,0:0|0:0,0:0:0:0:
424,304,31482,5,4,0:0:0:0:
256,168,31954,2,0,L|192:232,1,90,8|0,0:0|0:0,0:0:0:0:
88,216,32427,2,0,L|152:152,1,90,0|0,0:0|0:0,0:0:0:0:
224,72,32899,1,8,0:0:0:0:
328,48,33135,1,0,0:0:0:0:
408,120,33371,5,2,0:0:0:0:
404,228,33608,2,0,L|436:260,2,45,2|0|8,0:0|0:0|0:0,0:0:0:0:
404,228,34080,1,0,0:0:0:0:
320,296,34316,2,0,P|288:328|240:328,1,90
160,264,34789,2,0,P|160:170|233:154,1,180,2|8,0:0|0:0,0:0:0:0:
440,192,35734,5,2,0:0:0:0:
368,112,35970,1,0,0:0:0:0:
296,192,36206,1,0,0:0:0:0:
224,112,36442,1,0,0:0:0:0:
144,192,36679,1,8,0:0:0:0:
144,192,36915,2,0,P|64:192|64:288,1,180,0|0,0:0|0:0,0:0:0:0:
160,296,37623,1,8,0:0:0:0:
256,344,37860,1,0,0:0:0:0:
352,296,38096,2,0,L|428:348,2,90,0|0|2,0:0|0:0|0:0,0:0:0:0:
256,104,39041,5,8,0:0:0:0:
56,192,39513,2,0,L|152:192,1,90
208,280,39986,2,0,L|304:280,1,90,0|0,0:0|0:0,0:0:0:0:
408,280,40458,1,8,0:0:0:0:
256,104,40931,5,8,0:0:0:0:
212,256,41167,1,0,0:0:0:0:
336,168,41403,1,8,0:0:0:0:
176,168,41639,1,0,0:0:0:0:
304,256,41875,1,8,0:0:0:0:
256,188,42112,1,0,0:0:0:0:
176,320,42348,2,0,P|256:356|336:320,1,180,2|8,0:0|0:0,0:0:0:0:
408,104,43293,5,2,0:0:0:0:
328,32,43529,1,0,0:0:0:0:
256,112,43765,1,0,0:0:0:0:
184,32,44001,1,0,0:0:0:0:
104,104,44238,1,8,0:0:0:0:
60,204,44474,2,0,P|108:284|196:284,1,180
296,288,45183,2,0,P|248:208|168:203,2,180,8|2|8,0:0|0:0|0:0,0:0:0:0:
400,104,46600,5,4,0:0:0:0:
416,320,47072,2,0,P|376:344|344:320,1,90
256,260,47545,2,0,P|220:236|184:264,1,90,0|0,0:0|0:0,0:0:0:0:
112,336,48017,1,8,0:0:0:0:
112,336,48253,2,0,P|40:280|72:208,1,180
152,136,48962,1,8,0:0:0:0:
256,104,49198,1,0,0:0:0:0:
364,88,49434,2,0,L|460:88,2,90,0|0|2,0:0|0:0|0:0,0:0:0:0:
256,280,50379,5,8,0:0:0:0:
56,192,50852,2,0,L|120:120,1,90
192,48,51324,1,0,0:0:0:0:
192,48,51560,2,0,P|240:48|264:80,1,90,0|8,0:0|0:0,0:0:0:0:
248,184,52033,2,0,P|330:182|375:101,1,180,0|0,0:0|0:0,0:0:0:0:
264,80,52742,2,0,P|181:81|136:162,1,180,8|10,0:0|0:0,0:0:0:0:
88,256,53450,1,0,0:0:0:0:
152,344,53686,1,2,0:0:0:0:
256,304,53923,1,2,0:0:0:0:
360,344,54159,5,8,0:0:0:0:
440,152,54631,1,0,0:0:0:0:
352,88,54868,1,0,0:0:0:0:
256,144,55104,2,0,P|232:104|188:92,2,90,0|0|8,0:0|0:0|0:0,0:0:0:0:
256,144,55812,1,0,0:0:0:0:
48,192,56285,5,0,0:0:0:0:
120,272,56521,2,0,L|184:344,1,90,8|0,0:0|0:0,0:0:0:0:
256,264,56994,1,0,0:0:0:0:
256,160,57230,1,2,0:0:0:0:
256,56,57466,1,2,0:0:0:0:
464,104,57938,6,0,P|440:192|360:216,1,180,8|0,0:0|0:0,0:0:0:0:
324,116,58647,1,0,0:0:0:0:
236,56,58883,2,0,P|154:84|134:168,1,180,8|0,0:0|0:0,0:0:0:0:
204,252,59592,1,0,0:0:0:0:
256,192,59828,12,2,61246,0:0:0:0:
