osu file format v13

[General]
AudioFilename: cranky - X-Y-Z.mp3
AudioLeadIn: 0
PreviewTime: 49069
Countdown: 0
SampleSet: Normal
StackLeniency: 0.7
Mode: 0
LetterboxInBreaks: 1
WidescreenStoryboard: 1

[Editor]
DistanceSpacing: 1
BeatDivisor: 4
GridSize: 4
TimelineZoom: 1

[Metadata]
Title:X-Y-Z
TitleUnicode:X-Y-Z
Artist:cranky
ArtistUnicode:cranky
Creator:Yoeri
Version:Hard
Source:
Tags:XYZ
BeatmapID:372160
BeatmapSetID:150649

[Difficulty]
HPDrainRate:5
CircleSize:4
OverallDifficulty:6
ApproachRate:7.5
SliderMultiplier:1.9
SliderTickRate:2

[Events]
//Background and Video events
0,0,"bg.jpg",0,0
//Break Periods
//Storyboard Layer 0 (Background)
//Storyboard Layer 1 (Fail)
//Storyboard Layer 2 (Pass)
//Storyboard Layer 3 (Foreground)
//Storyboard Sound Samples
//Background Colour Transformations
3,100,0,0,0

[TimingPoints]
7688,413.793103448276,4,1,0,45,1,0
20929,-100,4,1,0,50,0,0
27136,-100,4,1,0,90,0,0
29205,-100,4,1,0,70,0,0
42446,-100,4,1,0,55,0,0
46170,-100,4,1,0,65,0,0
49067,-100,4,1,0,60,0,0
78446,-100,4,1,0,90,0,0
78860,-100,4,1,0,70,0,1
105343,-100,4,1,0,70,0,0

[Colours]
Combo1 : 0,166,255
Combo2 : 26,255,0
Combo3 : 172,17,255
Combo4 : 255,108,11

[HitObjects]
256,192,14308,5,0,0:0:0:0:
180,248,14515,1,2,3:0:0:0:
209,338,14722,1,0,0:0:0:0:
304,338,14929,1,2,3:0:0:0:
333,248,15136,2,0,P|344:156|260:96,2,190,0|0|0,0:0|0:0|0:0,0:0:0:0:
256,192,16170,5,2,3:0:0:0:
180,248,16377,1,0,0:0:0:0:
102,194,16584,1,2,3:0:0:0:
130,103,16791,2,0,P|59:109|9:176,2,142.5,0|0|2,0:0|2:0|3:0,0:0:0:0:
226,102,17619,5,0,0:0:0:0:
256,192,17825,1,2,3:0:0:0:
332,248,18032,1,0,0:0:0:0:
410,194,18239,1,2,3:0:0:0:
382,103,18446,2,0,P|450:108|502:210,2,190,0|0|0,0:0|0:0|0:0,0:0:0:0:
410,194,19481,5,2,3:0:0:0:
332,248,19688,1,0,0:0:0:0:
256,192,19894,1,2,3:0:0:0:
286,102,20101,2,0,P|307:42|382:6,2,142.5,0|0|2,0:0|2:0|0:3,0:0:0:0:
256,192,20929,5,0,0:0:0:0:
226,282,21136,1,2,3:0:0:0:
150,347,21343,2,0,P|61:327|21:245,1,190,0|0,0:0|0:0,0:0:0:0:
64,159,21963,1,2,3:0:0:0:
64,159,22170,2,0,B|101:136|162:147|147:170|208:181|246:159,1,190,0|0,0:0|0:0,0:0:0:0:
289,73,22791,5,2,3:0:0:0:
377,39,22998,1,0,0:0:0:0:
465,73,23205,1,2,3:0:0:0:
507,158,23412,2,0,L|507:302,2,142.5,0|0|2,0:0|2:0|3:0,0:0:0:0:
411,158,24239,5,0,0:0:0:0:
363,241,24446,1,2,3:0:0:0:
315,157,24653,2,0,P|243:97|197:158,1,190,0|0,0:0|0:0,0:0:0:0:
149,241,25274,1,2,3:0:0:0:
101,158,25481,1,0,0:0:0:0:
53,241,25688,1,2,3:0:0:0:
256,192,26032,12,8,27136,2:0:0:0:
256,192,27550,12,4,29205,0:0:0:0:
88,184,29619,6,2,P|216:47|422:184,1,475,0|2,0:0|3:0,0:0:0:0:
328,184,30860,6,0,P|289:141|199:157,2,142.5,0|0|2,0:0|3:0|3:0,0:0:0:0:
304,276,31688,1,0,0:0:0:0:
256,356,31894,1,2,3:0:0:0:
208,276,32101,1,0,0:0:0:0:
112,276,32308,1,2,3:0:0:0:
63,192,32515,6,0,P|16:266|29:325,2,142.5,0|0|2,0:0|3:0|3:0,0:0:0:0:
160,192,33343,1,0,0:0:0:0:
256,192,33550,1,2,3:0:0:0:
352,192,33756,1,0,0:0:0:0:
399,108,33963,1,2,3:0:0:0:
320,56,34170,6,0,P|256:41|184:60,1,142.5,2|0,0:0|3:1,0:0:0:0:
112,184,34791,1,2,3:0:0:0:
112,184,34998,2,0,P|131:246|183:299,1,142.5,2|2,0:0|3:1,0:0:0:0:
328,300,35619,1,10,3:0:0:0:
328,300,35825,5,6,0:0:0:0:
196,104,36239,1,2,0:0:0:0:
316,104,36446,1,2,3:1:0:0:
184,300,36860,2,0,P|83:251|44:186,1,190,2|2,3:1|3:0,0:0:0:0:
88,100,37481,5,0,0:0:0:0:
172,56,37688,1,2,3:0:0:0:
256,12,37894,1,0,0:0:0:0:
340,56,38101,1,2,3:0:0:0:
424,100,38308,2,0,P|482:146|487:223,2,142.5,0|0|2,0:0|3:0|3:0,0:0:0:0:
398,192,39136,6,0,L|256:192,1,142.5,2|0,0:0|3:0,0:0:0:0:
112,192,39756,1,2,3:0:0:0:
88,99,39963,2,0,P|32:141|21:210,1,142.5,2|2,0:0|3:1,0:0:0:0:
144,284,40584,1,2,3:0:0:0:
208,212,40791,5,0,0:0:0:0:
178,121,40999,1,2,3:0:0:0:
255,65,41205,1,2,0:0:0:0:
332,121,41412,1,2,3:0:0:0:
303,212,41619,2,0,P|412:173|426:108,2,190,0|2|4,0:0|0:0|0:0,0:0:0:0:
500,80,42860,6,2,P|488:196|256:276,1,380,2|0,0:0|0:0,0:0:0:0:
192,224,43894,1,2,3:0:0:0:
192,128,44101,6,0,L|192:32,1,95,0|2,0:0|3:0,0:0:0:0:
96,34,44515,1,2,0:0:0:0:
96,34,44722,2,2,L|96:224,1,190,2|2,3:1|3:0,0:0:0:0:
144,308,45343,1,0,0:0:0:0:
192,224,45550,1,2,3:0:0:0:
192,128,45756,5,0,0:0:0:0:
12,80,46170,2,2,P|24:196|256:276,1,380,6|0,0:0|0:0,0:0:0:0:
320,224,47204,1,2,3:0:0:0:
320,128,47412,6,0,L|320:32,1,95,0|2,0:0|3:0,0:0:0:0:
416,34,47825,1,2,0:0:0:0:
416,34,48032,2,2,L|416:224,1,190,2|2,3:1|3:0,0:0:0:0:
368,308,48653,1,0,0:0:0:0:
320,224,48860,1,2,3:0:0:0:
320,128,49066,5,4,0:0:0:0:
160,24,49481,2,0,P|132:56|132:108,1,95,8|2,0:0|2:0,0:0:0:0:
196,176,49894,2,0,P|208:240|92:316,1,190,0|8,0:0|0:0,0:0:0:0:
43,366,50515,6,0,P|40:275|116:224,1,190,2|2,2:0|2:0,0:0:0:0:
196,176,51136,1,8,0:0:0:0:
276,224,51343,2,0,P|351:275|348:366,1,190,2|2,2:0|3:2,0:0:0:0:
268,318,51963,1,8,0:0:0:0:
172,320,52170,1,2,2:0:0:0:
120,240,52377,5,0,0:0:0:0:
172,160,52584,2,0,P|254:122|340:160,1,190,2|2,2:0|2:0,0:0:0:0:
400,236,53205,1,0,0:0:0:0:
328,300,53412,1,2,2:0:0:0:
256,236,53619,1,8,0:0:0:0:
256,236,53825,6,0,L|256:24,1,190,2|2,2:0|2:0,0:0:0:0:
160,46,54446,2,0,L|160:236,1,190,8|0,0:0|0:0,0:0:0:0:
208,316,55067,1,2,3:2:0:0:
304,316,55274,1,8,0:0:0:0:
352,236,55481,1,2,3:2:0:0:
352,140,55688,5,0,0:3:0:0:
160,140,56101,1,12,0:0:0:0:
160,236,56308,1,2,2:0:0:0:
80,188,56515,2,0,P|68:128|160:46,1,190,0|8,0:0|0:0,0:0:0:0:
240,92,57136,1,2,2:0:0:0:
240,188,57343,5,0,0:0:0:0:
288,272,57550,1,2,2:0:0:0:
384,272,57756,1,8,0:0:0:0:
431,188,57963,2,0,P|434:96|358:46,1,190,2|2,2:0|3:2,0:0:0:0:
272,92,58584,1,8,0:0:0:0:
272,188,58791,1,2,2:0:0:0:
352,236,58998,6,0,P|392:272|484:264,2,142.5,0|0|2,0:0|2:0|2:0,0:0:0:0:
352,140,59825,1,0,0:0:0:0:
272,92,60032,1,2,3:2:0:0:
176,92,60239,1,8,0:0:0:0:
96,140,60446,1,2,2:0:0:0:
96,236,60653,6,0,L|96:380,2,142.5,0|0|2,0:0|2:0|2:0,0:0:0:0:
176,188,61481,1,0,0:0:0:0:
256,236,61688,1,2,3:2:0:0:
336,188,61894,1,8,0:0:0:0:
416,236,62101,1,2,0:2:0:0:
413,138,62308,6,0,P|333:96|256:144,1,190,4|8,0:0|0:0,0:0:0:0:
176,188,62929,1,2,2:0:0:0:
176,188,63136,2,0,P|64:224|12:168,1,190,0|8,0:0|0:0,0:0:0:0:
98,138,63756,6,0,P|178:96|256:144,1,190,2|2,2:0|2:0,0:0:0:0:
255,239,64377,1,8,0:0:0:0:
255,239,64584,2,0,P|333:287|413:245,1,190,2|2,2:0|3:2,0:0:0:0:
336,196,65205,1,8,0:0:0:0:
418,152,65412,1,2,2:0:0:0:
405,58,65619,5,0,0:0:0:0:
312,41,65825,1,2,2:0:0:0:
269,126,66032,2,0,B|229:148|168:137|183:114|122:103|85:126,1,190,8|0,0:0|0:0,0:0:0:0:
129,211,66653,1,2,3:2:0:0:
85,296,66860,2,0,B|124:318|185:307|170:284|231:273|268:296,1,190,8|0,0:0|0:0,0:0:0:0:
364,292,67481,5,2,2:0:0:0:
314,210,67688,1,8,0:0:0:0:
364,129,67894,2,0,L|364:16,1,95,2|0,2:0|0:0,0:0:0:0:
459,34,68308,2,0,L|459:237,1,190,2|2,3:2|2:0,0:0:0:0:
459,319,68929,5,0,0:0:0:0:
256,376,69343,1,12,0:0:0:0:
256,280,69550,1,2,2:0:0:0:
168,244,69756,2,0,P|171:154|256:124,1,190,0|8,0:0|0:0,0:0:0:0:
332,72,70377,2,0,P|345:141|308:200,2,142.5,2|0|8,2:0|2:0|0:0,0:0:0:0:
256,8,71205,5,2,2:0:0:0:
180,72,71412,1,0,0:0:0:0:
180,167,71619,1,2,3:2:0:0:
180,262,71825,1,8,0:0:0:0:
256,326,72032,1,2,2:0:0:0:
329,262,72239,6,0,P|356:176|288:96,1,190,4|8,0:0|0:0,0:0:0:0:
183,122,72860,1,2,2:0:0:0:
183,122,73067,2,0,P|156:208|224:288,1,190,0|8,0:0|0:0,0:0:0:0:
256,192,73688,1,2,2:0:0:0:
256,192,73894,5,6,0:0:0:0:
143,42,74308,1,10,0:0:0:0:
369,42,74722,1,2,0:0:0:0:
111,217,75136,1,10,0:0:0:0:
401,218,75550,2,2,B|366:200|337:196|320:205|290:200|256:183|256:183|188:149|154:47|256:-20|358:47|324:149|256:183|256:183|222:200|192:205|175:196|145:200|111:218,1,665,4|2,0:0|2:3,0:0:0:0:
256,192,77343,12,8,78446,2:0:0:0:
176,132,78860,6,2,P|287:334|336:132,1,570,6|8,0:0|0:0,0:0:0:0:
256,76,80308,1,2,3:0:0:0:
176,20,80515,5,0,0:0:0:0:
80,20,80722,1,2,3:0:0:0:
32,100,80929,1,8,0:0:0:0:
80,180,81136,1,2,3:0:0:0:
160,225,81343,2,0,P|169:156|128:100,2,142.5,0|0|2,0:0|3:0|3:0,0:0:0:0:
80,276,82170,5,0,0:0:0:0:
164,320,82377,1,2,3:0:0:0:
256,300,82584,1,8,0:0:0:0:
348,320,82791,1,2,3:0:0:0:
351,225,82998,2,0,P|342:156|384:100,2,142.5,0|0|2,0:0|3:0|3:0,0:0:0:0:
432,276,83825,6,0,P|456:344|512:384,2,142.5,2|0|2,0:0|3:0|3:0,0:0:0:0:
432,180,84653,1,0,0:0:0:0:
480,100,84860,1,2,3:0:0:0:
432,20,85067,1,10,0:0:0:0:
336,20,85274,1,2,3:0:0:0:
304,109,85481,6,0,L|208:109,1,95,6|2,0:0|3:0,0:0:0:0:
161,191,85894,2,0,L|351:191,1,190,10|0,0:0|0:0,0:0:0:0:
398,273,86515,1,2,3:0:0:0:
303,273,86722,1,8,0:0:0:0:
208,273,86929,1,2,3:0:0:0:
113,273,87136,6,0,P|80:240|83:137,1,142.5,0|0,0:0|3:0,0:0:0:0:
185,57,87756,1,2,3:0:0:0:
185,57,87963,2,0,L|327:57,1,142.5,0|0,0:0|3:0,0:0:0:0:
435,148,88584,1,2,3:0:0:0:
435,148,88791,6,0,P|441:217|399:273,2,142.5,2|0|2,0:0|3:0|3:0,0:0:0:0:
351,191,89619,1,0,0:0:0:0:
304,273,89825,1,2,3:0:0:0:
208,273,90032,1,10,0:0:0:0:
161,191,90238,1,2,3:0:0:0:
256,191,90446,6,2,L|256:81,1,95,2|2,0:0|3:0,0:0:0:0:
292,8,90860,2,2,P|448:48|428:236,1,380,10|8,0:0|0:0,0:0:0:0:
352,288,91894,1,2,0:3:0:0:
256,300,92101,6,2,L|152:300,1,95,6|2,0:0|3:0,0:0:0:0:
76,260,92515,2,2,P|48:192|72:128,2,142.5,10|2|2,0:0|3:1|3:0,0:0:0:0:
144,192,93343,1,8,0:0:0:0:
212,124,93550,1,2,3:0:0:0:
304,152,93756,6,2,L|400:152,1,95,2|2,0:0|3:0,0:0:0:0:
484,192,94170,2,2,P|512:260|488:324,2,142.5,10|2|2,0:0|3:1|3:0,0:0:0:0:
416,260,94998,1,8,0:0:0:0:
320,260,95205,1,2,3:0:0:0:
296,168,95412,6,2,P|312:112|284:36,2,142.5,2|2|2,0:0|3:1|3:0,0:0:0:0:
216,216,96239,2,2,P|200:272|228:348,2,142.5,2|2|2,0:0|3:1|3:0,0:0:0:0:
192,124,97067,5,0,0:0:0:0:
96,124,97274,1,2,3:0:0:0:
28,192,97481,2,2,P|0:124|24:60,2,142.5,10|2|2,0:0|3:1|3:0,0:0:0:0:
113,232,98308,1,8,0:0:0:0:
208,232,98515,1,2,0:3:0:0:
304,232,98722,6,2,L|408:232,1,95,2|2,0:0|3:0,0:0:0:0:
496,236,99136,2,2,P|476:292|403:329,1,142.5,10|2,0:0|3:1,0:0:0:0:
272,376,99756,1,2,3:0:0:0:
240,288,99963,1,8,0:0:0:0:
272,200,100170,1,2,3:0:0:0:
240,112,100377,6,2,L|136:112,1,95,2|2,0:0|3:0,0:0:0:0:
48,116,100791,2,2,P|68:172|141:209,1,142.5,10|2,0:0|3:1,0:0:0:0:
272,256,101412,1,2,3:0:0:0:
356,208,101619,1,8,0:0:0:0:
356,112,101825,1,2,3:0:0:0:
272,64,102032,6,0,L|128:64,1,142.5,2|2,0:0|3:1,0:0:0:0:
36,172,102653,1,2,3:0:0:0:
36,172,102860,2,0,L|140:172,1,95,2|2,0:0|3:0,0:0:0:0:
208,228,103274,1,10,0:0:0:0:
256,144,103481,1,2,3:1:0:0:
304,228,103688,6,2,B|308:168|372:124|372:156|412:80|392:8|296:-8|256:54|256:54|216:-8|120:8|100:80|140:156|140:124|204:168|208:228,1,665,6|2,0:0|0:3,0:0:0:0:
160,312,105343,5,4,0:0:0:0:
256,312,105550,1,2,0:0:0:0:
352,312,105756,1,4,0:2:0:0:
304,228,105963,1,2,0:0:0:0:
208,228,106170,2,0,B|184:188|200:132|216:140|232:84|208:44,2,190,4|2|4,0:0|0:3|0:0,0:0:0:0:
256,312,107205,1,2,0:0:0:0:
332,136,107619,1,0,0:0:0:0:
303,44,107825,1,2,0:0:0:0:
256,192,108239,1,4,0:0:0:0:
256,192,108343,12,4,110308,0:0:0:0:
