osu file format v9

[General]
AudioFilename: cranky - R176.mp3
AudioLeadIn: 1985
PreviewTime: 105947
Countdown: 0
SampleSet: Soft
StackLeniency: 0.7
Mode: 0
LetterboxInBreaks: 1

[Editor]
DistanceSpacing: 1.2
BeatDivisor: 4
GridSize: 4

[Metadata]
Title:R176
Artist:cranky
Creator:taka1235
Version:Hyper
Source:
Tags:alace

[Difficulty]
HPDrainRate:5
CircleSize:4
OverallDifficulty:6
ApproachRate:8
SliderMultiplier:1.6
SliderTickRate:1

[Events]
//Background and Video events
0,0,"image301-3-1280x1024.jpg"
//Break Periods
//Storyboard Layer 0 (Background)
//Storyboard Layer 1 (Fail)
//Storyboard Layer 2 (Pass)
//Storyboard Layer 3 (Foreground)
//Storyboard Sound Samples
//Background Colour Transformations
3,100,163,162,255

[TimingPoints]
0,315.789473684211,4,2,0,70,1,0
2684,-100,4,2,0,60,0,0
3000,-100,4,2,0,50,0,0
3315,-100,4,2,0,40,0,0
3631,-100,4,2,0,70,0,0
12789,-100,4,2,0,60,0,0
13105,-100,4,2,0,50,0,0
13421,-100,4,2,0,40,0,0
13736,-100,4,2,0,70,0,0
20368,-100,4,2,0,60,0,0
20684,-100,4,2,0,50,0,0
21000,-100,4,2,0,40,0,0
21315,-100,4,2,0,70,0,0
24157,-100,4,2,0,50,0,0
24473,-100,4,2,0,30,0,0
24789,-100,4,2,0,15,0,0
27789,-100,4,2,0,50,0,0
28894,-100,4,2,0,5,0,0
28973,-100,4,2,0,70,0,0
30000,-100,4,2,0,50,0,0
31421,-100,4,1,0,70,0,0
41605,-100,4,2,0,85,0,0
50526,-100,4,1,0,70,0,0
60000,-100,4,2,0,70,0,0
61736,-100,4,1,0,70,0,0
81394,-100,4,1,0,60,0,0
82026,-100,4,2,0,85,0,0
102236,-100,4,1,0,60,0,0
106894,-100,4,1,0,80,0,0
127578,-100,4,2,0,80,0,0

[Colours]
Combo1 : 255,149,202
Combo2 : 128,255,128
Combo3 : 255,255,128
Combo4 : 255,175,96
Combo5 : 184,113,255

[HitObjects]
388,108,947,2,0,B|308:108,1,80
236,108,1263,1,0
128,140,1578,1,0
64,232,1894,2,0,B|84:280|124:296,1,80,0|2
168,340,2210,2,0,B|200:304|244:304,1,80,0|2
308,284,2526,1,2
416,256,2842,1,2
308,284,3157,1,2
416,256,3473,1,2
416,96,3789,5,2
416,96,4105,1,2
96,288,4736,1,2
96,288,5052,1,2
224,336,5368,6,0,B|308:356,1,80
320,284,5684,2,0,B|404:304,1,80,0|2
416,232,6000,2,0,B|500:252,1,80,0|2
504,172,6315,6,0,B|432:140|380:72,1,160,2|2
312,96,6789,1,2
256,196,7105,1,2
200,288,7421,1,2
131,311,7578,2,0,B|80:244|8:212,1,160,2|2
28,100,8210,2,0,B|104:124,1,80,0|2
168,88,8526,2,0,B|244:64,1,80,0|2
280,128,8842,6,0,B|308:192|364:204|412:168,1,160,2|2
472,132,9315,1,2
472,132,9631,1,2
472,132,9947,1,2
409,169,10105,2,0,B|364:204|308:192|280:128,1,160,2|2
172,160,10736,1,2
128,216,10894,1,2
88,276,11052,1,2
48,336,11210,1,2
120,344,11368,5,4
264,344,11684,1,4
388,272,12000,1,2
244,272,12315,1,2
316,272,12473,1,0
388,272,12631,1,2
316,148,12947,1,2
388,272,13263,1,2
316,148,13578,1,2
184,92,13894,5,2
76,128,14210,1,2
328,292,14842,1,2
436,256,15158,1,2
500,128,15473,6,0,B|416:128,1,80
364,80,15789,2,0,B|280:80,1,80,0|2
224,36,16105,2,0,B|140:36,1,80,0|2
72,88,16421,6,0,B|80:172|168:212,1,160,2|2
163,209,16894,1,2
163,209,17210,1,2
163,209,17526,1,2
224,248,17684,2,0,B|304:264|352:336,1,160,2|0
496,312,18315,2,0,B|416:296|368:224,1,160,2|0
324,168,18789,1,2
284,108,18947,6,0,B|128:80,1,160,2|2
52,200,19578,2,0,B|72:276,1,80,0|2
144,260,19894,2,0,B|164:336,1,80,0|2
236,320,20210,1,2
380,316,20526,1,2
236,320,20842,1,2
380,316,21157,1,2
456,192,21473,5,4
56,192,22105,1,2
112,60,22421,1,2
184,60,22578,1,2
256,60,22736,1,4
256,324,23368,1,2
256,60,24000,5,4
456,192,24315,1,4
256,324,24631,1,4
56,192,24946,1,4
256,192,25263,12,0,27157
256,192,27789,12,0,28894
44,168,29052,6,2,B|256:372|468:168,1,480,2|0
256,192,30157,12,0,31263
316,72,31578,5,2
160,156,31894,1,0
312,244,32210,2,2,B|240:296,1,80,2|0
372,296,32526,2,2,B|444:244,1,80,2|2
312,244,32842,1,2
160,156,33157,1,2
316,72,33473,1,2
80,80,33789,5,2
80,80,33947,1,2
80,80,34105,2,2,B|60:160|76:240,1,160,2|0
100,324,34578,1,2
156,256,34736,1,2
156,256,34815,1,0
156,256,34894,1,0
188,336,35052,2,2,B|268:328|316:248,1,160,2|2
216,56,35684,6,0,B|132:92,1,80,0|2
288,100,36000,2,0,B|277:190,1,80,0|2
356,56,36315,2,2,B|429:110,1,80,2|2
480,172,36631,6,2,B|412:220|360:284,1,160,2|0
292,336,37105,2,2,B|216:312|176:224,1,160,2|2
92,212,37578,1,0
152,148,37736,1,2
92,212,37894,1,2
420,212,38210,1,0
92,212,38526,1,2
420,212,38842,1,2
360,148,39000,1,2
420,212,39157,5,2
256,360,39473,1,2
420,212,39789,1,2
256,360,40105,1,2
420,212,40421,2,0,B|344:248,1,80,2|2
212,240,40736,2,0,B|288:204,1,80,0|2
148,200,41052,2,0,B|96:244|16:248,2,120,2|2|2
148,112,41684,5,4
148,112,41842,1,2
292,112,42157,1,2
148,112,42473,1,2
292,112,42788,1,2
148,112,43105,1,2
292,112,43420,1,2
148,112,43736,1,2
292,112,44051,1,2
200,248,44368,5,2
352,166,44683,1,2
200,248,44999,1,2
352,166,45314,1,2
200,248,45631,1,2
352,166,45946,1,2
200,248,46262,1,2
352,166,46577,1,2
319,366,46894,5,2
424,208,47209,1,2
319,366,47525,1,2
424,208,47842,1,2
187,297,48157,5,2
352,168,48472,1,2
187,297,48788,1,2
352,168,49105,1,2
46,164,49421,5,2
292,112,49736,1,2
46,164,50052,1,2
292,112,50367,1,2
256,192,50526,12,0,51473
148,280,51631,5,0
224,308,51789,2,2,B|300:348,1,80,2|2
216,232,52105,2,2,B|288:186,1,80,0|2
488,100,52578,1,4
216,232,52894,5,0
148,280,53052,2,2,B|64:280,1,80,2|2
224,308,53368,2,2,B|308:308,1,80,0|2
496,304,53842,1,4
224,308,54157,5,0
216,232,54315,2,2,B|284:184,1,80
148,280,54631,2,2,B|104:208,1,80,0|2
20,32,55105,1,4
148,280,55421,5,0
224,308,55579,2,2,B|300:348,1,80
216,232,55895,2,2,B|288:186,1,80,0|2
364,188,56210,1,4
256,36,56447,1,4
148,188,56684,1,4
72,232,56842,6,2,B|40:272|56:324,1,80,2|2
120,368,57157,2,2,B|152:328|136:276,1,80,0|2
412,292,57631,1,4
252,72,57947,5,0
332,64,58105,2,2,B|384:56|416:16,1,80
308,140,58421,2,2,B|256:148|224:188,1,80,0|2
88,348,58894,1,4
40,124,59210,5,0
68,200,59368,2,2,B|148:232,1,80
260,320,59684,2,2,B|180:288,1,80,0|2
185,290,60157,1,2
185,290,60473,1,2
185,290,60789,1,2
185,290,61105,1,2
185,290,61421,1,4
185,290,61578,5,4
420,292,61894,5,0
256,192,62210,1,0
420,292,62526,2,2,B|340:312,1,80,0|0
256,192,62842,2,2,B|336:172,1,80,0|0
424,148,63157,5,0
204,112,63473,1,0
424,148,63789,2,2,B|376:68,1,80,0|0
204,112,64105,2,2,B|252:192,1,80,0|0
296,280,64421,5,0
116,348,64736,1,0
296,280,65052,2,2,B|216:268,1,80,0|0
116,348,65368,2,2,B|196:360,1,80,0|0
106,224,65684,6,2,B|84:264|40:260,1,80,0|0
133,151,66000,2,2,B|140:192|106:224,1,80,0|0
224,132,66315,2,2,B|246:171|290:167,1,80,0|0
197,59,66631,2,2,B|190:99|223:131,1,80,0|0
288,32,66947,5,0
480,32,67263,1,0
288,32,67578,2,2,B|344:96,1,80,2|0
480,32,67894,2,2,B|424:96,1,80,2|0
364,168,68210,5,0
196,316,68526,1,0
364,168,68842,2,2,B|284:196,1,80,2|0
196,316,69157,2,2,B|276:288,1,80,2|0
364,256,69473,5,0
360,64,69789,1,0
364,256,70105,1,2
448,208,70263,1,0
444,112,70421,1,2
360,64,70578,1,2
288,128,70736,6,2,B|204:88,1,80,0|0
132,140,71052,2,2,B|48:100,1,80,2|2
56,204,71368,2,2,B|140:244,1,80,0|0
212,192,71684,2,2,B|296:232,1,80,2|2
356,288,72000,6,0,B|412:224|496:200,2,160,2|2|2
268,328,72789,1,2
268,328,72868,1,0
268,328,72947,2,0,B|188:328,1,80,0|2
100,328,73263,2,2,B|68:300|72:252,1,80,2|0
116,144,73578,2,2,B|148:172|144:220,1,80,2|0
236,188,73894,1,2
328,164,74052,1,2
420,140,74210,1,2
232,104,74526,6,0,B|160:64|76:56,2,160,2|2|2
320,68,75315,1,2
320,68,75394,1,0
320,68,75473,2,0,B|400:36,1,80,0|2
456,100,75789,2,2,B|416:132|420:184,1,80,2|0
304,228,76105,2,2,B|344:196|340:144,1,80,2|0
244,156,76421,1,2
140,156,76578,1,2
184,252,76736,1,2
80,252,76894,1,2
216,324,77052,5,2
312,324,77210,1,0
312,324,77289,1,0
312,324,77368,2,2,B|396:324,2,80,0|2|2
480,200,78000,1,2
480,200,78157,1,2
380,176,78315,2,2,B|332:156|332:104,1,80,2|0
224,32,78631,2,2,B|217:84|262:110,1,80,2|0
168,152,78947,1,2
76,120,79105,1,2
28,36,79263,1,2
24,216,79578,6,0,B|108:240|144:316,1,160,2|2
228,356,80052,2,0,B|304:316,1,80,0|2
388,284,80368,1,2
388,284,80447,1,0
388,284,80526,2,0,B|336:216,1,80,0|2
376,136,80842,6,2,B|472:116,1,80,0|0
360,60,81157,2,2,B|456:40,1,80,2|2
272,32,81473,2,2,B|176:52,1,80,0|0
288,108,81789,2,2,B|192:128,1,80
112,140,82105,5,4
164,212,82263,1,2
164,212,82342,1,0
164,212,82421,2,0,B|204:244|212:280,1,80,0|2
272,340,82736,2,0,B|292:300|340:292,3,80,2|2|2|2
448,236,83368,5,4
380,180,83526,1,4
380,180,83605,1,0
380,180,83684,2,0,B|332:148|332:100,1,80,0|2
264,60,84000,2,0,B|188:92,3,80,2|2|2|2
80,136,84631,5,4
148,192,84789,1,2
148,192,84868,1,0
148,192,84947,2,0,B|196:180|220:148,1,80,0|2
264,228,85263,2,0,B|192:268,3,80,2|2|2|4
344,296,85894,5,4
432,296,86052,1,0
432,296,86131,1,0
432,296,86210,2,0,B|488:228,1,80,4|0
340,192,86526,2,0,B|420:192,1,80,4|0
432,88,86842,2,0,B|488:156,1,80,4|0
352,72,87157,5,4
352,72,87315,1,2
160,72,87631,1,2
352,72,87947,1,2
160,72,88263,1,2
352,72,88578,1,2
160,72,88894,1,2
352,72,89210,1,2
160,72,89526,1,2
400,144,89842,5,2
177,204,90158,1,2
400,144,90474,1,2
177,204,90790,1,2
400,144,91105,1,2
177,204,91421,1,2
400,144,91737,1,2
177,204,92053,1,2
476,196,92368,5,2
236,334,92684,1,2
476,196,93000,1,2
236,334,93316,1,2
400,144,93631,5,2
120,304,93947,1,2
400,144,94263,1,2
120,304,94579,1,2
352,72,94894,5,2
15,264,95210,1,2
352,72,95526,1,2
15,264,95842,1,2
256,192,95999,12,4,96946
168,156,97263,6,0,B|128:88,2,80,4|0|2
212,232,97736,1,2
372,304,98052,1,2
356,128,98368,1,2
212,232,98684,1,2
212,232,98842,1,2
372,304,99157,1,2
372,304,99315,1,2
292,340,99473,1,2
292,340,99552,1,2
292,340,99631,1,2
292,340,99710,1,2
292,340,99789,6,0,B|208:340,1,80,4|2
64,304,100105,2,0,B|148:304,1,80,0|2
224,268,100421,1,4
224,268,100578,1,2
64,192,100894,1,2
64,192,101052,5,4
256,60,101368,1,4
448,192,101684,1,4
256,324,102000,1,2
256,324,102078,1,2
256,324,102157,1,2
176,284,102315,6,2,B|96:264,1,80,0|0
208,212,102631,2,2,B|288:232,1,80,0|0
232,136,102947,1,0
232,136,103026,1,0
232,136,103105,1,0
232,136,103184,1,0
232,136,103263,2,0,B|148:120,1,80,0|0
416,136,103736,1,0
416,136,103894,1,0
232,136,104210,1,0
232,136,104289,1,0
232,136,104368,1,0
232,136,104447,1,0
232,136,104526,2,0,B|148:120,1,80,0|0
56,196,104842,6,2,B|56:280,1,80,0|0
148,340,105157,2,2,B|148:256,1,80,0|0
236,244,105473,1,0
236,244,105552,1,0
236,244,105631,1,0
236,244,105710,1,0
236,244,105789,2,0,B|320:244,1,80,0|0
360,332,106105,5,0
444,288,106263,1,2
464,192,106421,1,0
444,96,106578,1,2
360,52,106736,1,2
116,160,107052,5,0
116,160,107210,1,0
116,160,107368,2,0,B|172:80|260:84,2,160,2|0|2
32,208,108157,1,0
120,248,108315,1,2
204,296,108473,1,2
292,336,108631,2,2,B|384:340|436:256,1,160,2|2
480,184,109105,1,0
384,188,109263,2,0,B|328:188,2,40,2|0|0
428,104,109578,2,0,B|392:80,2,40,2|0|2
316,40,109894,6,2,B|228:52|172:124,1,160,2|0
84,132,110368,1,2
144,208,110526,1,2
144,208,110605,1,0
144,208,110684,1,0
144,208,110763,1,0
144,208,110842,2,2,B|184:280|280:300,1,160,2|2
480,232,111473,6,0,B|460:320,1,80,0|2
412,180,111789,2,0,B|325:206,1,80,0|2
428,100,112105,2,2,B|361:38,1,80,2|2
284,88,112421,6,2,B|224:60|224:60|124:92,1,160,2|0
40,148,112894,2,2,B|100:176|100:176|200:144,1,160
284,168,113368,1,0
216,236,113526,1,2
308,260,113684,2,0,B|392:288|448:360,2,160,2|2|0
216,236,114473,1,2
284,168,114631,1,0
308,260,114789,1,2
236,324,114947,6,2,B|188:360|188:360|92:320,1,160,2|0
8,264,115421,2,2,B|56:228|56:228|152:268,1,160
184,176,115894,1,0
224,88,116052,1,2
332,60,116210,5,2
332,60,116368,1,0
444,100,116526,1,2
444,100,116684,1,0
332,144,116842,2,2,B|296:232,1,80,0|2
424,332,117157,2,2,B|460:244,1,80,0|2
340,340,117473,6,2,B|256:328|204:252,1,160,2|0
116,288,117947,1,0
32,240,118105,2,2,B|72:208|72:160,1,80,2|0
88,48,118421,2,2,B|128:80|128:128,1,80,2|2
196,152,118736,2,2,B|268:108|352:104,1,160
444,92,119210,1,0
388,172,119368,1,2
416,180,119447,1,0
444,188,119526,1,0
376,256,119684,1,2
348,248,119763,1,0
320,240,119842,1,2
268,320,120000,6,2,B|176:296|112:352,1,160,2|0
36,296,120473,1,2
116,244,120631,1,2
140,232,120710,1,0
164,216,120789,1,0
184,196,120868,1,0
200,172,120947,2,2,B|248:100|344:96,1,160
396,288,121578,6,0,B|324:344,1,80,0|2
256,240,121894,2,0,B|256:324,1,80,0|2
116,288,122210,2,2,B|188:344,1,80
40,240,122526,6,2,B|72:204|72:204|72:88,1,160,2|0
180,20,123000,2,2,B|148:56|148:56|148:172,1,160
240,140,123473,1,0
336,148,123631,1,2
420,196,123789,2,0,B|492:248|516:336,2,160,2|0|2
336,244,124578,1,2
336,148,124736,1,0
420,196,124894,1,2
424,292,125052,6,2,B|276:364,1,160,2|0
132,348,125526,2,2,B|280:276,1,160
236,188,126000,1,0
204,96,126157,1,2
312,60,126315,5,2
312,60,126473,1,0
424,128,126631,1,2
424,128,126789,1,0
424,256,126947,1,2
424,256,127105,1,2
312,324,127263,1,2
312,324,127421,1,2
256,192,127578,12,4,132631
