osu file format v13

[General]
AudioFilename: craigsmusicchannel+nightofrain.mp3
AudioLeadIn: 0
PreviewTime: 12419
Countdown: 0
SampleSet: Soft
StackLeniency: 0.7
Mode: 0
LetterboxInBreaks: 0
EpilepsyWarning: 1
WidescreenStoryboard: 0

[Editor]
DistanceSpacing: 1.2
BeatDivisor: 4
GridSize: 4
TimelineZoom: 1

[Metadata]
Title:Night Of Rain
TitleUnicode:Night Of Rain
Artist:craigsmusicchannel
ArtistUnicode:craigsmusicchannel
Creator:-Bakari-
Version:Easy
Source:
Tags:classical dark piano sieg
BeatmapID:463912
BeatmapSetID:195533

[Difficulty]
HPDrainRate:1
CircleSize:3
OverallDifficulty:1
ApproachRate:2
SliderMultiplier:1.1
SliderTickRate:2

[Events]
//Background and Video events
0,0,"1.jpg",0,0
//Break Periods
//Storyboard Layer 0 (Background)
//Storyboard Layer 1 (Fail)
//Storyboard Layer 2 (Pass)
//Storyboard Layer 3 (Foreground)
//Storyboard Sound Samples
//Background Colour Transformations
3,100,163,162,255

[TimingPoints]
12420,769.230769230769,4,2,1,35,1,0
14727,-100,4,2,1,25,0,0
15112,-100,4,2,1,35,0,0
17804,-100,4,2,1,20,0,0
18189,-100,4,2,1,35,0,0
20881,-100,4,2,1,20,0,0
21266,-100,4,2,1,35,0,0
23958,-100,4,2,1,20,0,0
24727,-100,4,2,1,40,0,0
29343,-100,4,2,1,30,0,0
29727,-100,4,2,1,40,0,0
35496,-100,4,2,1,30,0,0
35881,-100,4,2,1,40,0,0
41650,-100,4,2,1,30,0,0
42035,-100,4,2,1,40,0,0
47804,-100,4,2,1,30,0,0
48189,-100,4,2,1,40,0,0
49343,-100,4,2,1,45,0,0
53958,-100,4,2,1,35,0,0
54343,-100,4,2,1,45,0,0
58573,-100,4,2,1,35,0,0
58958,-100,4,2,1,45,0,0
64727,-100,4,2,1,35,0,0
65112,-100,4,2,1,45,0,0
70881,-100,4,2,1,35,0,0
71266,-100,4,2,1,45,0,0
73958,-100,4,2,1,50,0,0
77035,-100,4,2,1,55,0,0
80112,-100,4,2,1,60,0,0
83189,-100,4,2,1,65,0,0
86266,-100,4,2,1,40,0,0
88573,-100,4,2,1,30,0,0
89343,-100,4,2,1,25,0,0
90112,-100,4,2,1,20,0,0
90881,-100,4,2,1,15,0,0
91650,-100,4,2,1,10,0,0
92419,-100,4,2,1,25,0,0

[Colours]
Combo1 : 116,137,139
Combo2 : 160,158,150
Combo3 : 87,102,108
Combo4 : 148,151,121
SliderBorder : 169,169,169

[HitObjects]
92,124,12419,6,0,P|63:222|140:320,1,220,4|8,3:2|0:2,0:0:0:0:
180,208,14727,1,2,3:2:0:0:
272,132,15496,2,0,P|324:120|384:128,1,110,4|8,3:2|3:2,0:0:0:0:
460,216,17035,1,2,3:2:0:0:
420,332,17804,1,2,3:2:0:0:
304,376,18573,6,0,P|224:368|168:248,1,220,4|2,3:2|3:2,0:0:0:0:
248,168,20881,1,2,3:2:0:0:
192,64,21650,2,0,P|164:44|76:40,2,110,4|8|2,3:2|3:2|3:2,0:0:0:0:
248,169,23958,1,2,3:2:0:0:
328,260,24727,6,0,P|364:272|444:256,1,110,4|0,3:2|0:0,0:0:0:0:
500,160,26266,1,8,3:2:0:0:
424,64,27035,1,2,3:2:0:0:
312,112,27804,2,0,P|272:120|200:104,1,110,2|2,3:2|3:2,0:0:0:0:
124,16,29343,1,8,3:2:0:0:
32,96,30112,1,8,3:2:0:0:
104,192,30881,6,0,L|88:300,1,110,4|0,3:2|0:0,0:0:0:0:
188,368,32419,2,0,P|232:356|280:304,1,110,8|2,3:2|3:2,0:0:0:0:
276,192,33958,2,0,L|272:64,2,110,2|2|8,3:2|3:2|3:2,0:0:0:0:
192,280,36266,1,8,3:2:0:0:
308,320,37035,6,0,P|352:304|392:252,2,110,4|0|8,3:2|0:0|3:2,0:0:0:0:
192,280,39343,1,2,3:2:0:0:
80,328,40112,1,4,3:2:0:0:
28,216,40881,1,2,3:2:0:0:
140,172,41650,2,0,L|260:180,1,110,8|8,3:2|3:2,0:0:0:0:
356,236,43189,5,4,3:2:0:0:
460,176,43958,2,0,P|468:124|448:68,2,110,0|8|2,0:0|3:2|3:2,0:0:0:0:
356,236,46266,1,2,3:2:0:0:
240,264,47035,2,0,P|232:316|252:372,2,110,2|8|8,3:2|3:2|3:2,0:0:0:0:
292,156,49343,5,4,3:2:0:0:
172,172,50112,2,0,P|153:154|138:66,2,110,0|8|2,0:0|3:2|3:2,0:0:0:0:
292,168,52419,2,0,L|412:148,1,110,2|2,3:2|3:2,0:0:0:0:
504,212,53958,1,8,3:2:0:0:
400,272,54727,1,8,3:2:0:0:
296,332,55496,6,0,P|264:340|180:304,1,110,4|0,3:2|0:0,0:0:0:0:
164,200,57035,1,8,3:2:0:0:
256,120,57804,1,2,3:2:0:0:
360,180,58573,2,0,L|476:176,2,110,8|8|2,3:2|3:2|3:2,0:0:0:0:
260,244,60881,1,2,3:2:0:0:
164,320,61650,6,0,L|48:316,2,110,4|0|8,3:2|0:0|3:2,0:0:0:0:
280,360,63958,1,2,3:2:0:0:
364,272,64727,2,0,P|368:232|336:168,1,110,8|8,3:2|3:2,0:0:0:0:
220,148,66266,1,2,3:2:0:0:
112,204,67035,1,2,3:2:0:0:
12,136,67804,6,0,P|0:80|16:28,2,110,4|0|8,3:2|0:0|3:2,0:0:0:0:
112,204,70112,1,2,3:2:0:0:
180,104,70881,2,0,P|220:68|284:52,2,110,8|8|2,3:2|3:2|3:2,0:0:0:0:
112,204,73189,1,2,3:2:0:0:
232,224,73958,6,0,P|280:256|308:312,2,110,4|0|8,3:2|0:0|3:2,0:0:0:0:
112,204,76266,1,2,3:2:0:0:
36,108,77035,2,0,P|79:86|145:87,1,110,8|8,3:2|3:2,0:0:0:0:
232,160,78573,1,2,3:2:0:0:
352,144,79343,1,2,3:2:0:0:
404,252,80112,6,0,L|392:372,2,110,4|8|2,3:2|3:2|3:2,0:0:0:0:
492,168,82419,1,2,3:2:0:0:
372,148,83189,2,0,P|324:176|303:229,1,110,8|8,3:2|3:2,0:0:0:0:
336,340,84727,1,4,3:2:0:0:
216,320,85496,1,4,3:2:0:0:
100,352,86266,5,8,3:2:0:0:
256,192,87419,12,4,92419,3:2:0:0:
