osu file format v12

[General]
AudioFilename: 0001.-P.mp3
AudioLeadIn: 0
PreviewTime: 70544
Countdown: 0
SampleSet: Soft
StackLeniency: 0.3
Mode: 0
LetterboxInBreaks: 1
SkinPreference:abdomsisnSOLO

[Editor]
Bookmarks: 50044,50318,51711,56711,19734
DistanceSpacing: 1.2
BeatDivisor: 8
GridSize: 4

[Metadata]
Title:the leap from zero to infinity
TitleUnicode:the leap from zero to infinity
Artist:cosMo@Bousou_P feat.Hatsune Miku
ArtistUnicode:cosMo@Bousou_P feat.Hatsune Miku
Creator:abdomsisn
Version:challenge HRHR
Source:
Tags:zero infinity
BeatmapID:241148
BeatmapSetID:66195

[Difficulty]
HPDrainRate:7
CircleSize:6
OverallDifficulty:10
ApproachRate:10
SliderMultiplier:1.79999990463257
SliderTickRate:1

[Events]
//Background and Video events
Video,-240,"0001.flv"
0,0,"0002.P.JPG",0,0
//Break Periods
2,103911,108594
2,135911,145261
2,221244,232594
//Storyboard Layer 0 (Background)
//Storyboard Layer 1 (Fail)
//Storyboard Layer 2 (Pass)
//Storyboard Layer 3 (Foreground)
//Storyboard Sound Samples
//Background Colour Transformations
3,100,163,162,255

[TimingPoints]
1045,333.333333333333,4,2,0,45,1,0
4667,-133.333333333333,4,2,0,45,0,0
15378,-100,4,1,0,60,0,0
26294,-133.333333333333,4,1,0,60,0,0
27878,-100,4,1,0,60,0,0
69044,-83.3333333333333,4,1,0,60,0,0
70336,-100,4,2,0,60,0,0
71355,-100,4,2,0,100,0,1
76271,-100,4,1,0,70,0,1
82269,-100,4,1,0,70,0,1
90211,-133.333333333333,4,1,0,70,0,1
92294,-100,4,1,0,70,0,1
92934,-100,4,1,0,45,0,1
98266,-100,4,2,0,70,0,0
111628,-66.6666666666667,4,2,0,70,0,0
112929,-50,4,2,0,70,0,0
114345,-50,4,2,0,70,0,1
136007,-100,4,2,0,70,0,0
146336,-100,4,1,0,60,0,0
150294,-100,4,1,0,60,0,0
156044,-100,4,1,0,60,0,0
164961,-100,4,1,0,60,0,0
171628,-100,4,1,0,70,0,1
175628,-100,4,1,0,70,0,1
177165,-100,4,1,0,40,0,1
183663,-100,4,1,0,60,0,1
194294,-100,4,1,0,60,0,1
196711,-100,4,1,0,60,0,1
199669,-100,4,2,0,60,0,0
210544,-100,4,2,0,60,0,0
221322,-100,4,2,0,45,0,0
232878,-100,4,1,0,70,0,0
234211,-83.3333333333333,4,1,0,45,0,1
239669,-83.3333333333333,4,1,0,70,0,1
245044,-83.3333333333333,4,1,0,45,0,1
250211,-50,4,2,0,70,0,1
255628,-71.4285714285714,4,1,0,45,0,1
265711,-100,4,2,0,70,0,1
269044,-71.4285714285714,4,1,0,45,0,1
282378,-50,4,2,0,70,0,1
287711,-100,4,2,0,45,0,0

[Colours]
Combo1 : 255,255,0
Combo2 : 218,18,98
Combo3 : 223,192,49
Combo4 : 0,128,255
Combo5 : 0,255,255
Combo6 : 0,255,64

[HitObjects]
120,208,5044,2,0,P|112:164|224:80,1,202.499996995926
120,208,6044,1,0,0:0:0:0:
204,168,6211,1,0,0:0:0:0:
296,144,6378,2,0,P|289:207|236:254,2,134.999997997284
208,112,7378,1,0,0:0:0:0:
312,224,7544,1,0,0:0:0:0:
200,256,7711,2,0,B|229:235|229:235|230:181|274:150|274:150|340:160,1,202.499996995926
216,320,8544,1,0,0:0:0:0:
168,192,8711,1,0,0:0:0:0:
344,176,9044,6,0,L|440:272,1,134.999997997284
312,248,9711,2,0,L|208:144,1,134.999997997284
240,72,10378,21,0,0:0:0:0:
160,84,10544,1,0,0:0:0:0:
100,140,10711,1,0,0:0:0:0:
80,212,10878,1,0,0:0:0:0:
312,144,11378,1,0,0:0:0:0:
136,296,11711,5,0,0:0:0:0:
208,220,11878,1,0,0:0:0:0:
316,204,12044,1,0,0:0:0:0:
428,244,12211,1,0,0:0:0:0:
184,200,12711,1,0,0:0:0:0:
256,192,13044,12,0,15044,0:0:0:0:
224,96,15378,22,0,L|212:52,3,44.9999976158143
200,80,15711,2,0,P|128:128|128:216,1,179.999990463257
112,312,16211,1,0,0:0:0:0:
208,256,16378,2,0,L|288:208,1,89.9999952316285
296,320,16711,1,0,0:0:0:0:
224,144,16878,2,0,L|304:96,1,89.9999952316285
160,80,17211,2,0,P|128:112|112:160,1,89.9999952316285
352,304,17544,2,0,P|384:272|399:230,1,89.9999952316285
160,80,17878,6,0,L|176:168,1,89.9999952316285
352,304,18211,1,0,0:0:0:0:
352,304,18294,1,0,0:0:0:0:
352,304,18378,2,0,L|336:216,1,89.9999952316285
308,72,18711,1,0,0:0:0:0:
212,200,18878,22,0,P|172:224|148:272,1,89.9999952316285
384,128,19211,1,0,0:0:0:0:
384,128,19294,1,0,0:0:0:0:
384,128,19378,2,0,P|424:104|448:56,1,89.9999952316285
448,208,19711,1,0,0:0:0:0:
296,72,19878,2,0,B|248:56|199:83|199:83,2,89.9999952316285
217,312,20378,2,0,B|264:328|312:300|303:304,2,89.9999952316285
88,176,20878,1,0,0:0:0:0:
88,176,20961,1,0,0:0:0:0:
88,176,21044,6,0,P|72:216|80:264,2,89.9999952316285
328,144,21544,2,0,P|334:189|318:229,1,89.9999952316285
200,200,21878,2,0,P|194:155|210:115,1,89.9999952316285
448,152,22211,1,0,0:0:0:0:
448,152,22294,1,0,0:0:0:0:
448,152,22378,22,0,P|454:197|438:237,2,89.9999952316285
164,80,22878,2,0,P|148:120|154:165,1,89.9999952316285
348,316,23211,2,0,P|364:276|357:230,1,89.9999952316285
88,176,23544,1,0,0:0:0:0:
88,176,23628,1,0,0:0:0:0:
88,176,23711,6,0,P|78:217|94:260,1,89.9999952316285,0|0,0:0|0:0,3:0:0:0:
220,312,24044,1,0,0:0:0:0:
348,316,24211,1,0,0:0:0:0:
452,256,24378,2,0,P|455:207|438:170,1,89.9999952316285
437,169,24628,1,0,0:0:0:0:
437,169,24711,1,0,0:0:0:0:
332,88,24878,1,0,0:0:0:0:
208,40,25044,21,0,0:0:0:0:
44,96,25211,1,0,0:0:0:0:
208,152,25378,1,0,0:0:0:0:
44,208,25545,1,0,0:0:0:0:
208,272,25711,1,0,0:0:0:0:
208,272,25794,1,0,0:0:0:0:
208,272,25878,1,0,0:0:0:0:
208,272,25961,1,0,0:0:0:0:
208,272,26044,1,0,0:0:0:0:
208,272,26128,1,0,0:0:0:0:
208,272,26211,1,0,0:0:0:0:
208,272,26294,1,0,0:0:0:0:
208,272,26378,2,0,B|212:280|212:280|216:272|216:272|220:280|220:280|224:272|224:272|228:280|228:280|232:272|232:272|236:280|236:280|240:272|240:272|244:280|244:280|248:272|248:272|252:280|252:280|256:272|256:272|260:280|260:280|264:272|264:272|268:280|268:280|272:272|272:272|276:280|276:280|312:252|312:252|348:264|368:312,1,269.999995994568
256,192,27878,12,0,29044,0:0:0:0:
152,120,29211,5,0,0:0:0:0:
152,120,29294,1,0,0:0:0:0:
152,120,29378,2,0,P|124:156|120:208,1,89.9999952316285
256,88,29711,1,0,0:0:0:0:
224,184,29878,2,0,P|229:227|257:263,1,89.9999952316285
404,208,30211,2,0,P|398:164|370:128,2,89.9999952316285
332,288,30711,1,0,0:0:0:0:
444,112,30878,2,0,P|372:60|280:72,1,179.999990463257
188,104,31378,5,0,0:0:0:0:
80,320,31544,1,0,0:0:0:0:
80,320,31628,1,0,0:0:0:0:
80,320,31711,2,0,B|124:324|168:304|168:304,1,89.9999952316285
432,64,32044,2,0,B|388:60|344:80|344:80,1,89.9999952316285
344,79,32294,1,0,0:0:0:0:
344,79,32378,1,0,0:0:0:0:
268,164,32544,1,0,0:0:0:0:
84,4,32711,2,0,L|104:96,1,89.9999952316285
80,372,33044,1,0,0:0:0:0:
80,372,33128,1,0,0:0:0:0:
80,372,33211,2,0,L|100:280,1,89.9999952316285
164,152,33544,1,0,0:0:0:0:
260,64,33711,2,0,P|344:40|428:96,1,179.999990463257
420,83,34211,1,0,0:0:0:0:
252,320,34378,2,0,P|168:344|92:300,1,179.999990463257
72,184,34878,5,0,0:0:0:0:
180,56,35044,1,0,0:0:0:0:
180,56,35128,1,0,0:0:0:0:
180,56,35211,2,0,P|224:72|256:104,1,89.9999952316285
412,192,35545,2,0,P|376:222|328:232,1,89.9999952316285
256,192,35878,1,0,0:0:0:0:
176,324,36044,2,0,P|168:279|179:236,2,89.9999952316285
432,288,36544,2,0,P|448:244|440:200,1,89.9999952316285
80,96,36878,2,0,P|64:140|72:184,1,89.9999952316285
144,272,37211,5,0,0:0:0:0:
212,64,37378,2,0,P|256:48|300:56,1,89.9999952316285
129,209,37711,1,0,0:0:0:0:
344,164,37878,2,0,P|379:194|394:236,1,89.9999952316285
394,233,38128,1,0,0:0:0:0:
394,233,38211,1,0,0:0:0:0:
216,320,38378,2,0,L|132:284,1,89.9999952316285
44,224,38711,1,0,0:0:0:0:
292,260,38878,5,0,0:0:0:0:
248,124,39044,1,0,0:0:0:0:
364,196,39211,1,0,0:0:0:0:
320,60,39378,1,0,0:0:0:0:
436,132,39544,1,0,0:0:0:0:
396,0,39711,6,0,L|384:92,1,89.9999952316285
396,384,40044,1,0,0:0:0:0:
396,384,40128,1,0,0:0:0:0:
396,384,40211,2,0,L|384:292,1,89.9999952316285
308,0,40544,2,0,L|296:92,1,89.9999952316285
252,384,40878,1,0,0:0:0:0:
132,288,41044,2,0,B|96:264|84:212|84:212,2,89.9999952316285
407,146,41544,2,0,B|408:148|396:96|360:72,1,89.9999952316285
204,80,41878,5,0,0:0:0:0:
144,164,42044,2,0,L|240:164,1,89.9999952316285
294,80,42378,1,0,0:0:0:0:
80,252,42544,2,0,L|172:252,1,89.9999952316285
236,164,42878,1,0,0:0:0:0:
296,312,43044,2,0,P|372:261|384:172,1,179.999990463257
216,312,43544,1,0,0:0:0:0:
216,312,43628,1,0,0:0:0:0:
216,312,43711,2,0,P|139:261|124:172,1,179.999990463257
256,33,44211,5,0,0:0:0:0:
349,320,44378,1,0,0:0:0:0:
105,143,44544,1,0,0:0:0:0:
406,143,44711,1,0,0:0:0:0:
162,320,44878,1,0,0:0:0:0:
204,208,45044,2,0,B|220:164|264:140|264:140,1,89.9999952316285
261,141,45294,1,0,0:0:0:0:
261,141,45378,1,0,0:0:0:0:
372,208,45544,1,0,0:0:0:0:
472,184,45711,2,0,B|482:229|458:273|458:273,1,89.9999952316285
260,140,46044,1,0,0:0:0:0:
92,56,46211,2,0,B|81:101|105:145|105:145,1,89.9999952316285
204,208,46544,1,0,0:0:0:0:
372,208,46711,2,0,B|382:253|358:297|358:297,1,89.9999952316285
140,104,47211,6,0,B|165:61|208:48,2,89.9999952316285
168,212,47711,2,0,B|209:223|256:192,1,89.9999952316285
128,312,48044,1,0,0:0:0:0:
308,268,48211,2,0,B|292:308|244:332,1,89.9999952316285
272,160,48544,1,0,0:0:0:0:
320,72,48711,2,0,B|360:58|408:84,1,89.9999952316285,0|0,0:0|0:0,3:0:0:0:
187,42,49044,5,0,0:0:0:0:
141,44,49128,1,0,0:0:0:0:
99,60,49211,1,0,0:0:0:0:
66,90,49294,1,0,0:0:0:0:
47,130,49378,1,0,0:0:0:0:
41,174,49461,1,0,0:0:0:0:
47,218,49544,1,0,0:0:0:0:
72,255,49628,1,0,0:0:0:0:
109,279,49711,2,0,P|153:270|231:308,1,134.999992847443
255,347,50044,1,0,0:0:0:0:
261,194,50211,1,0,0:0:0:0:
332,72,50378,6,0,B|376:40|420:47|463:70|475:125,1,179.999990463257
256,140,50878,1,0,0:0:0:0:
180,72,51044,2,0,B|136:40|91:47|48:70|36:125,1,179.999990463257
376,228,51544,1,0,0:0:0:0:
376,228,51628,1,0,0:0:0:0:
376,229,51711,2,0,L|388:140,2,89.9999952316285
124,140,52211,2,0,L|136:231,1,89.9999952316285
256,140,52544,5,0,0:0:0:0:
336,72,52711,2,0,B|304:44|304:44|256:44,2,89.9999952316285
364,192,53211,1,0,0:0:0:0:
364,192,53295,1,0,0:0:0:0:
364,192,53378,1,0,0:0:0:0:
344,376,53544,6,0,L|356:280,1,89.9999952316285
364,192,53878,1,0,0:0:0:0:
384,4,54044,2,0,L|372:96,2,89.9999952316285
288,244,54544,1,0,0:0:0:0:
88,292,54711,1,0,0:0:0:0:
140,104,54878,2,0,P|186:101|228:116,2,89.9999952316285
237,336,55378,2,0,P|212:297|204:248,1,89.9999952316285
85,205,55711,6,0,B|95:161|119:124|163:101|216:108,1,179.999990463257,0|0,0:0|0:0,3:0:0:0:
256,192,56211,1,0,0:0:0:0:
295,271,56378,2,0,B|348:282|392:259|416:222|426:178,1,179.999990463257,0|0,0:0|0:0,3:0:0:0:
426,178,56878,1,0,0:0:0:0:
436,60,57044,6,0,P|392:52|348:60,1,89.9999952316285
304,140,57378,1,0,0:0:0:0:
392,140,57544,1,0,0:0:0:0:
348,60,57711,2,0,P|304:52|260:60,1,89.9999952316285
216,140,58044,1,0,0:0:0:0:
304,140,58210,1,0,0:0:0:0:
172,220,58378,1,0,0:0:0:0:
172,220,58461,1,0,0:0:0:0:
172,220,58544,2,0,L|220:220|276:220,1,89.9999952316285
128,140,58878,1,0,0:0:0:0:
84,220,59044,1,0,0:0:0:0:
84,220,59128,1,0,0:0:0:0:
84,220,59211,1,0,0:0:0:0:
128,300,59378,2,0,P|172:308|216:300,1,89.9999952316285
216,192,59711,5,0,0:0:0:0:
256,76,59878,1,0,0:0:0:0:
296,192,60044,1,0,0:0:0:0:
416,216,60211,1,0,0:0:0:0:
408,260,60294,1,0,0:0:0:0:
384,300,60378,1,0,0:0:0:0:
344,320,60461,1,0,0:0:0:0:
300,320,60544,1,0,0:0:0:0:
224,240,60711,2,0,P|192:203|156:184,1,89.9999952316285
94,353,61044,6,0,L|56:376,2,44.9999976158143
256,251,61378,1,0,0:0:0:0:
418,353,61544,2,0,L|456:376,2,44.9999976158143
256,366,61878,1,0,0:0:0:0:
256,76,62044,1,0,0:0:0:0:
256,76,62128,1,0,0:0:0:0:
256,76,62211,6,0,P|296:58|344:60,1,89.9999952316285
136,192,62544,2,0,P|118:152|120:104,1,89.9999952316285
256,308,62878,2,0,P|216:326|168:324,1,89.9999952316285
372,192,63211,2,0,P|390:232|388:280,1,89.9999952316285
256,76,63544,5,0,0:0:0:0:
190,238,63711,2,0,P|168:200|164:152,1,89.9999952316285
348,156,64044,2,0,P|344:200|320:240,1,89.9999952316285
64,120,64378,2,0,P|96:88|136:68,1,89.9999952316285
376,68,64711,2,0,P|416:88|448:120,1,89.9999952316285
248,308,65044,5,0,0:0:0:0:
216,312,65128,2,0,P|192:308|112:216,1,134.999992847443
128,124,65544,1,0,0:0:0:0:
280,8,65711,2,0,P|232:19|198:42,1,89.9999952316285
300,204,66044,2,0,P|347:192|380:168,1,89.9999952316285
404,58,66378,1,0,0:0:0:0:
320,27,66544,1,0,0:0:0:0:
230,27,66711,1,0,0:0:0:0:
142,51,66878,1,0,0:0:0:0:
73,109,67044,5,0,0:0:0:0:
178,83,67211,1,0,0:0:0:0:
286,88,67378,1,0,0:0:0:0:
385,127,67544,1,0,0:0:0:0:
463,201,67711,5,0,0:0:0:0:
344,156,67878,1,0,0:0:0:0:
219,138,68044,1,0,0:0:0:0:
97,173,68211,1,0,0:0:0:0:
0,254,68378,1,0,0:0:0:0:
83,285,68544,5,0,0:0:0:0:
172,298,68711,1,0,0:0:0:0:
261,286,68878,1,0,0:0:0:0:
344,244,69044,6,0,P|307:209|284:200,1,53.999995491028
257,198,69211,1,0,0:0:0:0:
203,203,69294,1,0,0:0:0:0:
153,180,69378,1,0,0:0:0:0:
123,134,69461,1,0,0:0:0:0:
131,80,69544,1,0,0:0:0:0:
174,47,69628,1,0,0:0:0:0:
228,40,69711,1,0,0:0:0:0:
272,68,69794,1,0,0:0:0:0:
312,100,69878,1,0,0:0:0:0:
368,91,69961,1,0,0:0:0:0:
418,73,70044,1,0,0:0:0:0:
468,93,70128,1,0,0:0:0:0:
464,146,70211,1,0,0:0:0:0:
416,171,70294,1,0,0:0:0:0:
424,220,70378,6,0,L|448:240,5,29.9999984105428
384,228,70711,2,0,L|360:208,7,29.9999984105428
248,304,71211,6,0,L|272:324,8,22.4999988079071
224,304,71711,5,0,0:0:0:0:
208,281,71794,1,0,0:0:0:0:
180,281,71878,1,0,0:0:0:0:
166,257,71961,1,0,0:0:0:0:
139,259,72044,6,0,L|112:220,3,44.9999976158143
88,232,72378,2,0,B|88:188|88:188,3,44.9999976158143
57,188,72711,2,0,L|80:148|80:148,3,44.9999976158143
35,142,73044,5,0,0:0:0:0:
31,115,73128,1,0,0:0:0:0:
40,90,73211,1,0,0:0:0:0:
59,72,73294,1,0,0:0:0:0:
84,60,73378,1,0,0:0:0:0:
110,60,73461,1,0,0:0:0:0:
135,71,73544,1,0,0:0:0:0:
152,92,73628,1,0,0:0:0:0:
161,116,73711,1,0,0:0:0:0:
171,141,73794,1,0,0:0:0:0:
189,161,73878,1,0,0:0:0:0:
210,176,73961,1,0,0:0:0:0:
235,182,74044,1,0,0:0:0:0:
262,179,74128,1,0,0:0:0:0:
282,162,74211,1,0,0:0:0:0:
294,138,74294,1,0,0:0:0:0:
304,116,74378,6,0,L|324:76,3,44.9999976158143
440,120,74711,2,0,B|480:92|480:92|473:89,3,44.9999976158143
380,216,75044,6,0,L|336:204,1,44.9999976158143
236,212,75211,2,0,L|192:212,1,44.9999976158143
172,316,75378,2,0,L|216:304,1,44.9999976158143
316,308,75544,2,0,L|360:312,1,44.9999976158143
396,288,75711,5,0,0:0:0:0:
418,273,75795,1,0,0:0:0:0:
418,247,75878,1,0,0:0:0:0:
438,230,75961,2,0,B|464:172,3,44.9999976158143
464,340,76378,5,0,0:0:0:0:
396,40,76545,1,0,0:0:0:0:
328,340,76711,1,0,0:0:0:0:
256,40,76878,1,0,0:0:0:0:
168,228,77044,6,0,B|168:284|224:284,1,89.9999952316285
220,104,77378,2,0,B|164:104|164:160,1,89.9999952316285
344,156,77711,2,0,B|344:100|288:100,1,89.9999952316285
292,280,78044,2,0,B|348:280|348:224,1,89.9999952316285
432,128,78378,6,0,P|376:93|300:88,1,134.999992847443
248,128,78711,2,0,P|222:90|223:42,1,89.9999952316285
80,256,79044,2,0,P|135:290|212:296,1,134.999992847443
264,252,79377,2,0,P|288:290|287:338,1,89.9999952316285
256,40,79711,5,0,0:0:0:0:
309,148,79878,5,0,0:0:0:0:
309,123,79961,1,0,0:0:0:0:
309,98,80044,1,0,0:0:0:0:
184,220,80211,5,0,0:0:0:0:
184,184,80294,1,0,0:0:0:0:
184,148,80378,1,0,0:0:0:0:
345,289,80544,5,0,0:0:0:0:
345,245,80628,1,0,0:0:0:0:
345,202,80711,1,0,0:0:0:0:
148,368,80878,5,0,0:0:0:0:
148,314,80961,1,0,0:0:0:0:
148,260,81044,1,0,0:0:0:0:
148,368,81211,1,0,0:0:0:0:
364,368,81378,1,0,0:0:0:0:
364,260,81544,1,0,0:0:0:0:
256,124,81711,5,0,0:0:0:0:
44,192,81878,1,0,0:0:0:0:
256,260,82044,1,0,0:0:0:0:
468,192,82211,1,0,0:0:0:0:
255,124,82378,6,0,B|210:126|164:141|128:164,1,134.999992847443
80,116,82711,2,0,P|56:152|44:196,1,89.9999952316285
72,344,83044,6,0,L|64:300,1,44.9999976158143
176,224,83211,2,0,L|180:180,1,44.9999976158143
280,344,83378,2,0,L|296:296,1,44.9999976158143
400,248,83544,2,0,L|432:216,1,44.9999976158143
256,260,83711,6,0,B|301:257|347:242|385:217,1,134.999992847443
432,268,84044,2,0,P|456:232|468:188,1,89.9999952316285
351,62,84378,5,0,0:0:0:0:
324,56,84461,1,0,0:0:0:0:
297,54,84544,1,0,0:0:0:0:
270,58,84628,1,0,0:0:0:0:
244,66,84711,1,0,0:0:0:0:
219,78,84794,1,0,0:0:0:0:
196,93,84878,1,0,0:0:0:0:
124,124,85044,6,0,P|148:164|184:192,1,89.9999952316285
260,340,85378,2,0,P|285:299|292:257,1,89.9999952316285
380,108,85711,2,0,P|334:112|294:128,1,89.9999952316285
256,192,86044,1,0,0:0:0:0:
128,272,86211,6,0,P|177:271|217:255,2,89.9999952316285
320,232,86711,1,0,0:0:0:0:
192,152,86878,1,0,0:0:0:0:
384,120,87044,1,0,0:0:0:0:
256,40,87211,5,0,0:0:0:0:
40,328,87378,1,0,0:0:0:0:
472,328,87544,1,0,0:0:0:0:
472,56,87711,5,0,0:0:0:0:
256,192,87878,1,0,0:0:0:0:
40,328,88044,1,0,0:0:0:0:
472,144,88378,1,0,0:0:0:0:
256,192,88544,1,0,0:0:0:0:
40,236,88711,1,0,0:0:0:0:
472,236,89044,1,0,0:0:0:0:
256,192,89211,1,0,0:0:0:0:
40,144,89378,1,0,0:0:0:0:
472,328,89711,1,0,0:0:0:0:
256,192,89878,1,0,0:0:0:0:
40,56,90044,1,0,0:0:0:0:
141,126,90378,5,0,0:0:0:0:
168,144,90461,1,0,0:0:0:0:
192,160,90544,1,0,0:0:0:0:
370,258,90711,1,0,0:0:0:0:
256,60,91044,1,0,0:0:0:0:
256,324,91211,1,0,0:0:0:0:
256,60,91378,1,0,0:0:0:0:
370,125,91711,1,0,0:0:0:0:
344,144,91794,1,0,0:0:0:0:
141,258,91961,1,0,0:0:0:0:
168,240,92044,1,0,0:0:0:0:
288,244,92378,5,0,0:0:0:0:
163,199,92544,1,0,0:0:0:0:
191,187,92711,2,0,B|280:144,2,89.9999952316285
128,213,93128,1,0,0:0:0:0:
92,216,93211,1,0,0:0:0:0:
56,210,93294,1,0,0:0:0:0:
27,187,93378,1,0,0:0:0:0:
11,154,93461,1,0,0:0:0:0:
12,118,93544,1,0,0:0:0:0:
29,86,93628,1,0,0:0:0:0:
59,66,93711,1,0,0:0:0:0:
93,57,93794,1,0,0:0:0:0:
128,63,93878,1,0,0:0:0:0:
156,84,93961,1,0,0:0:0:0:
172,115,94044,1,0,0:0:0:0:
182,149,94128,1,0,0:0:0:0:
167,181,94211,1,0,0:0:0:0:
182,149,94294,5,0,0:0:0:0:
212,129,94378,1,0,0:0:0:0:
246,119,94461,1,0,0:0:0:0:
280,127,94544,1,0,0:0:0:0:
310,147,94628,1,0,0:0:0:0:
332,174,94711,1,0,0:0:0:0:
335,209,94794,1,0,0:0:0:0:
328,244,94878,1,0,0:0:0:0:
305,272,94961,1,0,0:0:0:0:
271,285,95044,1,0,0:0:0:0:
234,285,95128,1,0,0:0:0:0:
199,273,95211,1,0,0:0:0:0:
176,245,95294,1,0,0:0:0:0:
172,208,95378,1,0,0:0:0:0:
185,174,95461,1,0,0:0:0:0:
211,149,95544,1,0,0:0:0:0:
246,139,95628,5,0,0:0:0:0:
281,143,95711,1,0,0:0:0:0:
314,155,95794,1,0,0:0:0:0:
341,179,95878,1,0,0:0:0:0:
364,205,95961,1,0,0:0:0:0:
394,223,96044,1,0,0:0:0:0:
428,234,96128,1,0,0:0:0:0:
462,223,96211,1,0,0:0:0:0:
483,194,96294,2,0,B|492:148|492:148,21,44.9999976158143
176,56,98378,6,0,B|88:32,1,89.9999952316285
96,136,98711,2,0,B|0:128,1,89.9999952316285
96,248,99044,2,0,B|4:256,1,89.9999952316285
176,328,99377,2,0,B|88:352,1,89.9999952316285
336,56,99711,6,0,B|424:32,1,89.9999952316285
416,136,100044,2,0,B|512:128,1,89.9999952316285
416,248,100377,2,0,B|508:256,1,89.9999952316285
336,328,100710,2,0,B|424:352,1,89.9999952316285
440,320,101044,5,0,0:0:0:0:
328,64,101211,1,0,0:0:0:0:
328,320,101378,1,0,0:0:0:0:
440,64,101544,1,0,0:0:0:0:
72,320,101711,5,0,0:0:0:0:
184,64,101878,1,0,0:0:0:0:
184,320,102044,1,0,0:0:0:0:
72,64,102211,1,0,0:0:0:0:
16,192,102378,5,0,0:0:0:0:
48,192,102461,1,0,0:0:0:0:
76,192,102544,1,0,0:0:0:0:
108,192,102628,1,0,0:0:0:0:
136,192,102711,1,0,0:0:0:0:
168,192,102794,1,0,0:0:0:0:
196,192,102878,1,0,0:0:0:0:
228,192,102961,1,0,0:0:0:0:
256,192,103044,1,0,0:0:0:0:
288,192,103128,1,0,0:0:0:0:
316,192,103211,1,0,0:0:0:0:
348,192,103294,1,0,0:0:0:0:
376,192,103378,1,0,0:0:0:0:
408,192,103461,1,0,0:0:0:0:
436,192,103544,1,0,0:0:0:0:
468,192,103628,1,0,0:0:0:0:
496,192,103711,1,0,0:0:0:0:
272,48,109044,38,0,B|362:48,1,89.9999952316285
240,336,109378,2,0,B|148:336,1,89.9999952316285
392,48,109711,2,0,B|484:48,1,89.9999952316285
120,336,110044,2,0,B|28:336,1,89.9999952316285
148,48,110378,22,0,B|240:48,1,89.9999952316285
360,336,110711,2,0,B|268:336,1,89.9999952316285
32,48,111045,2,0,B|124:48,1,89.9999952316285
480,336,111378,2,0,B|388:336,1,89.9999952316285
488,248,111711,6,0,B|488:316,1,67.499998998642
408,272,111878,2,0,B|408:340,1,67.499998998642
328,240,112044,2,0,B|328:312,1,67.499998998642
248,272,112211,2,0,B|248:340,1,67.499998998642
24,136,112378,6,0,B|24:68,1,67.499998998642
104,40,112544,2,0,B|104:114,1,67.499998998642
184,144,112711,2,0,B|184:76,1,67.499998998642
264,44,112878,2,0,B|264:112,1,67.499998998642
256,192,113044,12,0,114211,0:0:0:0:
284,192,114378,6,0,P|300:236|292:280,1,89.9999952316285
220,244,114544,2,0,P|204:200|212:156,1,89.9999952316285
292,276,114711,1,0,0:0:0:0:
211,158,114878,1,0,0:0:0:0:
216,324,115044,5,0,0:0:0:0:
132,328,115128,1,0,0:0:0:0:
62,281,115211,1,0,0:0:0:0:
40,192,115294,1,0,0:0:0:0:
60,100,115378,2,0,B|80:80|120:64|160:64,2,89.9999952316285
160,88,115711,5,0,0:0:0:0:
224,40,115794,1,0,0:0:0:0:
288,88,115878,1,0,0:0:0:0:
352,40,115961,1,0,0:0:0:0:
420,84,116044,2,0,P|377:100|350:133,3,89.9999952316285
352,136,116378,2,0,P|394:152|424:188,3,89.9999952316285
424,188,116712,2,0,P|381:204|354:237,1,89.9999952316285
352,240,116878,2,0,P|394:256|424:292,1,89.9999952316285
328,312,117044,5,0,0:0:0:0:
260,264,117128,1,0,0:0:0:0:
168,264,117211,1,0,0:0:0:0:
104,312,117294,1,0,0:0:0:0:
68,228,117378,2,0,P|26:148|72:79,1,179.999990463257
72,80,117628,1,0,0:0:0:0:
156,80,117711,2,0,B|156:108|144:136|112:156,2,89.9999952316285
193,155,117961,1,0,0:0:0:0:
156,228,118044,2,0,P|112:240|67:227,2,89.9999952316285
113,155,118294,1,0,0:0:0:0:
156,80,118378,2,0,P|188:112|192:160,1,89.9999952316285
256,128,118545,6,0,P|272:86|316:64,1,89.9999952316285,0|0,0:0|0:0,0:0:0:0:
308,220,118711,2,0,P|339:258|333:307,1,89.9999952316285,0|0,0:0|0:0,0:0:0:0:
200,224,118878,2,0,P|156:231|120:204,1,89.9999952316285,0|0,0:0|0:0,0:0:0:0:
256,128,119044,2,0,L|352:128,1,89.9999952316285
448,44,119211,2,0,L|416:128,1,89.9999952316285
332,268,119378,2,0,L|424:268,1,89.9999952316285
331,267,119544,6,0,L|364:300,3,44.9999976158143
340,225,119711,6,0,P|382:210|400:164,1,89.9999952316285,0|0,0:0|0:0,0:3:0:0:
289,107,119878,2,0,P|273:65|228:48,1,89.9999952316285,0|0,0:0|0:0,0:3:0:0:
168,156,120044,2,0,P|128:174|109:219,1,89.9999952316285,0|0,0:0|0:0,0:3:0:0:
222,276,120211,2,0,P|237:319|284:336,1,89.9999952316285,0|0,0:0|0:0,0:3:0:0:
338,155,120378,6,0,P|357:114|340:68,1,89.9999952316285,0|0,0:0|0:0,0:3:0:0:
219,108,120545,2,8,P|178:89|132:108,1,89.9999952316285,0|0,0:0|0:0,0:3:0:0:
171,228,120711,2,0,P|152:269|172:316,1,89.9999952316285,0|0,0:0|0:0,0:3:0:0:
291,275,120878,2,0,P|332:294|376:276,1,89.9999952316285,0|0,0:0|0:0,0:3:0:0:
340,156,121044,6,0,B|276:68|176:96|176:96,1,179.999990463257
48,152,121378,1,0,0:0:0:0:
40,224,121461,1,0,0:0:0:0:
64,292,121544,1,0,0:0:0:0:
124,336,121628,1,0,0:0:0:0:
196,344,121711,2,0,L|272:292,1,89.9999952316285
364,156,121878,2,0,L|288:208,1,89.9999952316285
184,164,122044,2,0,L|238:242,1,89.9999952316285
376,336,122211,2,0,L|322:258,1,89.9999952316285
144,108,122378,5,0,0:0:0:0:
126,113,122461,1,0,0:0:0:0:
113,125,122544,1,0,0:0:0:0:
109,143,122628,1,0,0:0:0:0:
114,160,122711,1,0,0:0:0:0:
256,216,122878,2,0,P|268:176|260:128,1,89.9999952316285
96,44,123045,5,0,0:0:0:0:
32,68,123128,1,0,0:0:0:0:
0,128,123211,1,0,0:0:0:0:
24,192,123295,1,0,0:0:0:0:
80,232,123378,1,0,0:0:0:0:
256,216,123544,1,0,0:0:0:0:
432,152,123711,6,0,P|408:64|336:20,1,179.999990463257
144,108,123961,1,0,0:0:0:0:
80,232,124044,2,0,P|104:320|176:364,1,179.999990463257
408,280,124378,1,0,0:0:0:0:
440,220,124461,1,0,0:0:0:0:
432,152,124544,1,0,0:0:0:0:
392,96,124628,1,0,0:0:0:0:
332,60,124711,2,0,L|240:60,2,89.9999952316285
256,216,125044,6,0,L|304:292,2,89.9999952316285
220,188,125294,1,0,0:0:0:0:
184,164,125378,2,0,P|148:144|96:144,2,89.9999952316285
76,292,125711,2,0,L|160:324,1,89.9999952316285
136,292,125878,2,0,L|220:260,1,89.9999952316285
196,292,126044,2,0,L|280:328,1,89.9999952316285
256,292,126211,2,0,L|340:260,1,89.9999952316285
396,220,126378,1,0,0:0:0:0:
432,160,126461,1,0,0:0:0:0:
416,92,126544,1,0,0:0:0:0:
364,44,126628,1,0,0:0:0:0:
296,28,126711,6,0,L|208:8,1,89.9999952316285
208,196,126878,2,0,L|296:216,1,89.9999952316285
336,156,127044,2,0,L|356:68,1,89.9999952316285
168,68,127211,5,0,0:0:0:0:
138,78,127294,1,0,0:0:0:0:
119,102,127378,1,0,0:0:0:0:
117,133,127461,1,0,0:0:0:0:
127,161,127544,1,0,0:0:0:0:
312,280,127711,2,0,P|384:220|388:136,1,179.999990463257
268,164,127961,1,0,0:0:0:0:
216,56,128044,2,0,P|144:116|140:200,1,179.999990463257
81,289,128378,5,0,0:0:0:0:
117,328,128461,1,0,0:0:0:0:
168,343,128544,1,0,0:0:0:0:
220,327,128628,1,0,0:0:0:0:
262,294,128711,1,0,0:0:0:0:
308,267,128794,1,0,0:0:0:0:
362,267,128878,1,0,0:0:0:0:
407,295,128961,1,0,0:0:0:0:
449,328,129044,6,0,P|476:296|492:252,1,89.9999952316285
492,184,129211,1,0,0:0:0:0:
472,120,129294,1,0,0:0:0:0:
436,72,129378,2,0,P|406:44|340:22,1,89.9999952316285
304,16,129545,1,0,0:0:0:0:
244,16,129628,1,0,0:0:0:0:
184,36,129711,2,0,P|143:49|88:108,1,89.9999952316285
76,128,129878,1,0,0:0:0:0:
64,188,129961,1,0,0:0:0:0:
80,248,130044,2,0,P|92:285|124:324,1,89.9999952316285,0|0,2:0|0:0,0:0:0:0:
180,348,130211,1,0,0:0:0:0:
298,230,130378,5,0,0:0:0:0:
333,289,130461,1,0,0:0:0:0:
401,306,130544,1,0,0:0:0:0:
461,272,130628,1,0,0:0:0:0:
478,204,130711,1,0,0:0:0:0:
388,220,130878,1,0,0:0:0:0:
364,120,131044,1,0,0:0:0:0:
261,57,131211,5,0,0:0:0:0:
192,75,131294,1,0,0:0:0:0:
157,135,131378,1,0,0:0:0:0:
174,204,131461,1,0,0:0:0:0:
235,238,131544,1,0,0:0:0:0:
263,337,131711,5,0,0:0:0:0:
333,319,131794,1,0,0:0:0:0:
368,258,131878,1,0,0:0:0:0:
350,188,131961,1,0,0:0:0:0:
289,153,132044,1,0,0:0:0:0:
220,160,132128,1,0,0:0:0:0:
176,212,132211,1,0,0:0:0:0:
280,240,132378,5,0,0:0:0:0:
456,124,132544,1,0,0:0:0:0:
248,112,132711,1,0,0:0:0:0:
412,248,132878,1,0,0:0:0:0:
356,44,133044,2,0,L|344:136,1,89.9999952316285
248,112,133211,2,0,L|332:152,1,89.9999952316285
280,240,133378,2,0,L|344:172,1,89.9999952316285
412,248,133544,2,0,L|368:168,1,89.9999952316285
456,124,133711,2,0,L|364:144,1,89.9999952316285
344,288,133878,2,0,L|328:200,1,89.9999952316285
392,76,134044,2,0,L|300:92,1,89.9999952316285
280,240,134211,2,0,L|264:152,1,89.9999952316285
256,56,134378,6,0,L|216:32,3,44.9999976158143
210,64,134544,6,0,L|164:56,3,44.9999976158143
169,87,134711,6,0,L|124:92,3,44.9999976158143
139,123,134878,6,0,L|100:144,3,44.9999976158143
123,168,135044,6,0,L|92:204,3,44.9999976158143
123,215,135211,6,0,L|106:259,3,44.9999976158143
139,260,135378,6,0,L|136:304,3,44.9999976158143
169,296,135544,6,0,L|184:340,3,44.9999976158143
210,319,135711,5,0,0:0:0:0:
40,176,145711,6,0,L|84:176,1,44.9999976158143
104,176,145878,2,0,L|148:176,1,44.9999976158143
160,176,146045,2,0,L|212:176,1,44.9999976158143
228,176,146212,2,0,L|276:176,1,44.9999976158143
328,176,146378,6,0,B|440:176|440:288,1,179.999990463257
224,280,146878,1,0,0:0:0:0:
160,144,147044,2,0,B|48:144|48:32,1,179.999990463257
288,104,147544,1,0,0:0:0:0:
245,275,147711,6,0,B|234:322,1,44.9999976158143
320,272,147878,2,0,B|336:320,1,44.9999976158143
383,233,148044,2,0,B|420:268,1,44.9999976158143
418,167,148211,2,0,B|464:180,1,44.9999976158143
103,117,148544,6,0,P|57:124|24:152,1,89.9999952316285
100,220,148878,1,0,0:0:0:0:
98,322,149044,2,0,P|143:314|176:284,1,89.9999952316285
100,220,149378,1,0,0:0:0:0:
288,128,149544,2,0,P|242:135|209:162,1,89.9999952316285
176,288,149878,1,0,0:0:0:0:
100,220,150044,1,0,0:0:0:0:
272,256,150211,1,0,0:0:0:0:
352,192,150378,2,0,L|392:112,2,89.9999952316285
288,128,150878,2,0,L|300:36,1,89.9999952316285
212,92,151211,2,0,L|188:4,1,89.9999952316285
240,176,151544,1,0,0:0:0:0:
272,256,151711,5,0,0:0:0:0:
272,256,151794,1,0,0:0:0:0:
272,256,151878,1,0,0:0:0:0:
80,252,152044,1,0,0:0:0:0:
240,176,152211,1,0,0:0:0:0:
80,252,152378,1,0,0:0:0:0:
240,336,152544,1,0,0:0:0:0:
80,252,152711,1,0,0:0:0:0:
120,68,152878,1,0,0:0:0:0:
312,76,153044,2,0,P|356:76|436:176,1,179.999990463257
340,168,153544,1,0,0:0:0:0:
340,168,153628,1,0,0:0:0:0:
340,168,153711,2,0,P|340:212|320:252,2,89.9999952316285
256,192,154211,1,0,0:0:0:0:
284,332,154378,6,0,P|244:356|200:356,1,89.9999952316285
256,192,154711,2,0,P|296:168|340:168,1,89.9999952316285
172,72,155044,1,0,0:0:0:0:
256,192,155211,1,0,0:0:0:0:
172,72,155378,1,0,0:0:0:0:
424,152,155544,1,0,0:0:0:0:
424,152,155628,1,0,0:0:0:0:
424,152,155711,2,0,P|428:192|320:252,1,179.999990463257
48,204,156211,6,0,B|94:217,1,44.9999976158143
92,120,156378,2,0,B|129:151,1,44.9999976158143
176,64,156544,2,0,B|192:112,1,44.9999976158143
276,64,156711,2,0,B|267:109,1,44.9999976158143
112,136,157044,5,0,0:0:0:0:
112,136,157127,1,0,0:0:0:0:
112,136,157210,1,0,0:0:0:0:
296,80,157377,1,0,0:0:0:0:
296,80,157544,1,0,0:0:0:0:
292,264,157710,1,0,0:0:0:0:
292,264,157794,1,0,0:0:0:0:
292,264,157877,1,0,0:0:0:0:
128,312,158044,1,0,0:0:0:0:
128,312,158210,2,0,B|112:268|112:268|120:224,1,89.9999952316285
384,72,158544,2,0,B|400:116|400:116|392:160,1,89.9999952316285
56,112,158878,2,0,B|63:69|63:69|48:24,1,89.9999952316285
256,136,159210,2,0,L|256:228,1,89.9999952316285
464,358,159544,2,0,B|448:314|448:314|456:272,1,89.9999952316285
316,84,159877,5,0,0:0:0:0:
292,64,159960,1,0,0:0:0:0:
260,56,160044,1,0,0:0:0:0:
228,60,160127,1,0,0:0:0:0:
204,76,160210,1,0,0:0:0:0:
164,340,160377,2,0,B|208:352|252:344|292:316|300:260,1,179.999990463257
348,44,160877,2,0,B|304:32|260:40|220:68|212:124,1,179.999990463257
388,328,161377,1,0,0:0:0:0:
388,328,161460,1,0,0:0:0:0:
388,328,161544,2,0,L|408:236,1,89.9999952316285
124,56,161878,2,0,L|104:144,1,89.9999952316285
76,264,162210,5,0,0:0:0:0:
348,192,162377,1,0,0:0:0:0:
164,192,162544,1,0,0:0:0:0:
436,264,162710,1,0,0:0:0:0:
76,120,162877,1,0,0:0:0:0:
436,120,163044,1,0,0:0:0:0:
256,340,163378,1,0,0:0:0:0:
164,120,163544,5,0,0:0:0:0:
164,120,163627,1,0,0:0:0:0:
164,120,163711,2,0,P|184:80|216:48,1,89.9999952316285,0|0,0:0|0:0,0:0:0:0:
344,264,164044,2,0,P|324:304|292:336,2,89.9999952316285
164,264,164544,2,0,P|124:244|92:212,1,89.9999952316285
136,364,164878,1,0,0:0:0:0:
336,124,165044,6,0,P|380:118|424:128,1,89.9999952316285
280,284,165378,2,0,P|324:289|368:280,1,89.9999952316285
164,120,165711,2,0,P|208:114|252:124,1,89.9999952316285
108,280,166044,2,0,P|152:285|196:276,1,89.9999952316285
252,124,166377,5,0,0:0:0:0:
280,76,166461,1,0,0:0:0:0:
330,62,166544,1,0,0:0:0:0:
440,91,166710,1,0,0:0:0:0:
368,224,166878,2,0,P|334:247|288:260,1,89.9999952316285
280,348,167210,5,0,0:0:0:0:
108,280,167377,1,0,0:0:0:0:
260,176,167543,1,0,0:0:0:0:
48,188,167710,2,0,P|40:148|48:100,1,89.9999952316285
256,56,168044,1,0,0:0:0:0:
428,128,168211,1,0,0:0:0:0:
444,169,168294,1,0,0:0:0:0:
440,209,168378,1,0,0:0:0:0:
256,192,168544,1,0,0:0:0:0:
188,336,168711,1,0,0:0:0:0:
144,340,168794,1,0,0:0:0:0:
108,324,168878,6,0,L|84:236,1,89.9999952316285
288,200,169211,2,0,L|264:112,1,89.9999952316285
200,264,169544,6,0,L|176:176,1,89.9999952316285
380,140,169878,2,0,L|356:52,1,89.9999952316285
404,256,170212,1,0,0:0:0:0:
288,200,170378,2,0,L|200:160,2,89.9999952316285
404,256,170878,1,0,0:0:0:0:
288,304,171045,2,0,L|200:332,2,89.9999952316285
404,256,171544,1,0,0:0:0:0:
256,100,171711,5,0,0:0:0:0:
80,152,171877,1,0,0:0:0:0:
256,208,172044,1,0,0:0:0:0:
80,264,172211,1,0,0:0:0:0:
256,100,172377,1,0,0:0:0:0:
256,208,172544,1,0,0:0:0:0:
80,152,172711,1,0,0:0:0:0:
80,264,172877,1,0,0:0:0:0:
208,324,173044,6,0,P|252:328|300:324,1,89.9999952316285
424,152,173378,2,0,P|380:148|332:152,1,89.9999952316285
392,324,173711,2,0,P|436:328|484:324,1,89.9999952316285
240,152,174045,2,0,P|196:148|148:152,1,89.9999952316285
436,240,174378,5,0,0:0:0:0:
420,132,174544,1,0,0:0:0:0:
320,88,174711,1,0,0:0:0:0:
240,156,174878,1,0,0:0:0:0:
248,260,175044,2,0,P|204:268|156:268,1,89.9999952316285
348,316,175378,2,0,P|392:308|440:308,1,89.9999952316285
489,206,175711,5,0,0:0:0:0:
498,152,175794,1,0,0:0:0:0:
478,101,175878,1,0,0:0:0:0:
432,71,175961,1,0,0:0:0:0:
378,71,176044,1,0,0:0:0:0:
331,99,176128,1,0,0:0:0:0:
304,145,176211,1,0,0:0:0:0:
306,198,176294,1,0,0:0:0:0:
287,248,176378,1,0,0:0:0:0:
259,294,176461,1,0,0:0:0:0:
220,331,176544,1,0,0:0:0:0:
166,321,176628,1,0,0:0:0:0:
132,278,176711,1,0,0:0:0:0:
79,267,176794,1,0,0:0:0:0:
25,278,176878,1,0,0:0:0:0:
48,232,176961,1,0,0:0:0:0:
40,184,177044,2,0,L|21:143,3,44.9999976158143
256,192,177378,12,0,183544,0:0:0:0:
168,332,183711,6,0,P|136:308|132:248,1,89.9999952316285
380,264,184044,2,0,P|371:311|339:335,1,89.9999952316285
256,240,184378,1,0,0:0:0:0:
256,208,184461,1,0,0:0:0:0:
256,176,184544,1,0,0:0:0:0:
256,144,184628,1,0,0:0:0:0:
256,112,184711,2,0,L|256:68,2,44.9999976158143
55,112,185044,5,0,0:0:0:0:
90,128,185128,1,0,0:0:0:0:
122,151,185211,1,0,0:0:0:0:
148,180,185294,1,0,0:0:0:0:
163,215,185378,1,0,0:0:0:0:
256,112,185544,1,0,0:0:0:0:
256,64,185628,1,0,0:0:0:0:
348,216,185794,1,0,0:0:0:0:
370,171,185877,1,0,0:0:0:0:
408,132,185960,1,0,0:0:0:0:
456,113,186044,1,0,0:0:0:0:
256,172,186211,5,0,0:0:0:0:
256,64,186378,2,0,L|256:16,4,44.9999976158143
70,44,186878,5,0,0:0:0:0:
38,74,186961,1,0,0:0:0:0:
26,116,187044,1,0,0:0:0:0:
41,158,187128,1,0,0:0:0:0:
67,193,187211,1,0,0:0:0:0:
102,220,187294,1,0,0:0:0:0:
146,232,187378,1,0,0:0:0:0:
190,234,187461,1,0,0:0:0:0:
228,254,187544,1,0,0:0:0:0:
252,292,187628,1,0,0:0:0:0:
256,336,187711,2,0,P|296:336|360:272,1,134.999992847443
368,256,188044,2,0,L|448:296,1,89.9999952316285
256,144,188378,2,0,L|176:104,1,89.9999952316285
404,108,188711,2,0,L|484:148,1,89.9999952316285
176,104,189044,5,0,0:0:0:0:
176,104,189128,2,0,L|216:124,1,44.9999976158143
440,188,189378,1,0,0:0:0:0:
392,188,189461,1,0,0:0:0:0:
352,208,189544,1,0,0:0:0:0:
328,248,189628,1,0,0:0:0:0:
328,296,189711,2,0,P|288:312|240:320,1,89.9999952316285
68,340,190044,2,0,P|108:324|154:316,1,89.9999952316285
304,212,190378,2,0,P|264:228|216:236,1,89.9999952316285
16,244,190711,2,0,P|56:228|102:220,1,89.9999952316285
180,128,191044,5,0,0:0:0:0:
180,128,191128,1,0,0:0:0:0:
180,128,191211,1,0,0:0:0:0:
209,89,191295,1,0,0:0:0:0:
251,62,191378,1,0,0:0:0:0:
298,64,191461,1,0,0:0:0:0:
341,79,191545,1,0,0:0:0:0:
376,112,191628,1,0,0:0:0:0:
400,152,191711,2,0,L|416:200|416:200,6,44.9999976158143
328,264,192378,2,0,L|306:310|306:310,6,44.9999976158143
184,268,193044,2,0,L|140:280|140:280,6,44.9999976158143
96,152,193711,2,0,L|52:132|52:132,6,44.9999976158143
216,52,194378,6,0,P|266:63|301:91,1,89.9999952316285
344,120,194628,1,0,0:0:0:0:
336,140,194711,2,0,P|328:188|336:232,1,89.9999952316285
376,260,194961,1,0,0:0:0:0:
400,248,195044,2,0,L|444:272,4,44.9999976158143
64,328,195544,5,0,0:0:0:0:
88,316,195628,5,0,0:0:0:0:
104,292,195711,6,0,P|154:280|189:252,1,89.9999952316285
232,224,195961,1,0,0:0:0:0:
224,204,196044,2,0,P|216:156|224:112,1,89.9999952316285
264,84,196294,1,0,0:0:0:0:
288,96,196377,2,0,L|332:72,4,44.9999976158143
256,352,196878,5,0,0:0:0:0:
256,352,196961,2,0,L|256:308,1,44.9999976158143
108,296,197211,1,0,0:0:0:0:
92,292,197295,1,0,0:0:0:0:
76,288,197378,1,0,0:0:0:0:
404,296,197544,1,0,0:0:0:0:
420,292,197628,1,0,0:0:0:0:
436,288,197711,1,0,0:0:0:0:
132,208,197878,1,0,0:0:0:0:
116,204,197962,1,0,0:0:0:0:
100,200,198045,1,0,0:0:0:0:
380,208,198211,1,0,0:0:0:0:
396,204,198295,1,0,0:0:0:0:
412,200,198378,1,0,0:0:0:0:
160,128,198544,1,0,0:0:0:0:
352,128,198711,1,0,0:0:0:0:
76,88,198878,1,0,0:0:0:0:
436,88,199044,1,0,0:0:0:0:
256,32,199211,1,0,0:0:0:0:
256,352,199378,1,0,0:0:0:0:
256,312,199461,1,0,0:0:0:0:
256,272,199544,1,0,0:0:0:0:
256,232,199628,1,0,0:0:0:0:
256,192,199711,5,0,0:0:0:0:
9,192,200045,5,0,0:0:0:0:
256,126,200211,1,0,0:0:0:0:
502,192,200378,1,0,0:0:0:0:
97,192,200711,5,0,0:0:0:0:
414,192,200878,1,0,0:0:0:0:
256,324,201045,1,0,0:0:0:0:
335,271,201378,5,0,0:0:0:0:
176,271,201711,1,0,0:0:0:0:
176,192,202045,5,0,0:0:0:0:
335,192,202211,1,0,0:0:0:0:
97,192,202378,1,0,0:0:0:0:
414,192,202545,1,0,0:0:0:0:
18,192,202711,1,0,0:0:0:0:
493,192,202878,1,0,0:0:0:0:
97,192,203045,1,0,0:0:0:0:
414,192,203211,1,0,0:0:0:0:
176,192,203378,1,0,0:0:0:0:
335,192,203545,1,0,0:0:0:0:
256,192,203711,1,0,0:0:0:0:
256,324,204378,5,0,0:0:0:0:
256,192,205045,5,0,0:0:0:0:
502,192,205378,5,0,0:0:0:0:
256,258,205545,1,0,0:0:0:0:
9,192,205711,1,0,0:0:0:0:
414,192,206045,5,0,0:0:0:0:
97,192,206211,1,0,0:0:0:0:
256,60,206378,1,0,0:0:0:0:
256,324,207045,5,0,0:0:0:0:
256,324,207711,5,0,0:0:0:0:
32,243,208045,1,0,0:3:0:0:
256,217,208211,1,0,0:0:0:0:
483,245,208378,1,0,0:0:0:0:
256,168,208544,1,0,0:0:0:0:
25,215,208711,1,0,0:3:0:0:
256,122,208878,1,0,0:0:0:0:
498,189,209044,1,0,0:0:0:0:
256,74,209211,1,0,0:0:0:0:
10,158,209378,1,0,0:3:0:0:
256,25,209544,1,0,0:0:0:0:
511,132,209711,1,0,0:0:0:0:
307,130,210045,5,0,0:0:0:0:
283,267,210211,1,0,0:0:0:0:
177,178,210378,1,0,0:0:0:0:
228,349,210711,5,0,0:0:0:0:
406,136,210878,1,0,0:0:0:0:
134,89,211045,1,0,0:0:0:0:
335,205,211378,2,0,B|372:288,1,89.9999952316285
228,116,211711,6,0,B|276:40,1,89.9999952316285
204,252,212044,6,0,B|112:248,1,89.9999952316285
256,192,212378,5,0,0:0:0:0:
256,192,213045,5,0,0:0:0:0:
341,152,213544,5,0,0:0:0:0:
358,211,213711,1,0,0:0:0:0:
333,275,213878,1,0,0:0:0:0:
269,314,214044,1,0,0:0:0:0:
189,307,214211,1,0,0:0:0:0:
123,249,214378,1,0,0:0:0:0:
113,23,214544,1,0,0:0:0:0:
256,192,214711,1,0,0:0:0:0:
34,132,214878,1,0,0:0:0:0:
250,54,215044,1,0,0:0:0:0:
256,192,215378,5,0,0:0:0:0:
322,260,215711,5,0,0:0:0:0:
189,123,215878,1,0,0:0:0:0:
255,287,216044,1,0,0:0:0:0:
256,96,216211,1,0,0:0:0:0:
184,259,216378,1,0,0:0:0:0:
327,124,216544,1,0,0:0:0:0:
157,193,216711,1,0,0:0:0:0:
354,190,216878,1,0,0:0:0:0:
157,90,217044,5,0,0:0:0:0:
355,294,217211,1,0,0:0:0:0:
256,49,217377,1,0,0:0:0:0:
256,335,217544,1,0,0:0:0:0:
364,90,217711,1,0,0:0:0:0:
148,294,217877,1,0,0:0:0:0:
404,190,218044,1,0,0:0:0:0:
108,194,218211,1,0,0:0:0:0:
388,328,218378,5,0,0:0:0:0:
123,55,218545,1,0,0:0:0:0:
255,382,218711,1,0,0:0:0:0:
256,1,218878,1,0,0:0:0:0:
112,327,219045,1,0,0:0:0:0:
399,56,219211,1,0,0:0:0:0:
58,194,219378,1,0,0:0:0:0:
453,189,219545,1,0,0:0:0:0:
238,173,219711,5,0,0:0:0:0:
273,210,219794,1,0,0:0:0:0:
256,166,219878,1,0,0:0:0:0:
256,217,219961,1,0,0:0:0:0:
275,173,220044,1,0,0:0:0:0:
236,210,220128,1,0,0:0:0:0:
282,191,220211,1,0,0:0:0:0:
229,192,220294,1,0,0:0:0:0:
274,211,220378,5,0,0:0:0:0:
239,174,220461,1,0,0:0:0:0:
256,218,220545,1,0,0:0:0:0:
256,167,220628,1,0,0:0:0:0:
237,211,220711,1,0,0:0:0:0:
276,174,220795,1,0,0:0:0:0:
230,193,220878,1,0,0:0:0:0:
283,192,220961,1,0,0:0:0:0:
256,192,221044,5,0,0:0:0:0:
108,104,233044,6,0,P|71:122|35:158,1,89.9999952316285
116,304,233378,2,0,P|156:284|188:248,1,89.9999952316285
48,196,233711,1,0,0:0:0:0:
64,80,233878,1,0,0:0:0:0:
144,12,234044,1,0,0:0:0:0:
260,12,234211,1,0,0:0:0:0:
316,112,234378,5,0,0:0:0:0:
358,126,234461,1,0,0:0:0:0:
396,149,234544,1,0,0:0:0:0:
424,184,234628,1,0,0:0:0:0:
437,226,234711,1,0,0:0:0:0:
435,270,234794,1,0,0:0:0:0:
449,313,234878,1,0,0:0:0:0:
473,350,234961,1,0,0:0:0:0:
428,346,235044,5,0,0:0:0:0:
385,330,235128,1,0,0:0:0:0:
350,301,235211,1,0,0:0:0:0:
317,270,235294,1,0,0:0:0:0:
273,256,235378,1,0,0:0:0:0:
229,266,235461,1,0,0:0:0:0:
194,294,235544,1,0,0:0:0:0:
159,322,235628,1,0,0:0:0:0:
116,336,235711,5,0,0:0:0:0:
71,333,235794,1,0,0:0:0:0:
32,309,235878,1,0,0:0:0:0:
14,267,235961,1,0,0:0:0:0:
37,228,236044,1,0,0:0:0:0:
75,204,236128,1,0,0:0:0:0:
119,209,236211,1,0,0:0:0:0:
160,225,236294,1,0,0:0:0:0:
204,231,236378,5,0,0:0:0:0:
248,224,236461,1,0,0:0:0:0:
279,192,236544,1,0,0:0:0:0:
290,147,236628,1,0,0:0:0:0:
312,108,236711,1,0,0:0:0:0:
351,86,236794,1,0,0:0:0:0:
396,82,236878,1,0,0:0:0:0:
436,101,236961,1,0,0:0:0:0:
459,139,237044,5,0,0:0:0:0:
457,184,237128,1,0,0:0:0:0:
430,220,237211,1,0,0:0:0:0:
386,228,237294,1,0,0:0:0:0:
342,214,237378,1,0,0:0:0:0:
312,179,237461,1,0,0:0:0:0:
296,132,237544,1,0,0:0:0:0:
278,90,237628,1,0,0:0:0:0:
244,60,237711,5,0,0:0:0:0:
201,44,237794,1,0,0:0:0:0:
155,48,237878,1,0,0:0:0:0:
112,62,237961,1,0,0:0:0:0:
67,68,238044,1,0,0:0:0:0:
65,113,238128,1,0,0:0:0:0:
51,155,238211,1,0,0:0:0:0:
52,200,238294,2,0,P|92:237|144:252,1,107.999990982056
260,196,238544,5,0,0:0:0:0:
384,320,238711,1,0,0:0:0:0:
416,172,238878,1,0,0:0:0:0:
240,332,239044,1,0,0:0:0:0:
16,336,239211,5,0,0:0:0:0:
160,216,239378,1,0,0:0:0:0:
352,168,239544,1,0,0:0:0:0:
496,48,239711,5,0,0:0:0:0:
256,344,239878,1,0,0:0:0:0:
16,48,240044,1,0,0:0:0:0:
16,248,240378,1,0,0:0:0:0:
256,144,240544,1,0,0:0:0:0:
496,248,240711,1,0,0:0:0:0:
496,144,241044,1,0,0:0:0:0:
256,248,241211,1,0,0:0:0:0:
16,144,241378,1,0,0:0:0:0:
16,344,241711,1,0,0:0:0:0:
256,48,241878,1,0,0:0:0:0:
496,344,242044,1,0,0:0:0:0:
117,112,242378,5,0,0:0:0:0:
256,192,242461,1,0,0:0:0:0:
394,272,242544,1,0,0:0:0:0:
117,112,242711,1,0,0:0:0:0:
256,32,243044,1,0,0:0:0:0:
256,352,243211,1,0,0:0:0:0:
256,120,243378,1,0,0:0:0:0:
394,111,243711,1,0,0:0:0:0:
318,156,243794,1,0,0:0:0:0:
117,272,243961,1,0,0:0:0:0:
193,228,244044,1,0,0:0:0:0:
288,244,244378,5,0,0:0:0:0:
176,96,244544,1,0,0:0:0:0:
216,120,244711,2,0,B|308:176,2,107.999990982056,0|0|4,0:0|0:0|0:0,0:0:0:0:
176,96,245128,5,0,0:0:0:0:
131,92,245211,1,0,0:0:0:0:
88,106,245294,1,0,0:0:0:0:
57,139,245378,1,0,0:0:0:0:
53,183,245461,1,0,0:0:0:0:
69,224,245544,1,0,0:0:0:0:
66,269,245628,1,0,0:0:0:0:
53,312,245711,1,0,0:0:0:0:
97,306,245794,5,0,0:0:0:0:
140,293,245878,1,0,0:0:0:0:
176,267,245961,1,0,0:0:0:0:
196,227,246044,1,0,0:0:0:0:
192,181,246128,1,0,0:0:0:0:
220,146,246211,1,0,0:0:0:0:
264,138,246294,1,0,0:0:0:0:
305,155,246378,1,0,0:0:0:0:
325,195,246461,5,0,0:0:0:0:
315,238,246544,1,0,0:0:0:0:
300,280,246628,1,0,0:0:0:0:
311,323,246711,1,0,0:0:0:0:
345,351,246794,1,0,0:0:0:0:
389,357,246878,1,0,0:0:0:0:
431,341,246961,1,0,0:0:0:0:
461,307,247044,1,0,0:0:0:0:
473,263,247128,5,0,0:0:0:0:
454,222,247211,1,0,0:0:0:0:
431,183,247294,1,0,0:0:0:0:
442,138,247378,1,0,0:0:0:0:
462,97,247461,1,0,0:0:0:0:
448,54,247544,1,0,0:0:0:0:
410,29,247628,1,0,0:0:0:0:
365,33,247711,1,0,0:0:0:0:
320,24,247794,5,0,0:0:0:0:
279,44,247878,1,0,0:0:0:0:
258,83,247961,1,0,0:0:0:0:
275,124,248044,1,0,0:0:0:0:
282,168,248128,1,0,0:0:0:0:
265,209,248211,1,0,0:0:0:0:
233,240,248293,2,0,B|180:232|180:232,21,53.999995491028
204,296,250378,6,0,B|176:384,1,89.9999952316285
305,84,250544,2,0,B|336:0,1,89.9999952316285
144,232,250711,2,0,B|64:272,1,89.9999952316285
366,150,250878,2,0,B|448:112,1,89.9999952316285
148,142,251044,2,0,B|64:112,1,89.9999952316285
363,241,251211,2,0,B|448:272,1,89.9999952316285
214,81,251378,2,0,B|176:0,1,89.9999952316285
296,302,251544,2,0,B|336:384,1,89.9999952316285
336,0,251711,6,0,B|304:88,1,89.9999952316285
449,113,251878,2,0,B|364:152,1,89.9999952316285
448,272,252044,2,0,B|360:240,1,89.9999952316285
336,384,252211,2,0,B|296:300,1,89.9999952316285
176,384,252378,2,0,B|208:300,1,89.9999952316285
64,272,252544,2,0,B|148:232,1,89.9999952316285
64,112,252711,2,0,B|152:144,1,89.9999952316285
177,0,252877,2,0,B|216:84,1,89.9999952316285
436,320,253044,5,0,0:0:0:0:
196,64,253211,1,0,0:0:0:0:
316,320,253378,1,0,0:0:0:0:
80,64,253544,1,0,0:0:0:0:
80,320,253711,5,0,0:0:0:0:
316,64,253878,1,0,0:0:0:0:
196,320,254044,1,0,0:0:0:0:
436,64,254211,1,0,0:0:0:0:
136,328,254378,5,0,0:0:0:0:
160,272,254461,1,0,0:0:0:0:
199,221,254544,1,0,0:0:0:0:
164,173,254628,1,0,0:0:0:0:
164,114,254711,1,0,0:0:0:0:
199,66,254794,1,0,0:0:0:0:
256,48,254878,1,0,0:0:0:0:
312,66,254961,1,0,0:0:0:0:
347,114,255044,1,0,0:0:0:0:
347,173,255128,1,0,0:0:0:0:
312,221,255211,1,0,0:0:0:0:
352,272,255294,1,0,0:0:0:0:
376,328,255378,1,0,0:0:0:0:
448,136,255712,5,0,0:0:0:0:
416,80,255795,1,0,0:0:0:0:
352,64,255878,1,0,0:0:0:0:
296,88,255962,1,0,0:0:0:0:
272,144,256045,1,0,0:0:0:0:
312,192,256128,1,0,0:0:0:0:
368,216,256212,1,0,0:0:0:0:
416,256,256295,1,0,0:0:0:0:
424,320,256378,1,0,0:0:0:0:
368,352,256462,1,0,0:0:0:0:
304,352,256545,1,0,0:0:0:0:
256,312,256628,1,0,0:0:0:0:
256,248,256712,1,0,0:0:0:0:
224,192,256795,1,0,0:0:0:0:
160,184,256878,1,0,0:0:0:0:
112,224,256961,1,0,0:0:0:0:
96,288,257044,6,0,B|40:316,2,62.9999947395327
92,124,257378,6,0,B|44:84,2,62.9999947395327,0|0|0,0:0|0:0|0:0,0:0:0:0:
268,76,257711,6,0,B|272:12,2,62.9999947395327,0|0|0,0:0|0:0|0:0,0:0:0:0:
408,196,258044,2,0,B|480:168,2,62.9999947395327
400,328,258378,5,0,0:0:0:0:
336,336,258461,1,0,0:0:0:0:
272,320,258544,1,0,0:0:0:0:
232,272,258628,1,0,0:0:0:0:
232,208,258711,1,0,0:0:0:0:
272,160,258794,1,0,0:0:0:0:
280,96,258878,1,0,0:0:0:0:
240,48,258961,1,0,0:0:0:0:
176,32,259044,1,0,0:0:0:0:
112,48,259128,1,0,0:0:0:0:
80,104,259211,1,0,0:0:0:0:
80,168,259294,1,0,0:0:0:0:
24,200,259378,1,0,0:0:0:0:
0,256,259461,1,0,0:0:0:0:
24,312,259544,1,0,0:0:0:0:
80,344,259628,1,0,0:0:0:0:
144,352,259711,5,0,0:0:0:0:
200,328,259794,1,0,0:0:0:0:
232,272,259878,1,0,0:0:0:0:
232,208,259961,1,0,0:0:0:0:
272,160,260044,1,0,0:0:0:0:
336,152,260128,1,0,0:0:0:0:
388,180,260211,2,0,L|464:288,1,125.999989479065
264,336,260544,5,0,0:0:0:0:
112,296,260711,1,0,0:0:0:0:
32,160,260877,1,0,0:0:0:0:
132,40,261044,6,0,B|132:88|140:144,1,94.499992109299
148,192,261294,5,0,0:0:0:0:
188,240,261378,6,0,B|232:258|286:273,1,94.499992109299
332,280,261628,5,0,0:0:0:0:
392,272,261711,6,0,B|436:246|479:210,1,94.499992109299
508,168,261961,5,0,0:0:0:0:
500,104,262044,6,0,B|487:56|467:4,2,94.499992109299
508,168,262461,1,0,0:0:0:0:
500,232,262544,1,0,0:0:0:0:
484,296,262628,1,0,0:0:0:0:
444,348,262711,1,0,0:0:0:0:
384,376,262794,1,0,0:0:0:0:
320,384,262878,1,0,0:0:0:0:
256,368,262961,1,0,0:0:0:0:
199,332,263044,5,0,0:0:0:0:
161,184,263211,1,0,0:0:0:0:
278,282,263378,1,0,0:0:0:0:
126,271,263544,1,0,0:0:0:0:
256,192,263711,5,0,0:0:0:0:
403,121,263878,5,0,0:0:0:0:
440,152,263962,1,0,0:0:0:0:
464,194,264045,1,0,0:0:0:0:
347,159,264212,5,0,0:0:0:0:
356,171,264295,1,0,0:0:0:0:
363,187,264378,1,0,0:0:0:0:
280,296,264544,5,0,0:0:0:0:
208,256,264628,1,0,0:0:0:0:
158,193,264711,1,0,0:0:0:0:
91,320,264878,5,0,0:0:0:0:
24,192,264961,1,0,0:0:0:0:
91,64,265044,1,0,0:0:0:0:
392,256,265211,5,0,0:0:0:0:
120,232,265378,5,0,0:0:0:0:
360,96,265544,5,0,0:0:0:0:
256,192,265878,2,0,B|296:104,2,89.9999952316285
80,160,266378,5,0,0:0:0:0:
104,192,266461,1,0,0:0:0:0:
136,320,266712,1,0,0:0:0:0:
160,296,266795,1,0,0:0:0:0:
192,288,266878,1,0,0:0:0:0:
384,176,267044,1,0,0:0:0:0:
344,176,267128,1,0,0:0:0:0:
304,0,267378,1,0,0:0:0:0:
296,32,267462,1,0,0:0:0:0:
280,64,267544,1,0,0:0:0:0:
256,96,267628,1,0,0:0:0:0:
232,120,267711,2,0,B|200:152,2,44.9999976158143
336,176,268044,2,0,B|360:216,2,44.9999976158143
192,216,268378,2,0,B|160:256,2,44.9999976158143
296,264,268711,2,0,B|320:304,2,44.9999976158143
474,191,269044,5,0,0:0:0:0:
435,140,269128,1,0,0:0:0:0:
375,119,269211,1,0,0:0:0:0:
312,114,269294,1,0,0:0:0:0:
253,137,269378,1,0,0:0:0:0:
201,173,269461,1,0,0:0:0:0:
144,200,269544,1,0,0:0:0:0:
81,208,269628,1,0,0:0:0:0:
21,186,269711,1,0,0:0:0:0:
6,125,269794,1,0,0:0:0:0:
55,85,269878,1,0,0:0:0:0:
117,92,269961,1,0,0:0:0:0:
156,140,270044,1,0,0:0:0:0:
182,197,270128,1,0,0:0:0:0:
216,249,270211,1,0,0:0:0:0:
277,263,270294,1,0,0:0:0:0:
340,266,270378,2,0,B|404:280|464:236|464:236,1,125.999989479065
495,82,270878,1,0,0:0:0:0:
136,80,271211,5,0,0:0:0:0:
256,128,271378,1,0,0:0:0:0:
376,80,271544,1,0,0:0:0:0:
496,40,271711,5,0,0:0:0:0:
16,144,271878,1,0,0:0:0:0:
496,248,272044,1,0,0:0:0:0:
16,344,272211,1,0,0:0:0:0:
496,344,272378,1,0,0:0:0:0:
16,248,272544,1,0,0:0:0:0:
496,144,272711,1,0,0:0:0:0:
16,40,272878,1,0,0:0:0:0:
496,40,273044,1,0,0:0:0:0:
16,144,273211,1,0,0:0:0:0:
496,248,273378,1,0,0:0:0:0:
16,344,273544,1,0,0:0:0:0:
496,344,273711,1,0,0:0:0:0:
16,248,273878,1,0,0:0:0:0:
496,144,274044,1,0,0:0:0:0:
16,40,274211,1,0,0:0:0:0:
55,216,274378,5,0,0:0:0:0:
55,216,274461,1,0,0:0:0:0:
55,216,274544,1,0,0:0:0:0:
356,179,274711,1,0,0:0:0:0:
216,285,275044,1,0,0:0:0:0:
216,285,275211,1,0,0:0:0:0:
335,5,275378,1,0,0:0:0:0:
194,110,275711,1,0,0:0:0:0:
194,110,275794,1,0,0:0:0:0:
194,110,275878,1,0,0:0:0:0:
377,353,276044,1,0,0:0:0:0:
424,104,276378,6,0,B|379:90|324:116|324:116,1,94.499992109299
320,128,276711,2,0,B|275:142|220:116|220:116,1,94.499992109299
208,104,277044,1,0,0:0:0:0:
80,272,277378,6,0,B|125:286|180:260|180:260,1,94.499992109299
184,248,277711,2,0,B|229:234|285:258|285:258,1,94.499992109299
296,272,278044,1,0,0:0:0:0:
400,328,278211,1,0,0:0:0:0:
477,228,278378,5,0,0:0:0:0:
436,169,278461,1,0,0:0:0:0:
380,123,278544,1,0,0:0:0:0:
310,103,278628,1,0,0:0:0:0:
238,110,278711,1,0,0:0:0:0:
178,150,278794,1,0,0:0:0:0:
140,211,278878,1,0,0:0:0:0:
141,282,278961,1,0,0:0:0:0:
212,272,279044,5,0,0:0:0:0:
267,225,279128,1,0,0:0:0:0:
289,156,279211,1,0,0:0:0:0:
263,88,279294,1,0,0:0:0:0:
204,44,279378,1,0,0:0:0:0:
132,36,279461,1,0,0:0:0:0:
65,62,279544,1,0,0:0:0:0:
25,123,279628,1,0,0:0:0:0:
93,144,279711,5,0,0:0:0:0:
151,185,279794,1,0,0:0:0:0:
178,252,279878,1,0,0:0:0:0:
158,320,279961,1,0,0:0:0:0:
178,252,280044,1,0,0:0:0:0:
239,213,280128,1,0,0:0:0:0:
310,211,280211,1,0,0:0:0:0:
375,241,280294,1,0,0:0:0:0:
412,302,280378,5,0,0:0:0:0:
456,245,280461,1,0,0:0:0:0:
457,173,280544,1,0,0:0:0:0:
425,107,280628,1,0,0:0:0:0:
369,61,280711,1,0,0:0:0:0:
299,40,280794,1,0,0:0:0:0:
229,60,280878,1,0,0:0:0:0:
177,109,280961,1,0,0:0:0:0:
247,119,281044,5,0,0:0:0:0:
181,86,281128,1,0,0:0:0:0:
109,81,281211,1,0,0:0:0:0:
42,108,281294,1,0,0:0:0:0:
1,167,281378,1,0,0:0:0:0:
0,238,281461,1,0,0:0:0:0:
23,305,281544,1,0,0:0:0:0:
77,352,281628,1,0,0:0:0:0:
91,281,281711,5,0,0:0:0:0:
135,224,281794,1,0,0:0:0:0:
204,204,281878,1,0,0:0:0:0:
275,207,281961,1,0,0:0:0:0:
345,196,282044,1,0,0:0:0:0:
409,161,282128,1,0,0:0:0:0:
455,106,282211,1,0,0:0:0:0:
430,38,282294,1,0,0:0:0:0:
360,72,282378,6,0,B|268:72,1,89.9999952316285
180,160,282544,2,0,B|272:160,1,89.9999952316285
192,248,282711,2,0,B|96:248,1,89.9999952316285
16,336,282878,2,0,B|108:336,1,89.9999952316285
176,336,283044,6,0,B|268:336,1,89.9999952316285
336,336,283210,2,0,B|432:336,1,89.9999952316285
496,336,283378,2,0,B|496:240,1,89.9999952316285
496,176,283544,2,0,B|496:80,1,89.9999952316285
408,24,283711,6,0,B|308:24,1,89.9999952316285
88,40,283878,2,0,B|88:136,1,89.9999952316285
104,360,284044,2,0,B|208:360|208:360,1,89.9999952316285
424,344,284211,2,0,B|424:248,1,89.9999952316285
256,24,284378,6,0,L|192:88,1,89.9999952316285
256,360,284544,2,0,L|320:296,1,89.9999952316285
88,192,284711,2,0,L|152:256,1,89.9999952316285
424,192,284878,2,0,L|360:128,1,89.9999952316285
204,296,285044,6,0,B|176:384,1,89.9999952316285
304,84,285211,2,0,B|336:0,1,89.9999952316285
144,232,285377,2,0,B|63:271,1,89.9999952316285
448,112,285544,2,0,B|364:148,1,89.9999952316285
64,112,285711,2,0,B|152:152,1,89.9999952316285
360,240,285878,2,0,B|448:272,1,89.9999952316285
176,0,286044,2,0,B|212:84,1,89.9999952316285
335,384,286211,2,0,B|300:300,1,89.9999952316285
216,216,286378,6,0,B|292:168,15,89.9999952316285
256,192,287711,12,0,293044,0:0:0:0:
