osu file format v14

[General]
AudioFilename: Hatsune Miku no gekishou.mp3
AudioLeadIn: 1000
PreviewTime: 101526
Countdown: 0
SampleSet: None
StackLeniency: 0.4
Mode: 0
LetterboxInBreaks: 1
EpilepsyWarning: 1
WidescreenStoryboard: 1
SamplesMatchPlaybackRate: 1

[Editor]
DistanceSpacing: 0.85
BeatDivisor: 2
GridSize: 4
TimelineZoom: 2.299999

[Metadata]
Title:Hatsune Miku no Gekishou
TitleUnicode:初音ミクの激唱
Artist:cosMo@BousouP feat.Hatsune Miku
ArtistUnicode:cosMo@暴走P feat.初音ミク
Creator:Bara-
Version:Easy
Source:
Tags:vocaloid 暴走P
BeatmapID:903719
BeatmapSetID:365172

[Difficulty]
HPDrainRate:2
CircleSize:3
OverallDifficulty:3
ApproachRate:4
SliderMultiplier:0.8
SliderTickRate:1

[Events]
//Background and Video events
0,0,"Background.jpg",0,0
//Break Periods
2,22376,26856
2,64376,72456
//Storyboard Layer 0 (Background)
//Storyboard Layer 1 (Fail)
//Storyboard Layer 2 (Pass)
//Storyboard Layer 3 (Foreground)
//Storyboard Sound Samples

[TimingPoints]
2976,300,4,3,2,30,1,0
12576,-111.111111111111,4,2,2,30,0,0
35376,-111.111111111111,4,2,2,40,0,0
37776,-100,4,2,2,50,0,0
47376,-125,4,2,1,20,0,0
54576,-111.111111111111,4,2,1,30,0,0
64176,-125,4,2,1,20,0,0
73776,-111.111111111111,4,2,2,40,0,0
83376,-90.9090909090909,4,1,2,40,0,1
88176,300,7,2,2,40,1,0
92376,300,3,1,2,40,1,1
92376,-90.9090909090909,4,1,2,40,0,1
96876,300,4,1,2,40,1,0
101676,-100,4,1,2,20,0,0
102276,-90.9090909090909,4,1,2,30,0,0
102876,-90.9090909090909,4,1,2,60,0,1
105201,-90.9090909090909,4,1,2,60,0,0
105276,-90.9090909090909,4,1,2,60,0,1
106401,-90.9090909090909,4,1,2,60,0,0
106476,-90.9090909090909,4,1,2,60,0,1
106701,-90.9090909090909,4,1,2,60,0,0
106776,-90.9090909090909,4,1,2,60,0,1
107001,-90.9090909090909,4,1,2,60,0,0
107076,-90.9090909090909,4,1,2,60,0,1
107301,-90.9090909090909,4,1,2,60,0,0
107376,-90.9090909090909,4,1,2,60,0,1
107601,-90.9090909090909,4,1,2,60,0,0
107676,-90.9090909090909,4,1,2,60,0,1
110001,-90.9090909090909,4,1,2,30,0,0
110076,-90.9090909090909,4,1,2,30,0,0
112401,-90.9090909090909,4,1,2,30,0,0
112476,-83.3333333333333,4,1,2,60,0,1
114801,-83.3333333333333,4,1,2,60,0,0
114876,-83.3333333333333,4,1,2,60,0,1
116001,-83.3333333333333,4,1,2,60,0,0
116076,-83.3333333333333,4,1,2,60,0,1
116301,-83.3333333333333,4,1,2,60,0,0
116376,-83.3333333333333,4,1,2,60,0,1
116601,-83.3333333333333,4,1,2,60,0,0
116676,-83.3333333333333,4,1,2,60,0,1
116901,-83.3333333333333,4,1,2,60,0,0
116976,-83.3333333333333,4,1,2,60,0,1
117201,-83.3333333333333,4,1,2,60,0,0
117276,-83.3333333333333,4,1,2,60,0,1
119601,-83.3333333333333,4,1,2,40,0,0
119676,-83.3333333333333,4,1,2,40,0,0
122038,-83.3333333333333,4,1,2,40,0,0
122076,-100,4,1,2,90,0,1
122113,-100,4,2,2,40,0,0
129276,-100,4,3,2,40,0,0
131076,-100,4,1,2,40,0,0
131676,-76.9230769230769,4,1,2,50,0,1
134001,-76.9230769230769,4,1,2,50,0,0
134076,-76.9230769230769,4,1,2,50,0,1
136401,-76.9230769230769,4,1,2,50,0,0
136476,-76.9230769230769,4,1,2,60,0,1
137601,-76.9230769230769,4,1,2,60,0,0
137676,-76.9230769230769,4,1,2,60,0,1
138801,-76.9230769230769,4,1,2,60,0,0
138876,-76.9230769230769,4,1,2,70,0,1
139401,-76.9230769230769,4,1,2,70,0,0
139476,-76.9230769230769,4,1,2,70,0,1
140001,-76.9230769230769,4,1,2,70,0,0
140076,-76.9230769230769,4,1,2,70,0,1
140601,-76.9230769230769,4,1,2,70,0,0
140676,-76.9230769230769,4,1,2,70,0,1
141201,-76.9230769230769,4,1,2,70,0,0
141276,-76.9230769230769,4,1,2,80,0,1
141501,-76.9230769230769,4,1,2,80,0,0
141576,-76.9230769230769,4,1,2,80,0,1
141801,-76.9230769230769,4,1,2,80,0,0
141876,-76.9230769230769,4,1,2,80,0,1
142101,-76.9230769230769,4,1,2,80,0,0
142176,-76.9230769230769,4,1,2,80,0,1
142401,-76.9230769230769,4,1,2,80,0,0
142476,-76.9230769230769,4,1,2,80,0,1
142701,-76.9230769230769,4,1,2,80,0,0
142776,-76.9230769230769,4,1,2,80,0,1
143001,-76.9230769230769,4,1,2,80,0,0
143076,-76.9230769230769,4,1,2,80,0,1
143301,-76.9230769230769,4,1,2,80,0,0
143376,-76.9230769230769,4,1,2,80,0,1
143601,-76.9230769230769,4,1,2,80,0,0
143676,-76.9230769230769,4,1,2,80,0,1
143751,-76.9230769230769,4,1,2,5,0,0

[Colours]
Combo1 : 0,255,0
Combo2 : 192,192,192
Combo3 : 128,128,128
Combo4 : 165,207,207
Combo5 : 139,241,183
Combo6 : 0,255,255
Combo7 : 152,201,129
Combo8 : 0,0,255

[HitObjects]
94,210,2976,6,0,P|123:225|180:217,1,80,6|0,0:1|0:0,0:0:0:0:
250,202,3576,2,0,P|289:197|325:214,1,80,4|0,0:0|0:0,0:0:0:0:
272,279,4176,2,0,L|308:112,1,160,4|4,0:0|0:0,0:0:0:0:
257,53,5076,1,0,0:0:0:0:
177,24,5376,6,0,P|170:62|190:104,1,80,4|0,0:2|0:0,0:0:0:0:
134,166,5976,2,0,P|149:202|142:241,1,80,4|0,0:0|0:0,0:0:0:0:
64,211,6576,2,0,P|59:257|144:325,1,160,4|4,0:0|0:0,0:0:0:0:
221,335,7476,1,0,0:0:0:0:
303,325,7776,6,0,P|370:287|377:210,1,160,4|4,0:2|0:0,0:0:0:0:
298,239,8676,1,0,0:0:0:0:
214,249,8976,2,0,P|165:249|130:236,1,80,4|0,0:2|0:0,0:0:0:0:
95,165,9576,2,0,P|56:153|17:155,1,80,4|0,0:0|0:0,0:0:0:0:
45,234,10176,6,0,L|68:62,1,160,4|4,0:2|0:0,0:0:0:0:
142,39,11076,1,0,0:0:0:0:
217,75,11376,2,0,L|238:233,1,160,8|0,0:2|0:0,0:0:0:0:
387,305,12576,6,0,P|431:264|428:161,1,143.999995605469,12|0,1:1|0:0,0:0:0:0:
316,72,13776,2,0,P|272:113|275:216,1,143.999995605469,2|0,0:0|0:0,0:0:0:0:
331,240,14676,1,0,0:0:0:0:
357,161,14976,6,0,L|153:77,1,215.999993408203,2|0,0:0|0:0,0:0:0:0:
81,44,16176,2,0,P|68:83|83:117,1,71.9999978027344,2|0,0:0|0:0,0:0:0:0:
123,180,16776,2,0,P|132:213|119:246,1,71.9999978027344,2|2,0:0|0:0,0:0:0:0:
45,210,17376,6,0,P|37:264|169:315,1,215.999993408203,6|0,1:2|0:0,0:0:0:0:
211,253,18576,2,0,P|311:263|327:362,1,215.999993408203,2|0,0:0|0:0,0:0:0:0:
253,327,19776,6,0,L|444:176,1,215.999993408203,2|0,0:0|0:0,0:0:0:0:
488,242,20976,2,0,P|503:175|460:120,2,143.999995605469,2|0|4,0:0|0:0|1:2,0:0:0:0:
386,295,28176,6,0,P|326:308|243:285,1,143.999995605469,12|0,0:1|0:0,0:0:0:0:
205,127,29376,2,0,P|265:114|348:137,1,143.999995605469,0|0,0:0|0:0,0:0:0:0:
388,204,30276,1,8,0:0:0:0:
413,282,30576,6,0,P|457:253|461:162,2,143.999995605469,4|0|0,0:0|0:0|0:0,0:0:0:0:
248,265,32376,2,0,L|158:263,1,71.9999978027344,0|0,0:0|0:0,0:0:0:0:
125,328,32976,6,0,P|94:274|137:191,1,143.999995605469,4|0,0:0|0:0,0:0:0:0:
164,131,33876,1,0,0:0:0:0:
216,65,34176,2,0,P|247:127|219:191,1,143.999995605469,0|0,0:0|0:0,0:0:0:0:
139,209,35076,1,8,0:0:0:0:
164,131,35376,6,0,L|333:131,1,143.999995605469,4|4,0:0|0:0,0:0:0:0:
408,262,36576,2,0,L|239:262,1,143.999995605469,4|4,0:0|0:0,0:0:0:0:
188,295,37476,1,0,0:0:0:0:
122,347,37776,6,0,P|105:308|120:248,1,80,4|8,1:0|0:0,0:0:0:0:
139,193,38376,2,0,P|141:153|125:117,1,80,0|8,0:0|0:0,0:0:0:0:
48,81,38976,2,0,P|97:104|194:69,1,160,0|0,0:0|0:0,0:0:0:0:
256,16,39876,1,8,0:0:0:0:
319,71,40176,6,0,P|389:105|464:81,1,160,12|0,0:0|0:0,0:0:0:0:
464,249,41376,2,0,P|389:224|319:258,1,160,0|8,0:0|0:0,0:0:0:0:
256,314,42276,1,8,0:0:0:0:
192,258,42576,6,0,P|122:224|48:249,1,160,4|0,0:0|0:0,0:0:0:0:
32,331,43476,1,0,0:0:0:0:
116,326,43776,2,0,L|123:133,1,160,4|0,0:0|0:0,0:0:0:0:
177,103,44676,1,8,0:0:0:0:
256,76,44976,6,0,P|325:60|410:92,1,160,4|4,0:0|0:0,0:0:0:0:
407,257,46176,2,0,P|333:285|256:270,1,160,4|4,0:0|0:0,0:0:0:0:
198,208,47076,1,0,0:0:0:0:
113,196,47376,6,0,P|123:155|201:121,1,128,6|0,0:0|0:0,0:0:0:0:
281,120,48276,2,0,P|340:101|363:44,2,128,2|2|2,0:0|0:0|0:0,0:0:0:0:
205,76,49776,2,0,L|111:71,1,64,2|0,0:0|0:0,0:0:0:0:
105,151,50376,2,0,L|11:156,1,64,2|0,0:0|0:0,0:0:0:0:
75,233,50976,2,0,P|122:238|185:171,1,128,2|0,0:0|0:0,0:0:0:0:
216,109,51876,6,0,P|259:64|321:64,1,128,2|0,0:0|0:0,0:0:0:0:
398,104,52776,2,0,P|354:148|292:148,1,128,2|0,0:0|0:0,0:0:0:0:
216,109,53676,1,2,0:0:0:0:
216,109,54576,6,0,L|197:251,1,143.999995605469,6|2,0:0|0:0,0:0:0:0:
115,267,55476,2,0,P|145:318|243:318,1,143.999995605469,8|0,0:0|0:0,0:0:0:0:
287,275,56376,2,0,P|356:279|395:336,1,143.999995605469,2|6,0:0|0:0,0:0:0:0:
314,353,57276,2,0,L|393:207,1,143.999995605469,8|8,0:0|0:0,0:0:0:0:
345,151,58176,6,0,P|384:143|422:148,2,71.9999978027344,6|8|2,0:0|0:0|0:0,0:0:0:0:
269,185,59076,2,0,P|230:193|192:188,2,71.9999978027344,8|12|0,0:0|0:0|0:0,0:0:0:0:
227,113,59976,2,0,P|148:124|140:253,1,215.999993408203,2|10,0:0|0:0,0:0:0:0:
204,279,61176,2,0,P|168:316|66:300,1,143.999995605469,6|12,0:0|0:0,0:0:0:0:
256,192,62076,12,14,64176,0:0:0:0:
150,71,73776,6,0,B|129:140|129:140|129:216,1,143.999995605469,4|0,0:1|0:0,0:0:0:0:
283,271,74976,2,0,B|304:202|304:202|304:126,1,143.999995605469,0|0,0:0|0:0,0:0:0:0:
189,249,76176,2,0,P|236:353|379:272,2,287.999991210938,4|0|12,1:0|0:0|1:0,0:0:0:0:
170,84,79176,5,8,0:0:0:0:
333,111,79776,2,0,P|409:115|492:115,1,143.999995605469,12|8,0:0|0:0,0:0:0:0:
445,277,80976,6,0,P|401:286|357:278,1,71.9999978027344,12|8,0:0|0:0,0:0:0:0:
301,243,81576,2,0,P|265:240|230:249,1,71.9999978027344,12|8,0:0|0:0,0:0:0:0:
176,312,82176,6,0,P|194:254|75:176,1,215.999993408203,12|0,0:0|0:0,0:0:0:0:
107,258,83376,6,0,L|279:148,1,176.000005371094,4|0,0:0|0:0,0:0:0:0:
424,212,84576,2,0,L|252:322,1,176.000005371094,4|0,1:2|0:0,0:0:0:0:
187,307,85476,1,8,0:0:0:0:
112,353,85776,6,0,P|99:306|181:219,1,176.000005371094,4|4,0:2|0:2,0:0:0:0:
342,160,86976,2,0,P|410:110|406:26,1,176.000005371094,4|4,0:2|0:2,0:0:0:0:
331,73,87876,1,8,0:0:0:0:
263,124,88176,6,0,P|258:175|339:244,1,160,4|0,0:1|0:0,0:0:0:0:
475,145,89376,2,0,P|470:67|405:25,1,160,4|0,0:0|0:0,0:0:0:0:
331,73,90276,1,12,0:0:0:0:
256,103,90576,6,0,P|201:111|148:103,1,80,4|8,0:0|0:0,0:0:0:0:
97,86,91176,2,0,P|132:128|15:225,1,240,0|8,0:0|0:0,0:0:0:0:
57,157,92376,6,0,L|225:245,1,176.000005371094,4|4,0:0|0:0,0:0:0:0:
256,304,93276,1,8,0:0:0:0:
299,238,93576,2,0,L|455:157,1,176.000005371094,0|8,0:0|0:0,0:0:0:0:
446,78,94476,1,12,0:2:0:0:
371,105,94776,6,0,L|290:147,1,88.000002685547,12|0,0:2|0:0,0:0:0:0:
217,122,95376,2,0,L|136:164,1,88.000002685547,12|12,0:2|0:2,0:0:0:0:
70,122,95976,2,0,P|59:187|150:244,1,176.000005371094,12|12,0:2|0:2,0:0:0:0:
224,250,96876,6,0,B|269:241|269:241|335:251|335:251|384:244,1,160,12|0,0:0|0:0,0:0:0:0:
448,192,97776,1,0,0:0:0:0:
381,139,98076,2,0,B|335:133|335:133|269:143|269:143|224:134,1,160,4|4,0:0|0:0,0:0:0:0:
151,90,98976,1,8,0:0:0:0:
83,40,99276,6,0,P|67:84|81:136,1,80,12|8,0:0|0:0,0:0:0:0:
104,193,99876,2,0,P|107:232|92:269,1,80,12|8,0:0|0:0,0:0:0:0:
21,222,100476,2,0,L|281:254,1,240,12|0,0:0|0:0,0:0:0:0:
329,297,101676,1,8,0:0:0:0:
329,297,102876,6,0,P|339:251|328:194,1,88.000002685547,4|8,0:0|0:0,0:0:0:0:
274,151,103476,2,0,P|269:107|279:64,1,88.000002685547,0|8,0:0|0:0,0:0:0:0:
347,16,104076,2,0,P|257:57|174:35,1,176.000005371094,4|0,0:2|0:0,0:0:0:0:
106,70,104976,1,8,0:0:0:0:
53,135,105276,6,0,L|46:223,1,88.000002685547,4|8,0:0|0:0,0:0:0:0:
128,238,105876,2,0,L|128:326,1,88.000002685547,0|12,0:0|0:1,0:0:0:0:
207,283,106476,2,0,B|228:228|209:180|178:154|132:151|132:151|155:104|199:85|226:85,1,264.000008056641,4|4,0:0|0:0,0:0:0:0:
274,85,107676,6,0,P|325:82|374:88,1,88.000002685547,4|8,0:0|0:0,0:0:0:0:
391,163,108276,2,0,P|434:166|478:163,1,88.000002685547,0|8,0:0|0:0,0:0:0:0:
512,242,108876,2,0,P|446:251|334:235,1,176.000005371094,4|0,0:2|0:0,0:0:0:0:
256,219,109776,1,8,0:0:0:0:
173,236,110076,6,0,P|87:251|0:242,1,176.000005371094,4|0,0:1|0:0,0:0:0:0:
14,75,111276,2,0,P|100:60|187:69,1,176.000005371094,0|0,0:0|0:0,0:0:0:0:
255,118,112176,1,0,0:0:0:0:
336,76,112476,6,0,P|344:127|326:175,1,95.9999970703126,4|8,0:0|0:0,0:0:0:0:
269,236,113076,2,0,P|255:281|263:328,1,95.9999970703126,0|8,0:2|0:0,0:0:0:0:
345,289,113676,2,0,L|150:278,1,191.999994140625,4|0,0:2|0:0,0:0:0:0:
83,336,114576,1,8,0:0:0:0:
47,252,114876,6,0,P|66:206|111:179,1,95.9999970703126,4|8,0:0|0:0,0:0:0:0:
190,152,115476,2,0,P|228:125|246:81,1,95.9999970703126,0|12,0:2|0:1,0:0:0:0:
155,67,116076,2,0,B|308:186|308:186|330:153|360:140|395:144,1,287.999991210938,4|4,0:0|0:0,0:0:0:0:
463,187,117276,6,0,P|430:221|385:234,1,95.9999970703126,4|8,0:0|0:0,0:0:0:0:
302,273,117876,2,0,P|256:285|223:319,1,95.9999970703126,0|8,0:2|0:0,0:0:0:0:
132,324,118476,2,0,P|155:266|281:194,1,191.999994140625,4|0,0:2|0:1,0:0:0:0:
324,132,119376,1,8,0:0:0:0:
233,120,119676,6,0,P|162:142|65:252,2,191.999994140625,4|0|0,0:1|0:0|0:0,0:0:0:0:
324,132,121176,1,0,0:0:0:0:
411,106,121476,2,0,P|407:160|377:200,1,95.9999970703126,0|0,0:0|0:0,0:0:0:0:
317,249,122076,6,0,P|306:297|448:349,1,240,4|8,1:0|0:0,0:0:0:0:
391,287,123276,2,0,L|393:111,1,160,4|0,0:0|0:0,0:0:0:0:
329,71,124176,1,8,0:0:0:0:
256,27,124476,6,0,P|242:82|316:155,1,160,4|0,1:2|0:0,0:0:0:0:
387,133,125376,1,8,0:0:0:0:
329,71,125676,2,0,L|101:160,1,240,4|8,0:0|0:0,0:0:0:0:
108,73,126876,6,0,P|192:144|134:238,1,240,4|8,1:2|0:0,0:0:0:0:
62,282,128076,2,0,P|105:315|155:317,1,80,4|0,0:0|0:0,0:0:0:0:
209,294,128676,2,0,P|247:304|276:331,1,80,8|8,0:0|0:0,0:0:0:0:
352,367,129276,5,12,0:2:0:0:
352,367,131676,6,0,B|351:263|351:263|397:255|432:216|420:168,1,207.999990478516,12|12,0:0|0:0,0:0:0:0:
335,172,132576,1,8,0:0:0:0:
266,227,132876,2,0,L|265:338,1,103.999995239258,12|8,0:0|0:0,0:0:0:0:
176,333,133476,2,0,L|177:222,1,103.999995239258,12|0,0:0|0:0,0:0:0:0:
86,245,134076,6,0,P|122:153|220:151,1,207.999990478516,12|12,0:0|0:1,0:0:0:0:
297,197,134976,1,8,0:0:0:0:
324,280,135276,2,0,P|367:247|382:194,1,103.999995239258,12|0,0:1|0:0,0:0:0:0:
371,113,135876,2,0,P|387:64|429:34,1,103.999995239258,12|0,0:1|0:0,0:0:0:0:
458,117,136476,6,0,B|372:53|372:53|266:26,1,207.999990478516,12|12,0:0|0:2,0:0:0:0:
188,48,137376,1,8,0:0:0:0:
151,128,137676,6,0,B|237:192|237:192|343:219,1,207.999990478516,12|12,0:2|0:2,0:0:0:0:
410,262,138576,1,0,0:0:0:0:
334,308,138876,6,0,L|203:271,1,103.999995239258,12|4,0:0|0:2,0:0:0:0:
162,227,139476,2,0,L|31:190,1,103.999995239258,4|4,0:0|0:2,0:0:0:0:
79,112,140076,6,0,L|286:178,1,207.999990478516,4|4,0:0|0:0,0:0:0:0:
342,115,140976,1,12,0:2:0:0:
417,68,141276,6,0,P|430:122|406:171,1,103.999995239258,4|12,0:0|0:2,0:0:0:0:
345,224,141876,2,0,P|326:271|339:320,1,103.999995239258,4|12,0:0|0:2,0:0:0:0:
416,277,142476,6,0,L|179:271,2,207.999990478516,4|4|12,0:0|0:0|0:0,0:0:0:0:
256,192,143976,12,0,154476,0:0:0:0:
