osu file format v14

[General]
AudioFilename: okeanos.mp3
AudioLeadIn: 2500
PreviewTime: 61436
Countdown: 0
SampleSet: Soft
StackLeniency: 0.7
Mode: 0
LetterboxInBreaks: 0
WidescreenStoryboard: 1

[Editor]
Bookmarks: 12686,32278,49421,61665,81257,100849,120441,140033,152278,171870,191461,211053
DistanceSpacing: 1.1
BeatDivisor: 4
GridSize: 4
TimelineZoom: 2

[Metadata]
Title:Oceanus
TitleUnicode:Ωκεανος
Artist:cosMo@BousouP
ArtistUnicode:cosMo@暴走P
Creator:Broccoly
Version:Normal
Source:Deemo
Tags:Okeanos cosMo AD:PIANOⅢ Diverse System instrumental winber1 fortune irreversible helloscv asagi
BeatmapID:614095
BeatmapSetID:267767

[Difficulty]
HPDrainRate:3
CircleSize:3
OverallDifficulty:3
ApproachRate:4.5
SliderMultiplier:1.1
SliderTickRate:1

[Events]
//Background and Video events
0,0,"okay.jpg",0,0
//Break Periods
2,81534,89870
2,120718,123849
2,125615,129053
2,152354,160890
//Storyboard Layer 0 (Background)
//Storyboard Layer 1 (Fail)
//Storyboard Layer 2 (Pass)
//Storyboard Layer 3 (Foreground)
//Storyboard Sound Samples

[TimingPoints]
518,306.122448979592,4,2,2,65,1,0
11538,-100,4,2,2,65,0,0
32354,-125,4,2,3,35,0,0
34803,-125,4,2,6,35,0,0
34880,-125,4,2,3,35,0,0
37252,-125,4,2,6,35,0,0
37329,-125,4,2,3,35,0,0
39701,-125,4,2,6,35,0,0
39778,-125,4,2,3,35,0,0
42150,-125,4,2,6,35,0,0
42227,-125,4,2,3,35,0,0
44599,-125,4,2,6,35,0,0
44676,-125,4,2,3,35,0,0
47048,-125,4,2,6,35,0,0
47125,-125,4,2,3,35,0,0
49191,-125,4,2,2,35,0,0
49497,-100,4,2,1,65,0,0
61742,-100,4,2,1,65,0,1
71232,-100,4,2,1,65,0,0
71538,-100,4,2,1,65,0,1
81334,-100,4,2,2,65,0,0
91130,-100,4,2,1,65,0,0
100926,-100,4,2,2,65,0,1
101079,-100,4,2,1,65,0,1
120518,-100,4,2,2,65,0,0
130313,-100,4,2,3,65,0,0
130620,-100,4,2,9,65,0,0
134905,-100,4,2,10,65,0,0
135211,-100,4,2,2,65,0,0
139038,-100,4,2,1,45,0,0
139191,-100,4,2,2,55,0,0
140109,-100,4,2,1,55,0,0
149905,-100,4,2,2,60,0,0
162150,-100,4,2,9,60,0,0
164599,-100,4,2,1,60,0,0
166283,-100,4,2,9,60,0,0
167048,-100,4,2,2,40,0,0
168273,-100,4,2,2,45,0,0
169497,-100,4,2,2,50,0,0
170722,-100,4,2,2,55,0,0
171640,-100,4,2,2,20,0,0
171793,-100,4,2,2,40,0,0
171946,-100,4,2,4,65,0,1
172252,-100,4,2,1,65,0,1
178069,-100,4,2,2,65,0,1
178145,-100,4,2,1,65,0,1
179293,-100,4,2,2,65,0,1
179370,-100,4,2,1,65,0,1
181436,-100,4,2,2,65,0,0
181742,-100,4,2,1,65,0,1
184880,-100,4,2,11,65,0,1
185569,-100,4,2,1,65,0,1
185722,-100,4,2,2,65,0,1
186028,-100,4,2,1,65,0,1
186640,-100,4,2,2,65,0,1
186793,-100,4,2,1,65,0,1
191538,-100,4,2,4,65,0,0
191614,-100,4,2,1,65,0,0
209905,-100,4,2,2,65,0,0
210518,-100,4,2,1,40,0,0
216028,-100,4,2,6,40,0,0
216334,-100,4,2,1,40,0,0
219701,-100,4,2,1,25,0,0
220007,-100,4,2,1,30,0,0
220313,-100,4,2,1,35,0,0
220620,-100,4,2,1,40,0,0
220926,631.578947368421,4,1,0,100,1,0

[Colours]
Combo1 : 234,234,234
Combo2 : 245,207,156
Combo3 : 237,158,150
Combo4 : 125,213,210
Combo5 : 174,194,240

[HitObjects]
153,342,11538,5,2,0:0:0:0:
47,309,11844,1,2,0:0:0:0:
67,200,12150,2,0,L|52:83,1,110,2|2,0:0|0:0,0:0:0:0:
162,84,12762,6,0,P|199:60|279:79,1,110,6|0,0:0|0:0,0:0:0:0:
362,20,13375,2,0,L|423:15,1,55,2|0,0:0|0:0,0:0:0:0:
510,73,13834,1,0,0:0:0:0:
444,161,14140,1,0,0:0:0:0:
444,161,14293,1,2,0:0:0:0:
487,262,14599,2,0,L|468:375,1,110,2|2,0:0|0:0,0:0:0:0:
365,331,15211,5,2,0:0:0:0:
257,355,15518,1,2,0:0:0:0:
152,321,15824,2,0,P|96:315|43:346,1,110,0|2,0:0|0:0,0:0:0:0:
43,229,16436,2,0,B|30:173|30:173|57:115,1,110,2|0,0:0|0:0,0:0:0:0:
153,81,17048,2,0,L|161:24,2,55,2|0|2,0:0|0:0|0:0,0:0:0:0:
180,187,17660,5,2,0:0:0:0:
288,169,17966,1,0,0:0:0:0:
348,76,18273,2,0,L|471:93,1,110,2|2,0:0|0:0,0:0:0:0:
499,192,18885,2,0,P|510:250|475:301,1,110,2|2,0:0|0:0,0:0:0:0:
382,329,19497,1,2,0:0:0:0:
279,289,19803,1,2,0:0:0:0:
181,339,20109,6,0,B|71:351|71:351|3:316,1,165,2|8,0:0|0:0,0:0:0:0:
86,173,21028,2,0,B|195:160|195:160|264:196,1,165,8|8,0:0|0:0,0:0:0:0:
396,250,21946,2,0,P|411:219|389:136,1,110,2|2,0:0|0:0,0:0:0:0:
334,57,22558,5,6,0:0:0:0:
232,100,22864,1,8,0:0:0:0:
125,69,23171,2,0,L|56:64,2,55,2|0|8,0:0|0:0|0:0,0:0:0:0:
204,144,23783,2,0,P|216:183|186:250,1,110,0|8,0:0|0:0,0:0:0:0:
82,229,24395,1,2,0:0:0:0:
59,336,24701,1,2,0:0:0:0:
165,362,25007,6,0,B|265:338|265:338|338:357,1,165,2|0,0:0|0:0,0:0:0:0:
432,327,25773,2,0,L|504:347,1,55,0|8,0:0|0:0,0:0:0:0:
476,232,26232,2,0,L|457:122,1,110,2|8,0:0|0:0,0:0:0:0:
446,69,26691,1,4,0:0:0:0:
348,120,26997,2,0,L|279:114,1,55,0|8,0:0|0:0,0:0:0:0:
201,55,27456,6,0,L|82:75,1,110,2|8,0:0|0:0,0:0:0:0:
29,164,28069,1,2,0:0:0:0:
54,271,28375,1,10,0:0:0:0:
153,224,28681,2,0,L|165:162,2,55,2|2|8,0:0|0:0|0:0,0:0:0:0:
150,333,29293,2,0,L|263:318,1,110,2|8,0:0|0:0,0:0:0:0:
353,262,29905,6,0,P|386:263|437:293,2,82.5,2|8|8,0:0|0:0|0:0,0:0:0:0:
319,156,30671,2,0,L|337:92,1,55,8|8,0:0|0:0,0:0:0:0:
250,31,31130,2,0,L|125:45,1,110,2|2,0:0|0:0,0:0:0:0:
48,103,31742,2,0,P|28:145|49:214,1,110,8|2,0:0|0:0,0:0:0:0:
98,297,32354,5,6,0:0:0:0:
271,268,32966,2,0,L|361:281,1,88,2|2,0:0|0:0,0:0:0:0:
438,244,33579,1,8,0:0:0:0:
394,73,34191,1,0,0:0:0:0:
222,111,34803,6,0,L|118:95,2,88,4|0|2,0:0|0:0|0:0,0:0:0:0:
249,285,36028,1,8,0:0:0:0:
87,355,36640,1,0,0:0:0:0:
74,179,37252,5,4,0:0:0:0:
74,179,37558,2,0,P|66:126|96:80,1,88,0|0,0:0|0:0,0:0:0:0:
242,27,38477,1,8,0:0:0:0:
400,102,39089,2,0,L|497:80,2,88,0|4|4,0:0|0:3|0:0,0:0:0:0:
244,185,40313,5,2,0:0:0:0:
158,161,40620,1,2,0:0:0:0:
72,140,40926,2,0,P|60:184|81:247,1,88,8|0,0:0|0:0,0:0:0:0:
50,311,41538,2,0,P|99:331|158:322,1,88,2|0,0:0|0:0,0:0:0:0:
221,290,42150,5,4,0:0:0:0:
314,316,42456,1,0,0:0:0:0:
409,300,42762,2,0,L|420:197,1,88,2|2,0:0|0:0,0:0:0:0:
428,115,43375,1,8,0:0:0:0:
248,43,43987,2,0,L|142:58,1,88,0|0,0:0|0:0,0:0:0:0:
84,115,44599,6,0,P|69:151|83:207,1,88,4|0,0:0|0:0,0:0:0:0:
127,280,45211,1,2,0:0:0:0:
221,257,45518,1,2,0:0:0:0:
306,302,45824,2,0,L|401:282,1,88,8|0,0:0|0:0,0:0:0:0:
481,319,46436,2,0,P|489:279|469:230,1,88,0|0,0:0|0:0,0:0:0:0:
438,145,47048,5,4,0:0:0:0:
438,145,47354,1,0,0:0:0:0:
345,172,47660,1,2,0:0:0:0:
345,172,47966,1,2,0:0:0:0:
258,127,48273,2,0,L|274:25,1,88,8|0,0:0|0:0,0:0:0:0:
175,48,48885,2,0,L|119:35,2,44,0|0|8,0:3|0:3|0:0,0:0:0:0:
217,161,49497,6,0,L|196:275,1,110,2|2,0:0|0:0,0:0:0:0:
77,248,50109,1,2,1:2:0:0:
94,367,50415,1,2,1:2:0:0:
214,357,50722,2,0,B|284:336|284:336|338:355,1,110,6|2,0:0|0:0,0:0:0:0:
430,301,51334,2,0,L|492:287,2,55,2|4|2,1:2|0:0|0:0,0:0:0:0:
333,228,51946,6,0,L|354:102,1,110,2|2,1:2|1:2,0:0:0:0:
443,41,52558,2,0,P|473:96|462:147,1,110,2|2,1:2|1:2,0:0:0:0:
451,261,53171,1,2,1:2:0:0:
334,229,53477,2,0,B|270:246|270:246|209:224,1,110,2|2,1:2|1:2,0:0:0:0:
156,134,54089,1,2,1:2:0:0:
55,201,54395,6,0,P|38:257|63:321,1,110,6|2,0:0|1:2,0:0:0:0:
86,354,54854,2,0,P|147:337|193:355,1,110,4|4,0:0|0:0,0:0:0:0:
243,324,55313,1,2,1:2:0:0:
353,274,55620,2,0,L|468:295,1,110,2|2,0:0|0:0,0:0:0:0:
444,173,56232,1,10,0:0:0:0:
329,134,56538,2,0,L|319:71,1,55,2|8,0:0|0:0,0:0:0:0:
307,20,56844,5,2,0:0:0:0:
199,75,57150,1,2,0:0:0:0:
89,126,57456,2,0,L|25:111,2,55,2|2|2,0:0|0:0|0:0,0:0:0:0:
171,215,58069,2,0,L|262:191,2,82.5,6|6|6,0:0|0:0|0:0,0:0:0:0:
54,247,58834,2,0,L|46:309,1,55,2|8,0:0|0:0,0:0:0:0:
160,354,59293,6,0,P|203:329|272:344,1,110,6|8,0:0|0:3,0:0:0:0:
313,306,59752,2,0,P|356:331|425:316,1,110,6|2,0:0|0:0,0:0:0:0:
451,276,60211,1,2,0:0:0:0:
413,160,60518,1,2,0:0:0:0:
450,45,60824,1,4,0:0:0:0:
203,14,61742,6,0,L|218:128,1,110,2|8,0:0|0:0,0:0:0:0:
107,174,62354,2,0,L|45:155,2,55,2|2|8,0:0|0:0|0:0,0:0:0:0:
206,242,62966,1,6,0:0:0:0:
324,216,63273,1,12,0:0:0:0:
441,187,63579,2,0,P|459:229|445:308,1,110,6|12,0:0|0:0,0:0:0:0:
360,369,64191,6,0,B|255:340|255:340|174:372,1,165,0|8,0:0|0:0,0:0:0:0:
145,340,64803,2,0,L|79:360,2,55,2|0|0,0:0|0:0|0:0,0:0:0:0:
189,227,65415,1,2,0:0:0:0:
125,123,65722,1,8,0:0:0:0:
198,26,66028,2,0,P|258:21|306:58,1,110,2|8,0:0|0:0,0:0:0:0:
418,35,66640,6,0,B|430:101|430:101|412:145,1,110,6|12,0:0|0:0,0:0:0:0:
335,232,67252,1,6,0:0:0:0:
218,198,67558,1,12,0:0:0:0:
99,173,67864,2,0,L|83:73,2,82.5,6|4|6,0:0|0:0|0:0,0:0:0:0:
68,225,68477,2,0,L|52:281,1,55,6|6,0:0|0:0,0:0:0:0:
33,335,68783,1,8,0:0:0:0:
153,326,69089,6,0,L|216:335,1,55,6|8,0:0|0:0,0:0:0:0:
259,302,69395,2,0,L|322:311,1,55,2|8,0:0|0:0,0:0:0:0:
368,285,69701,1,2,0:0:0:0:
482,245,70007,2,0,L|469:173,1,55,2|8,0:0|0:0,0:0:0:0:
435,142,70313,6,0,P|437:100|465:66,2,82.5,2|10|10,0:0|0:0|0:0,0:0:0:0:
382,172,70926,2,0,L|320:159,1,55,8|0,0:0|0:0,0:0:0:0:
268,152,71232,1,8,0:0:0:0:
186,62,71538,6,0,L|72:78,1,110,6|8,0:0|0:0,0:0:0:0:
17,182,72150,1,2,0:0:0:0:
46,299,72456,1,8,0:0:0:0:
163,269,72762,2,0,P|199:296|264:297,1,110,6|12,0:0|0:0,0:0:0:0:
372,348,73375,2,0,P|408:321|473:320,1,110,6|12,0:0|0:0,0:0:0:0:
452,199,73987,2,0,P|410:198|364:171,2,82.5,0|2|8,0:0|0:0|0:0,0:0:0:0:
434,99,74676,6,0,P|448:66|441:15,2,82.5,6|12|12,0:0|0:0|0:0,0:0:0:0:
358,48,75364,2,0,L|293:33,1,55,0|6,0:0|1:2,0:0:0:0:
203,103,75824,2,0,P|137:107|96:85,1,110,2|8,1:2|0:0,0:0:0:0:
18,177,76436,6,0,L|39:287,1,110,4|8,1:2|0:0,0:0:0:0:
155,252,77048,1,8,0:0:0:0:
261,308,77354,1,8,0:0:0:0:
376,272,77660,2,0,P|416:267|467:288,2,82.5,12|4|6,0:0|0:0|0:0,0:0:0:0:
329,233,78273,1,8,0:0:0:0:
382,124,78579,1,12,0:0:0:0:
295,39,78885,6,0,L|239:51,1,55,4|12,0:0|0:0,0:0:0:0:
215,105,79191,2,0,L|159:117,1,55,6|6,0:0|0:0,0:0:0:0:
140,173,79497,2,0,L|84:185,1,55,8|8,0:0|0:0,0:0:0:0:
48,231,79803,1,2,0:0:0:0:
83,346,80109,1,8,0:0:0:0:
196,304,80415,1,2,0:0:0:0:
311,340,80722,2,0,B|386:348|386:348|417:317,1,110,4|8,0:0|0:0,0:0:0:0:
479,224,81334,1,4,0:0:0:0:
170,63,91130,5,4,0:0:0:0:
185,171,91436,1,0,0:0:0:0:
110,251,91742,2,0,L|54:240,2,55,6|0|2,0:0|0:0|0:0,0:0:0:0:
175,339,92354,2,0,L|303:361,1,110,2|0,0:0|0:0,0:0:0:0:
392,343,92966,2,0,L|445:353,2,55,6|0|2,0:0|0:0|0:0,0:0:0:0:
364,236,93579,5,2,0:0:0:0:
413,137,93885,1,0,0:0:0:0:
335,59,94191,2,0,P|294:47|260:55,1,55,6|0,0:0|0:0,0:0:0:0:
227,54,94497,1,2,0:0:0:0:
120,79,94803,2,0,L|112:192,1,110,2|2,0:0|0:0,0:0:0:0:
27,258,95415,2,0,P|73:293|149:293,1,110,6|8,0:0|0:0,0:0:0:0:
223,345,96028,5,4,0:0:0:0:
328,315,96334,1,0,0:0:0:0:
436,331,96640,2,0,B|451:264|451:264|430:211,1,110,6|0,0:0|0:0,0:0:0:0:
342,167,97252,2,0,L|283:178,2,55,2|8|0,0:0|0:0|0:0,0:0:0:0:
412,82,97864,1,4,0:0:0:0:
412,82,98171,1,8,0:0:0:0:
308,44,98477,6,0,P|246:52|186:7,1,110,2|0,0:0|0:0,0:0:0:0:
140,119,99089,2,0,P|78:111|18:156,1,110,6|0,0:0|0:0,0:0:0:0:
51,240,99701,2,0,L|42:308,2,55,10|8|10,0:0|0:0|0:0,0:0:0:0:
157,268,100313,2,0,L|152:213,2,55,2|8|2,0:0|0:0|0:0,0:0:0:0:
238,342,100926,6,0,L|360:348,1,110,6|12,0:0|0:0,0:0:0:0:
424,253,101538,2,0,L|501:268,2,55,6|2|12,0:0|0:0|0:0,0:0:0:0:
348,158,102150,1,6,0:0:0:0:
449,91,102456,1,12,0:0:0:0:
343,31,102762,2,0,B|279:21|279:21|223:49,1,110,6|12,0:0|0:0,0:0:0:0:
122,76,103375,6,0,L|54:63,2,55,6|2|12,0:0|0:0|0:0,0:0:0:0:
148,129,103834,1,2,0:0:0:0:
67,219,104140,2,0,P|62:251|81:293,1,55,2|12,0:0|0:0,0:0:0:0:
186,296,104599,2,0,P|203:275|232:264,2,55,2|6|10,0:0|0:0|0:0,0:0:0:0:
284,367,105211,2,0,P|340:353|406:363,1,110,6|12,0:0|0:0,0:0:0:0:
475,271,105824,6,0,L|490:209,2,55,6|2|12,0:0|0:0|0:0,0:0:0:0:
382,193,106436,2,0,L|376:130,1,55,6|2,0:0|0:0,0:0:0:0:
372,77,106742,1,12,0:0:0:0:
261,125,107048,1,6,0:0:0:0:
168,47,107354,1,12,0:0:0:0:
119,83,107507,2,0,P|59:81|15:112,1,110,6|2,0:0|0:0,0:0:0:0:
26,167,107966,2,0,P|19:195|27:228,1,55,12|0,0:0|0:0,0:0:0:0:
65,263,108273,6,0,L|179:253,1,110,6|12,0:0|0:0,0:0:0:0:
270,327,108885,2,0,L|394:337,1,110,6|12,0:0|0:0,0:0:0:0:
498,315,109497,2,0,L|481:250,1,55,14|8,0:0|0:0,0:0:0:0:
427,240,109803,2,0,L|410:175,1,55,12|6,0:0|0:0,0:0:0:0:
483,88,110262,2,0,L|496:141,1,55,10|12,0:0|0:0,0:0:0:0:
390,83,110722,6,0,B|329:65|329:65|281:84,1,110,2|12,0:0|0:0,0:0:0:0:
167,58,111334,2,0,L|132:189,1,110,4|12,0:0|0:0,0:0:0:0:
70,264,111946,2,0,L|7:267,2,55,4|0|4,0:0|0:0|0:0,0:0:0:0:
170,330,112558,2,0,L|224:327,1,55,4|2,0:0|0:0,0:0:0:0:
282,346,112864,2,0,L|336:343,1,55,12|8,0:0|0:0,0:0:0:0:
370,292,113171,6,0,L|471:286,2,82.5,6|0|8,0:0|0:0|0:0,0:0:0:0:
302,231,113859,2,0,P|298:193|326:150,2,82.5,6|12|12,0:0|0:0|0:0,0:0:0:0:
212,217,114548,2,0,L|138:222,1,55,2|8,0:0|0:0,0:0:0:0:
88,121,115007,2,0,L|204:113,1,110,6|12,0:0|0:0,0:0:0:0:
302,52,115620,5,6,0:0:0:0:
419,78,115926,1,12,0:0:0:0:
390,195,116232,2,0,L|399:260,1,55,12|0,0:0|0:0,0:0:0:0:
451,276,116538,2,0,L|460:341,1,55,12|0,0:0|0:0,0:0:0:0:
410,367,116844,2,0,P|355:345|289:363,1,110,12|12,0:0|0:0,0:0:0:0:
200,294,117456,2,0,L|126:305,2,55,12|2|12,0:0|0:0|0:0,0:0:0:0:
305,234,118069,5,6,0:0:0:0:
271,117,118375,1,6,0:0:0:0:
157,157,118681,2,0,P|122:138|50:149,1,110,4|12,0:0|0:0,0:0:0:0:
38,266,119293,2,0,B|29:338|29:338|54:379,1,110,14|12,0:0|0:0,0:0:0:0:
162,329,119905,1,6,0:0:0:0:
280,352,120211,1,12,0:0:0:0:
396,318,120518,1,4,0:0:0:0:
256,120,125109,5,0,0:0:0:0:
256,172,125262,2,0,L|256:228,1,55,0|4,0:0|0:0,0:0:0:0:
432,176,130313,6,0,L|420:288,1,110,4|6,0:0|0:0,0:0:0:0:
311,300,130926,2,0,P|243:296|203:328,1,110,14|6,0:0|0:0,0:0:0:0:
107,279,131538,1,14,0:0:0:0:
64,177,131844,1,6,0:0:0:0:
101,73,132150,2,0,L|223:64,1,110,14|6,0:0|0:0,0:0:0:0:
315,98,132762,5,14,0:0:0:0:
424,86,133069,1,6,0:0:0:0:
473,183,133375,2,0,P|489:218|473:290,1,110,14|6,0:0|0:0,0:0:0:0:
376,333,133987,1,14,0:0:0:0:
288,266,134293,1,6,0:0:0:0:
193,322,134599,2,0,L|60:312,1,110,14|12,0:0|0:0,0:0:0:0:
51,208,135211,5,6,0:0:0:0:
81,101,135518,1,2,0:0:0:0:
184,136,135824,2,0,L|250:140,2,55,10|2|2,0:0|0:0|0:0,0:0:0:0:
213,30,136436,2,0,L|329:37,1,110,10|2,0:0|0:0,0:0:0:0:
395,119,137048,1,10,0:0:0:0:
436,83,137201,2,0,L|502:87,1,55,0|2,0:0|0:0,0:0:0:0:
486,196,137660,6,0,B|491:264|491:264|471:307,1,110,10|2,0:0|0:0,0:0:0:0:
364,284,138273,1,2,0:0:0:0:
266,334,138579,1,10,0:0:0:0:
169,280,138885,2,0,L|97:293,2,55,6|4|4,0:0|0:0|0:0,0:0:0:0:
48,62,140109,6,0,L|64:180,1,110,2|2,1:2|1:2,0:0:0:0:
139,250,140722,1,2,1:2:0:0:
208,164,141028,1,0,0:0:0:0:
305,215,141334,2,0,P|361:241|426:224,1,110,2|0,1:2|1:2,0:0:0:0:
477,149,141946,2,0,P|421:123|356:140,1,110,2|2,1:2|1:2,0:0:0:0:
279,75,142558,5,2,1:2:0:0:
175,36,142864,2,0,L|102:54,1,55,2|4,1:2|0:0,0:0:0:0:
105,158,143324,2,0,L|32:176,1,55,4|2,0:0|1:2,0:0:0:0:
92,273,143783,2,0,P|71:314|66:356,2,55,2|0|2,1:2|0:0|1:2,0:0:0:0:
201,266,144395,2,0,L|274:276,1,55,2|0,1:2|0:0,0:0:0:0:
297,309,144701,2,0,L|370:319,1,55,2|0,1:2|0:0,0:0:0:0:
401,293,145007,5,2,0:0:0:0:
373,186,145313,1,8,0:0:0:0:
443,101,145620,2,0,L|457:34,2,55,6|4|6,0:0|0:0|0:0,0:0:0:0:
334,82,146232,2,0,P|283:66|240:75,2,82.5,2|4|4,0:0|0:0|0:0,0:0:0:0:
274,174,146997,2,0,L|263:236,1,55,2|10,0:0|0:0,0:0:0:0:
160,264,147456,5,6,0:0:0:0:
52,239,147762,1,10,0:3:0:0:
42,293,147915,1,4,0:0:0:0:
122,368,148222,2,0,L|206:364,1,55,0|10,0:0|0:0,0:0:0:0:
276,318,148681,2,0,L|402:310,1,110,2|4,0:0|0:0,0:0:0:0:
398,201,149293,2,0,P|411:166|405:115,2,55,8|0|10,0:0|0:0|0:0,0:0:0:0:
303,144,149905,1,4,0:0:0:0:
361,89,162150,5,6,0:0:0:0:
361,89,162456,1,6,0:0:0:0:
399,191,162762,1,6,0:0:0:0:
399,191,163069,1,6,0:0:0:0:
341,284,163375,2,0,P|292:268|233:293,1,110,6|6,0:0|0:0,0:0:0:0:
136,327,163987,2,0,B|119:282|119:282|133:208,1,110,6|6,0:0|0:0,0:0:0:0:
108,113,164599,6,0,L|20:94,2,82.5,6|0|6,0:0|0:0|0:0,0:0:0:0:
188,95,165288,2,0,L|172:-2,2,82.5,4|6|4,2:0|0:0|0:0,0:0:0:0:
255,143,165977,2,0,L|268:215,1,55,4|4,0:0|2:0,0:0:0:0:
372,176,166436,2,0,P|415:157|477:172,1,110,6|6,0:0|0:0,0:0:0:0:
465,280,167048,5,2,0:0:0:0:
367,331,167354,1,2,0:0:0:0:
261,300,167660,2,0,B|196:288|196:288|138:311,1,110,2|2,0:0|0:0,0:0:0:0:
113,201,168273,2,0,L|24:234,2,82.5,2|0|0,0:0|0:0|0:0,0:0:0:0:
140,153,168885,1,2,0:0:0:0:
57,80,169191,1,8,0:0:0:0:
161,45,169497,5,8,0:0:0:0:
269,61,169803,1,8,0:0:0:0:
376,81,170109,1,8,0:0:0:0:
483,104,170415,1,8,0:0:0:0:
441,206,170722,6,0,L|450:267,1,55,8|8,0:0|0:0,0:0:0:0:
394,270,171028,2,0,L|403:331,1,55,8|8,0:0|0:0,0:0:0:0:
371,370,171334,1,8,0:0:0:0:
278,311,171640,2,0,L|191:309,1,55,12|12,0:0|0:0,0:0:0:0:
197,260,171946,6,0,P|131:271|84:235,1,110,2|8,0:0|0:0,0:0:0:0:
58,135,172558,2,0,L|68:58,2,55,2|2|8,0:0|0:0|0:0,0:0:0:0:
159,69,173171,1,6,0:0:0:0:
259,136,173477,1,12,0:0:0:0:
355,63,173783,2,0,L|474:40,1,110,6|12,0:0|0:0,0:0:0:0:
490,159,174395,6,0,P|405:196|418:258,1,165,0|8,0:0|0:0,0:0:0:0:
389,308,175007,2,0,L|321:298,1,55,2|0,0:0|0:0,0:0:0:0:
286,263,175313,2,0,L|218:253,1,55,0|8,1:0|0:0,0:0:0:0:
179,223,175620,1,2,0:0:0:0:
79,292,175926,1,8,0:0:0:0:
38,177,176232,2,0,B|56:93|56:93|77:115,1,110,2|8,0:0|0:0,0:0:0:0:
171,40,176844,6,0,P|213:59|284:52,1,110,6|12,0:0|0:0,0:0:0:0:
385,105,177456,2,0,P|432:87|469:133,1,110,6|12,0:0|0:0,0:0:0:0:
448,245,178069,2,0,L|466:335,2,82.5,6|0|6,0:0|0:0|0:0,0:0:0:0:
397,212,178681,1,6,0:0:0:0:
306,292,178987,1,8,0:0:0:0:
191,252,179293,6,0,P|143:244|96:284,1,110,6|10,0:0|0:0,0:0:0:0:
4,202,179905,2,0,B|-13:154|-13:154|7:79,1,110,8|10,0:0|0:0,0:0:0:0:
120,68,180518,1,2,0:0:0:0:
155,151,180747,2,0,P|191:152|236:119,1,82.5,10|10,0:0|0:0,0:0:0:0:
282,97,181130,2,0,L|339:117,1,55,8|0,0:0|0:0,0:0:0:0:
388,90,181436,1,8,0:0:0:0:
486,159,181742,6,0,L|502:279,1,110,2|8,0:0|0:0,0:0:0:0:
418,357,182354,2,0,L|352:349,2,55,2|2|8,0:0|0:0|0:0,0:0:0:0:
386,240,182966,1,6,0:0:0:0:
268,268,183273,1,12,0:0:0:0:
150,296,183579,2,0,L|39:270,1,110,4|12,0:0|0:0,0:0:0:0:
112,172,184191,6,0,P|123:130|175:95,2,82.5
203,179,184880,2,0,P|251:159|297:165,2,82.5,6|12|12,0:0|0:0|0:0,0:0:0:0:
203,269,185569,2,0,L|190:333,1,55,2|4,0:0|0:0,0:0:0:0:
312,326,186028,2,0,L|423:345,1,110,2|8,0:0|0:0,0:0:0:0:
427,223,186640,6,0,P|453:177|439:109,1,110,6|8,0:0|0:0,0:0:0:0:
347,52,187252,2,0,P|321:98|335:166,1,110,8|8,0:0|0:0,0:0:0:0:
209,126,187864,2,0,B|156:115|156:115|107:133,2,82.5,12|4|4,0:0|0:0|0:0,0:0:0:0:
216,186,188477,2,0,P|222:226|212:253,1,55,12|2,0:0|0:0,0:0:0:0:
181,287,188783,1,8,0:0:0:0:
286,345,189089,6,0,L|349:360,1,55,6|12,0:0|0:0,0:0:0:0:
386,319,189395,2,0,L|449:334,1,55,6|12,0:0|0:0,0:0:0:0:
481,288,189701,2,0,P|489:257|478:219,1,55,8|8,0:0|0:0,0:0:0:0:
439,195,190007,2,0,P|431:164|442:126,1,55,2|8,0:0|0:0,0:0:0:0:
412,85,190313,2,0,P|450:83|480:105,2,55,8|2|2,0:0|0:0|0:0,0:0:0:0:
372,38,190773,2,0,P|333:53|262:27,1,110,2|8,0:0|0:0,0:0:0:0:
219,68,191232,1,2,0:0:0:0:
104,28,191538,6,0,B|41:54|41:54|26:110,1,110,2|8,0:0|0:0,0:0:0:0:
54,199,192150,2,0,L|37:260,2,55,2|2|8,0:0|0:0|0:0,0:0:0:0:
157,160,192762,1,2,0:0:0:0:
255,210,193069,1,8,0:0:0:0:
359,175,193375,2,0,P|403:169|463:213,1,110,6|8,0:0|0:0,0:0:0:0:
447,311,193987,6,0,L|456:368,2,55,2|2|8,0:0|0:0|0:0,0:0:0:0:
340,284,194599,2,0,L|332:348,2,55,2|8|8,0:0|0:0|0:0,0:0:0:0:
233,310,195211,2,0,L|107:315,1,110,4|4,0:0|0:0,0:0:0:0:
67,219,195824,2,0,P|56:162|105:102,1,110,4|12,0:0|0:0,0:0:0:0:
166,48,196436,6,0,L|344:71,2,165,6|4|12,0:0|0:0|0:0,0:0:0:0:
195,154,197660,2,0,L|315:170,1,110,2|8,0:0|0:0,0:0:0:0:
404,213,198273,2,0,L|463:197,2,55,0|2|8,0:0|0:0|0:0,0:0:0:0:
358,313,198885,5,12,0:0:0:0:
252,283,199191,1,12,0:0:0:0:
142,291,199497,1,14,0:0:0:0:
46,346,199803,1,12,0:0:0:0:
45,236,200109,2,0,L|57:133,2,82.5,4|4|4,0:0|0:0|0:0,0:0:0:0:
92,264,200722,2,0,L|156:251,1,55,0|2,0:0|0:0,0:0:0:0:
197,272,201028,1,8,0:0:0:0:
299,232,201334,6,0,P|354:240|377:266,2,82.5,2|4|4,0:0|0:0|0:0,0:0:0:0:
284,178,201946,2,0,L|301:120,1,55,12|6,0:0|0:0,0:0:0:0:
352,109,202252,2,0,L|369:51,2,55,12|6|12,0:0|0:0|0:0,0:0:0:0:
263,43,202864,1,12,0:0:0:0:
164,93,203171,2,0,P|118:85|55:120,1,110,12|12,0:0|0:0,0:0:0:0:
24,214,203783,6,0,P|70:222|133:187,1,110,12|12,0:0|0:0,0:0:0:0:
234,179,204395,1,12,0:0:0:0:
193,281,204701,1,12,0:0:0:0:
295,320,205007,2,0,L|365:309,1,55,12|2,0:0|0:0,0:0:0:0:
387,271,205313,1,12,0:0:0:0:
495,290,205620,2,0,P|497:258|478:218,1,55,12|2,0:0|0:0,0:0:0:0:
446,203,205926,2,0,P|440:156|476:106,1,110,12|6,0:0|0:0,0:0:0:0:
390,35,206538,5,12,0:0:0:0:
297,93,206844,2,0,L|182:69,1,110,12|12,0:0|0:0,0:0:0:0:
82,98,207456,2,0,P|61:141|72:209,1,110,12|12,0:0|0:0,0:0:0:0:
47,309,208069,2,0,P|84:301|155:352,1,110,12|12,0:0|0:0,0:0:0:0:
255,336,208681,6,0,L|312:324,2,55,14|12|12,0:0|0:0|0:0,0:0:0:0:
277,228,209293,2,0,L|334:216,2,55,12|12|12,0:0|0:0|0:0,0:0:0:0:
195,154,209905,5,6,2:0:0:0:
381,37,210518,1,2,0:0:0:0:
480,233,211130,6,0,P|431:215|359:244,1,110,6|0,0:0|0:0,0:0:0:0:
275,186,211742,2,0,P|230:206|194:261,1,110,6|0,0:0|0:0,0:0:0:0:
111,324,212354,1,6,0:0:0:0:
88,216,212660,1,2,0:0:0:0:
27,123,212966,2,0,L|142:105,1,110,6|2,0:0|0:0,0:0:0:0:
220,35,213579,6,0,L|335:53,1,110,6|0,0:0|0:0,0:0:0:0:
429,96,214191,2,0,P|454:144|432:206,1,110,6|0,0:0|0:0,0:0:0:0:
348,256,214803,2,0,P|301:240|248:280,1,110,6|0,0:0|0:0,0:0:0:0:
182,354,215415,1,6,0:0:0:0:
76,322,215722,1,0,0:0:0:0:
91,213,216028,6,0,L|82:94,1,110,4|2,0:0|0:0,0:0:0:0:
178,49,216640,2,0,L|186:158,1,110,6|2,0:0|0:0,0:0:0:0:
295,150,217252,2,0,P|330:129|416:149,1,110,6|2,0:0|0:0,0:0:0:0:
466,219,217864,2,0,P|431:240|345:220,1,110,6|2,0:0|0:0,0:0:0:0:
266,285,218477,5,6,0:0:0:0:
168,336,218783,1,2,0:0:0:0:
65,295,219089,2,0,P|54:249|85:183,1,110,6|0,0:0|0:0,0:0:0:0:
38,88,219701,2,0,P|84:78|155:114,1,110,14|10,0:0|0:0,0:0:0:0:
245,64,220313,2,0,P|295:81|363:55,1,110,14|10,0:0|0:0,0:0:0:0:
