osu file format v14

[General]
AudioFilename: For UltraPlayers.mp3
AudioLeadIn: 0
PreviewTime: 53719
Countdown: 0
SampleSet: Normal
StackLeniency: 0.7
Mode: 1
LetterboxInBreaks: 0
WidescreenStoryboard: 0

[Editor]
DistanceSpacing: 0.8
BeatDivisor: 2
GridSize: 32
TimelineZoom: 1.299999

[Metadata]
Title:For UltraPlayers
TitleUnicode:For UltraPlayers
Artist:cosMo@BousouP
ArtistUnicode:cosMo@暴走P
Creator:mliencheng
Version:Futsuu
Source:SOUND VOLTEX II -infinite infection-
Tags:sdvx
BeatmapID:418278
BeatmapSetID:173005

[Difficulty]
HPDrainRate:5
CircleSize:5
OverallDifficulty:4
ApproachRate:5
SliderMultiplier:1.2
SliderTickRate:1

[Events]
//Background and Video events
0,0,"BG1.png",0,0
//Break Periods
//Storyboard Layer 0 (Background)
//Storyboard Layer 1 (Fail)
//Storyboard Layer 2 (Pass)
//Storyboard Layer 3 (Foreground)
//Storyboard Sound Samples

[TimingPoints]
1187,298.477763406626,4,1,0,80,1,0
37004,-100,4,1,0,80,0,1
41779,-100,4,1,0,80,0,0
53719,-100,4,1,0,80,0,1
72821,-100,4,1,0,80,0,0
93118,-100,4,1,0,80,0,1
112220,-100,4,1,0,80,0,0

[HitObjects]
192,192,1187,5,4,0:0:0:0:
192,224,1783,1,6,0:0:0:0:
192,192,2380,1,4,0:0:0:0:
192,192,3574,1,4,0:0:0:0:
192,192,4171,1,6,0:0:0:0:
192,192,4768,1,4,0:0:0:0:
192,192,5962,1,0,0:0:0:0:
192,224,6559,1,0,0:0:0:0:
192,224,6858,1,2,0:0:0:0:
224,192,7156,1,0,0:0:0:0:
224,192,7753,1,2,0:0:0:0:
288,192,8350,1,0,0:0:0:0:
256,224,8947,1,0,0:0:0:0:
256,224,9245,1,2,0:0:0:0:
224,192,9544,1,0,0:0:0:0:
224,192,10141,1,2,0:0:0:0:
224,192,10738,1,4,0:0:0:0:
256,160,13126,1,0,0:0:0:0:
256,192,13723,1,0,0:0:0:0:
160,96,14320,1,0,0:0:0:0:
160,64,15514,1,0,0:0:0:0:
160,160,16110,1,0,0:0:0:0:
160,160,16409,1,2,0:0:0:0:
192,128,16707,1,0,0:0:0:0:
224,160,17304,1,2,0:0:0:0:
128,192,17901,1,0,0:0:0:0:
192,160,18498,1,2,0:0:0:0:
160,160,19095,1,0,0:0:0:0:
192,192,19394,1,6,0:0:0:0:
160,160,20289,1,2,0:0:0:0:
192,160,20886,1,2,0:0:0:0:
192,160,21483,1,0,0:0:0:0:
192,160,21781,1,2,0:0:0:0:
192,160,22079,1,0,0:0:0:0:
160,128,22378,1,2,0:0:0:0:
160,160,22677,1,0,0:0:0:0:
192,128,23274,1,2,0:0:0:0:
160,192,23871,1,0,0:0:0:0:
192,192,24468,1,0,0:0:0:0:
160,192,25065,1,0,0:0:0:0:
192,192,25363,1,2,0:0:0:0:
192,192,25662,1,0,0:0:0:0:
160,160,26259,1,0,0:0:0:0:
160,96,26557,1,0,0:0:0:0:
192,96,26856,1,2,0:0:0:0:
256,160,27453,1,0,0:0:0:0:
256,192,28049,1,0,0:0:0:0:
256,192,28646,1,0,0:0:0:0:
288,192,28945,1,6,0:0:0:0:
192,160,29840,1,2,0:0:0:0:
192,160,30139,1,0,0:0:0:0:
128,160,30437,1,2,0:0:0:0:
224,160,31034,1,2,0:0:0:0:
224,160,31184,1,2,0:0:0:0:
224,160,31333,1,2,0:0:0:0:
160,192,31631,1,0,0:0:0:0:
96,192,32228,1,0,0:0:0:0:
192,192,32825,1,2,0:0:0:0:
96,160,33124,1,0,0:0:0:0:
192,192,33422,1,0,0:0:0:0:
192,192,34019,1,0,0:0:0:0:
96,160,34318,1,2,0:0:0:0:
224,192,34616,1,0,0:0:0:0:
224,192,35213,1,2,0:0:0:0:
96,160,35511,1,0,0:0:0:0:
224,192,35810,1,0,0:0:0:0:
224,192,36407,1,0,0:0:0:0:
224,160,36706,1,2,0:0:0:0:
128,160,37004,1,0,0:0:0:0:
160,128,37601,1,2,0:0:0:0:
128,160,37899,1,2,0:0:0:0:
192,64,38198,1,2,0:0:0:0:
160,192,38795,1,0,0:0:0:0:
160,160,39093,1,0,0:0:0:0:
160,128,39392,1,0,0:0:0:0:
160,160,39989,1,2,0:0:0:0:
128,160,40287,1,2,0:0:0:0:
224,160,40586,1,2,0:0:0:0:
128,160,41183,1,4,0:0:0:0:
224,160,41779,1,2,0:0:0:0:
224,160,42078,1,0,0:0:0:0:
224,160,42376,1,0,0:0:0:0:
160,160,42973,1,2,0:0:0:0:
160,160,43272,1,0,0:0:0:0:
192,160,43570,1,0,0:0:0:0:
224,160,44167,1,0,0:0:0:0:
224,192,44764,1,0,0:0:0:0:
192,192,45063,1,2,0:0:0:0:
192,192,45361,1,2,0:0:0:0:
192,96,45958,1,2,0:0:0:0:
192,96,46555,1,4,0:0:0:0:
128,192,47152,1,0,0:0:0:0:
64,128,47451,1,0,0:0:0:0:
192,160,47749,1,2,0:0:0:0:
224,160,48346,1,0,0:0:0:0:
192,160,48943,1,0,0:0:0:0:
256,160,49540,1,2,0:0:0:0:
256,160,50137,1,2,0:0:0:0:
128,160,50435,1,0,0:0:0:0:
160,160,50734,1,2,0:0:0:0:
64,192,51331,2,0,L|192:192,4,120
192,128,53122,1,2,0:0:0:0:
160,128,53719,1,6,0:0:0:0:
128,128,54166,1,0,0:0:0:0:
256,192,54912,1,4,0:0:0:0:
192,160,55360,1,2,0:0:0:0:
192,128,56106,1,2,0:0:0:0:
192,96,56703,1,2,0:0:0:0:
224,192,57300,1,2,0:0:0:0:
224,160,58494,1,2,0:0:0:0:
96,160,58942,1,0,0:0:0:0:
192,192,59390,1,2,0:0:0:0:
160,192,59688,1,0,0:0:0:0:
224,224,60285,1,2,0:0:0:0:
224,224,60584,1,0,0:0:0:0:
160,96,60882,1,2,0:0:0:0:
160,160,61330,1,2,0:0:0:0:
160,160,61479,1,2,0:0:0:0:
160,160,61927,1,2,0:0:0:0:
160,160,62076,1,2,0:0:0:0:
160,160,62524,1,2,0:0:0:0:
192,160,62673,1,0,0:0:0:0:
160,160,63270,1,0,0:0:0:0:
160,96,63718,1,4,0:0:0:0:
160,96,64165,1,0,0:0:0:0:
128,128,64464,1,2,0:0:0:0:
64,160,64912,1,2,0:0:0:0:
256,128,65359,1,2,0:0:0:0:
192,160,65658,1,2,0:0:0:0:
192,160,66105,1,2,0:0:0:0:
128,160,66255,1,2,0:0:0:0:
192,64,66702,1,2,0:0:0:0:
192,96,66852,1,2,0:0:0:0:
224,192,67449,1,0,0:0:0:0:
192,224,67747,1,2,0:0:0:0:
192,224,68046,1,4,0:0:0:0:
96,256,68642,1,2,0:0:0:0:
192,160,68941,1,0,0:0:0:0:
160,192,69239,1,6,0:0:0:0:
96,256,69836,1,2,0:0:0:0:
96,256,70433,1,2,0:0:0:0:
192,160,70732,1,0,0:0:0:0:
96,256,71030,1,2,0:0:0:0:
192,160,71329,1,0,0:0:0:0:
160,192,71627,1,0,0:0:0:0:
256,160,72224,1,0,0:0:0:0:
192,160,72821,1,2,0:0:0:0:
128,192,74612,1,2,0:0:0:0:
224,224,75806,1,2,0:0:0:0:
192,256,77000,1,2,0:0:0:0:
128,192,77597,1,4,0:0:0:0:
160,160,78194,1,2,0:0:0:0:
96,160,79388,1,2,0:0:0:0:
128,320,79985,1,4,0:0:0:0:
128,192,80582,1,2,0:0:0:0:
224,224,81179,1,4,0:0:0:0:
160,192,81775,1,2,0:0:0:0:
224,192,82372,1,0,0:0:0:0:
224,128,82671,1,0,0:0:0:0:
256,128,82969,1,0,0:0:0:0:
256,128,83566,1,2,0:0:0:0:
256,160,83865,1,2,0:0:0:0:
128,128,84163,1,2,0:0:0:0:
128,192,84760,1,0,0:0:0:0:
192,64,85059,1,2,0:0:0:0:
160,64,85357,1,0,0:0:0:0:
160,128,85954,1,2,0:0:0:0:
160,128,86253,1,0,0:0:0:0:
160,128,86551,1,2,0:0:0:0:
192,224,87148,1,0,0:0:0:0:
224,192,87745,1,2,0:0:0:0:
160,160,88342,1,0,0:0:0:0:
192,160,88939,1,2,0:0:0:0:
192,192,89536,1,0,0:0:0:0:
192,160,90133,1,2,0:0:0:0:
192,128,90431,1,2,0:0:0:0:
192,128,90730,1,0,0:0:0:0:
160,192,91178,1,0,0:0:0:0:
160,32,91327,1,0,0:0:0:0:
192,192,91625,1,0,0:0:0:0:
64,192,91924,2,4,L|480:128,1,360
128,192,93118,1,2,0:0:0:0:
224,192,93565,1,4,0:0:0:0:
224,192,94013,1,0,0:0:0:0:
224,192,94312,1,2,0:0:0:0:
256,160,94759,1,6,0:0:0:0:
224,96,95207,1,0,0:0:0:0:
224,192,95505,1,2,0:0:0:0:
224,192,95953,1,2,0:0:0:0:
224,192,96102,1,2,0:0:0:0:
192,192,96550,1,2,0:0:0:0:
192,192,96699,1,2,0:0:0:0:
192,160,97296,1,0,0:0:0:0:
192,160,97893,1,0,0:0:0:0:
192,128,98341,1,2,0:0:0:0:
64,160,98789,1,2,0:0:0:0:
224,128,99087,1,0,0:0:0:0:
224,160,99684,1,0,0:0:0:0:
224,160,99983,1,2,0:0:0:0:
224,160,100281,1,2,0:0:0:0:
96,160,100729,1,2,0:0:0:0:
192,160,100878,1,2,0:0:0:0:
192,160,101326,1,2,0:0:0:0:
192,160,101475,1,2,0:0:0:0:
160,128,101923,1,2,0:0:0:0:
192,128,102072,1,2,0:0:0:0:
224,192,102669,1,2,0:0:0:0:
224,192,102967,1,2,0:0:0:0:
160,160,103117,1,2,0:0:0:0:
192,160,103266,1,0,0:0:0:0:
192,192,103863,1,0,0:0:0:0:
192,160,104161,1,2,0:0:0:0:
128,192,104311,1,2,0:0:0:0:
192,96,104460,1,2,0:0:0:0:
192,160,105057,1,2,0:0:0:0:
192,160,105654,1,2,0:0:0:0:
192,160,106251,1,2,0:0:0:0:
192,128,106848,1,0,0:0:0:0:
128,160,107146,1,2,0:0:0:0:
192,128,107445,1,4,0:0:0:0:
192,64,108042,1,2,0:0:0:0:
256,128,108340,1,0,0:0:0:0:
192,128,108638,1,4,0:0:0:0:
192,64,109235,1,2,0:0:0:0:
256,128,109533,1,0,0:0:0:0:
192,64,109832,1,2,0:0:0:0:
256,128,110130,1,2,0:0:0:0:
192,64,110429,1,0,0:0:0:0:
256,128,110727,1,0,0:0:0:0:
224,192,111026,1,0,0:0:0:0:
224,192,111623,1,0,0:0:0:0:
96,160,111922,1,2,0:0:0:0:
160,32,112220,1,2,0:0:0:0:
192,160,112817,1,2,0:0:0:0:
192,160,114011,1,2,0:0:0:0:
224,160,115205,1,2,0:0:0:0:
224,160,116399,1,2,0:0:0:0:
224,160,116996,1,0,0:0:0:0:
224,160,117145,1,0,0:0:0:0:
