osu file format v14

[General]
AudioFilename: For UltraPlayers.mp3
AudioLeadIn: 0
PreviewTime: 93236
Countdown: 0
SampleSet: Normal
StackLeniency: 0.7
Mode: 3
LetterboxInBreaks: 0
SpecialStyle: 0
WidescreenStoryboard: 1

[Editor]
DistanceSpacing: 0.8
BeatDivisor: 4
GridSize: 8
TimelineZoom: 1.9

[Metadata]
Title:For UltraPlayers
TitleUnicode:For UltraPlayers
Artist:cosMo@BousouP
ArtistUnicode:cosMo@暴走P
Creator:[ kenon ]
Version:NOVICE lv.6
Source:SOUND VOLTEX II -infinite infection-
Tags:SDVX 2 HootOwlStar Lazy- jinhang_ang shuffler29 Valentrixe FaiVillager
BeatmapID:681256
BeatmapSetID:193345

[Difficulty]
HPDrainRate:5
CircleSize:4
OverallDifficulty:5
ApproachRate:5
SliderMultiplier:1.4
SliderTickRate:1

[Events]
//Background and Video events
0,0,"45125930.png",0,0
//Break Periods
//Storyboard Layer 0 (Background)
//Storyboard Layer 1 (Fail)
//Storyboard Layer 2 (Pass)
//Storyboard Layer 3 (Foreground)
//Storyboard Sound Samples

[TimingPoints]
1259,298.507462686567,4,1,0,20,1,0
53796,-100,4,1,0,20,0,1
72900,-100,4,1,0,20,0,0
93199,-100,4,1,0,20,0,1
112303,-100,4,1,0,20,0,0

[HitObjects]
448,192,1259,5,0,0:0:0:0:
64,192,1259,1,0,0:0:0:0:
192,192,1408,1,0,0:0:0:0:
320,192,1408,1,0,0:0:0:0:
448,192,1856,1,0,0:0:0:0:
320,192,1856,1,0,0:0:0:0:
192,192,2005,1,0,0:0:0:0:
64,192,2005,1,0,0:0:0:0:
320,192,2453,1,0,0:0:0:0:
192,192,2453,1,0,0:0:0:0:
64,192,2602,1,0,0:0:0:0:
448,192,2602,1,0,0:0:0:0:
192,192,3050,1,0,0:0:0:0:
64,192,3050,1,0,0:0:0:0:
320,192,3199,1,0,0:0:0:0:
448,192,3199,1,0,0:0:0:0:
448,192,3647,1,0,0:0:0:0:
192,192,3647,1,0,0:0:0:0:
64,192,3796,1,0,0:0:0:0:
320,192,3796,1,0,0:0:0:0:
64,192,4244,1,0,0:0:0:0:
320,192,4244,1,0,0:0:0:0:
192,192,4393,1,0,0:0:0:0:
448,192,4393,1,0,0:0:0:0:
192,192,4841,1,0,0:0:0:0:
448,192,4841,1,0,0:0:0:0:
320,192,4990,1,0,0:0:0:0:
64,192,4990,1,0,0:0:0:0:
64,192,5438,1,0,0:0:0:0:
448,192,5438,1,0,0:0:0:0:
320,192,5587,1,0,0:0:0:0:
192,192,5587,1,0,0:0:0:0:
448,192,5736,128,0,6035:0:0:0:0:
320,192,6035,1,0,0:0:0:0:
64,192,6035,128,0,7229:0:0:0:0:
192,192,6184,1,0,0:0:0:0:
320,192,6333,1,0,0:0:0:0:
448,192,6482,1,0,0:0:0:0:
192,192,6632,1,0,0:0:0:0:
320,192,6781,1,0,0:0:0:0:
448,192,6930,1,0,0:0:0:0:
192,192,7079,1,0,0:0:0:0:
320,192,7229,1,0,0:0:0:0:
448,192,7378,1,0,0:0:0:0:
64,192,7527,1,0,0:0:0:0:
192,192,7676,1,0,0:0:0:0:
64,192,7826,128,0,8124:0:0:0:0:
320,192,7826,1,0,0:0:0:0:
448,192,7975,1,0,0:0:0:0:
448,192,8124,128,0,8423:0:0:0:0:
192,192,8124,1,0,0:0:0:0:
320,192,8273,1,0,0:0:0:0:
192,192,8423,128,0,9020:0:0:0:0:
64,192,8423,1,0,0:0:0:0:
320,192,8721,1,0,0:0:0:0:
320,192,9020,128,0,9617:0:0:0:0:
448,192,9020,1,0,0:0:0:0:
64,192,9318,1,0,0:0:0:0:
64,192,9617,128,0,10214:0:0:0:0:
192,192,9617,1,0,0:0:0:0:
320,192,9915,1,0,0:0:0:0:
448,192,10214,128,0,10811:0:0:0:0:
192,192,10214,1,0,0:0:0:0:
320,192,10512,1,0,0:0:0:0:
64,192,10811,1,0,0:0:0:0:
192,192,10960,1,0,0:0:0:0:
320,192,11109,1,0,0:0:0:0:
192,192,11258,1,0,0:0:0:0:
64,192,11408,1,0,0:0:0:0:
448,192,11557,1,0,0:0:0:0:
320,192,11706,1,0,0:0:0:0:
64,192,11856,1,0,0:0:0:0:
192,192,12005,1,0,0:0:0:0:
320,192,12154,1,0,0:0:0:0:
192,192,12303,1,0,0:0:0:0:
320,192,12453,1,0,0:0:0:0:
64,192,12602,128,0,13199:0:0:0:0:
448,192,12602,1,0,0:0:0:0:
320,192,12900,1,0,0:0:0:0:
448,192,13199,1,0,0:0:0:0:
192,192,13348,1,0,0:0:0:0:
320,192,13497,1,0,0:0:0:0:
64,192,13647,1,0,0:0:0:0:
448,192,13796,1,0,0:0:0:0:
320,192,13945,1,0,0:0:0:0:
192,192,14094,1,0,0:0:0:0:
320,192,14244,1,0,0:0:0:0:
64,192,14393,1,0,0:0:0:0:
192,192,14542,1,0,0:0:0:0:
448,192,14691,1,0,0:0:0:0:
320,192,14841,1,0,0:0:0:0:
192,192,14990,1,0,0:0:0:0:
64,192,15139,1,0,0:0:0:0:
320,192,15288,1,0,0:0:0:0:
448,192,15438,1,0,0:0:0:0:
64,192,15587,1,0,0:0:0:0:
320,192,15736,1,0,0:0:0:0:
192,192,15885,1,0,0:0:0:0:
64,192,16035,1,0,0:0:0:0:
448,192,16184,1,0,0:0:0:0:
320,192,16333,1,0,0:0:0:0:
192,192,16482,1,0,0:0:0:0:
64,192,16632,1,0,0:0:0:0:
448,192,16781,128,0,17079:0:0:0:0:
320,192,16781,1,0,0:0:0:0:
64,192,17079,128,0,17378:0:0:0:0:
192,192,17079,1,0,0:0:0:0:
320,192,17378,128,0,17676:0:0:0:0:
448,192,17378,1,0,0:0:0:0:
192,192,17676,128,0,17975:0:0:0:0:
64,192,17676,1,0,0:0:0:0:
448,192,17975,1,0,0:0:0:0:
64,192,18124,1,0,0:0:0:0:
448,192,18273,1,0,0:0:0:0:
320,192,18423,1,0,0:0:0:0:
64,192,18572,1,0,0:0:0:0:
192,192,18721,1,0,0:0:0:0:
448,192,18870,1,0,0:0:0:0:
192,192,19020,1,0,0:0:0:0:
320,192,19169,128,0,19467:0:0:0:0:
64,192,19467,1,0,0:0:0:0:
448,192,19467,1,0,0:0:0:0:
64,192,19915,1,0,0:0:0:0:
192,192,20064,1,0,0:0:0:0:
320,192,20214,1,0,0:0:0:0:
448,192,20363,1,0,0:0:0:0:
64,192,20512,1,0,0:0:0:0:
192,192,20661,1,0,0:0:0:0:
448,192,20811,1,0,0:0:0:0:
320,192,20960,1,0,0:0:0:0:
192,192,21109,1,0,0:0:0:0:
320,192,21258,1,0,0:0:0:0:
64,192,21408,1,0,0:0:0:0:
448,192,21557,128,0,21856:0:0:0:0:
320,192,21557,1,0,0:0:0:0:
192,192,21706,1,0,0:0:0:0:
64,192,21856,128,0,22154:0:0:0:0:
320,192,21856,1,0,0:0:0:0:
192,192,22005,1,0,0:0:0:0:
320,192,22154,1,0,0:0:0:0:
448,192,22303,1,0,0:0:0:0:
192,192,22453,128,0,22751:0:0:0:0:
64,192,22453,1,0,0:0:0:0:
320,192,22751,1,0,0:0:0:0:
448,192,22900,1,0,0:0:0:0:
320,192,23050,1,0,0:0:0:0:
64,192,23199,1,0,0:0:0:0:
192,192,23348,1,0,0:0:0:0:
448,192,23497,1,0,0:0:0:0:
320,192,23647,1,0,0:0:0:0:
64,192,23796,1,0,0:0:0:0:
192,192,23945,1,0,0:0:0:0:
64,192,24094,1,0,0:0:0:0:
448,192,24244,1,0,0:0:0:0:
192,192,24393,1,0,0:0:0:0:
64,192,24542,1,0,0:0:0:0:
320,192,24691,1,0,0:0:0:0:
448,192,24841,1,0,0:0:0:0:
64,192,24990,1,0,0:0:0:0:
192,192,25139,1,0,0:0:0:0:
448,192,25288,1,0,0:0:0:0:
320,192,25438,1,0,0:0:0:0:
64,192,25587,1,0,0:0:0:0:
192,192,25736,1,0,0:0:0:0:
448,192,25885,1,0,0:0:0:0:
320,192,26035,1,0,0:0:0:0:
64,192,26184,1,0,0:0:0:0:
448,192,26333,1,0,0:0:0:0:
192,192,26333,1,0,0:0:0:0:
192,192,26632,1,0,0:0:0:0:
64,192,26632,1,0,0:0:0:0:
64,192,26930,128,0,27229:0:0:0:0:
320,192,26930,1,0,0:0:0:0:
192,192,26930,1,0,0:0:0:0:
448,192,27229,128,0,27527:0:0:0:0:
320,192,27229,1,0,0:0:0:0:
64,192,27527,1,0,0:0:0:0:
192,192,27676,1,0,0:0:0:0:
320,192,27826,1,0,0:0:0:0:
64,192,27975,1,0,0:0:0:0:
448,192,28124,1,0,0:0:0:0:
192,192,28273,1,0,0:0:0:0:
320,192,28423,1,0,0:0:0:0:
192,192,28572,1,0,0:0:0:0:
64,192,28721,1,0,0:0:0:0:
320,192,29020,128,0,29467:0:0:0:0:
192,192,29020,1,0,0:0:0:0:
64,192,29467,128,0,29766:0:0:0:0:
448,192,29467,1,0,0:0:0:0:
192,192,29766,1,0,0:0:0:0:
448,192,29915,1,0,0:0:0:0:
320,192,30064,1,0,0:0:0:0:
192,192,30214,1,0,0:0:0:0:
64,192,30363,1,0,0:0:0:0:
192,192,30512,1,0,0:0:0:0:
320,192,30661,1,0,0:0:0:0:
448,192,30811,1,0,0:0:0:0:
320,192,30960,1,0,0:0:0:0:
64,192,31109,128,0,31706:0:0:0:0:
192,192,31109,1,0,0:0:0:0:
320,192,31258,1,0,0:0:0:0:
448,192,31408,1,0,0:0:0:0:
192,192,31557,1,0,0:0:0:0:
320,192,31706,1,0,0:0:0:0:
448,192,31856,1,0,0:0:0:0:
64,192,32005,128,0,32303:0:0:0:0:
320,192,32005,1,0,0:0:0:0:
192,192,32303,1,0,0:0:0:0:
448,192,32453,1,0,0:0:0:0:
64,192,32751,1,0,0:0:0:0:
320,192,32900,1,0,0:0:0:0:
64,192,33050,1,0,0:0:0:0:
448,192,33348,1,0,0:0:0:0:
192,192,33497,1,0,0:0:0:0:
448,192,33647,1,0,0:0:0:0:
320,192,33945,1,0,0:0:0:0:
64,192,34094,1,0,0:0:0:0:
320,192,34244,1,0,0:0:0:0:
192,192,34542,1,0,0:0:0:0:
448,192,34691,1,0,0:0:0:0:
192,192,34841,1,0,0:0:0:0:
448,192,35139,1,0,0:0:0:0:
64,192,35288,1,0,0:0:0:0:
448,192,35438,1,0,0:0:0:0:
64,192,35736,1,0,0:0:0:0:
448,192,35885,1,0,0:0:0:0:
64,192,36035,1,0,0:0:0:0:
192,192,36333,1,0,0:0:0:0:
448,192,36482,1,0,0:0:0:0:
64,192,36632,1,0,0:0:0:0:
320,192,36930,1,0,0:0:0:0:
64,192,37079,1,0,0:0:0:0:
192,192,37229,1,0,0:0:0:0:
448,192,37378,1,0,0:0:0:0:
320,192,37527,1,0,0:0:0:0:
64,192,37676,1,0,0:0:0:0:
192,192,37826,1,0,0:0:0:0:
448,192,37975,1,0,0:0:0:0:
192,192,38124,1,0,0:0:0:0:
320,192,38273,1,0,0:0:0:0:
448,192,38423,1,0,0:0:0:0:
192,192,38572,1,0,0:0:0:0:
64,192,38721,1,0,0:0:0:0:
448,192,38870,1,0,0:0:0:0:
320,192,39020,1,0,0:0:0:0:
64,192,39169,1,0,0:0:0:0:
192,192,39318,1,0,0:0:0:0:
320,192,39467,1,0,0:0:0:0:
192,192,39617,1,0,0:0:0:0:
448,192,39766,1,0,0:0:0:0:
320,192,39915,1,0,0:0:0:0:
192,192,40064,1,0,0:0:0:0:
320,192,40214,1,0,0:0:0:0:
64,192,40363,128,0,40661:0:0:0:0:
448,192,40363,1,0,0:0:0:0:
320,192,40661,1,0,0:0:0:0:
192,192,40885,1,0,0:0:0:0:
64,192,41109,1,0,0:0:0:0:
448,192,41258,128,0,41557:0:0:0:0:
320,192,41258,1,0,0:0:0:0:
192,192,41557,128,0,41856:0:0:0:0:
64,192,41856,1,0,0:0:0:0:
320,192,42005,1,0,0:0:0:0:
448,192,42154,1,0,0:0:0:0:
192,192,42303,1,0,0:0:0:0:
64,192,42453,1,0,0:0:0:0:
320,192,42602,1,0,0:0:0:0:
192,192,42751,1,0,0:0:0:0:
64,192,42900,1,0,0:0:0:0:
320,192,43050,1,0,0:0:0:0:
448,192,43199,1,0,0:0:0:0:
192,192,43348,1,0,0:0:0:0:
320,192,43497,1,0,0:0:0:0:
448,192,43647,1,0,0:0:0:0:
192,192,43796,1,0,0:0:0:0:
320,192,43945,1,0,0:0:0:0:
192,192,44094,1,0,0:0:0:0:
64,192,44244,128,0,44542:0:0:0:0:
448,192,44244,1,0,0:0:0:0:
320,192,44542,1,0,0:0:0:0:
448,192,44691,1,0,0:0:0:0:
320,192,44841,1,0,0:0:0:0:
192,192,44990,1,0,0:0:0:0:
448,192,45139,1,0,0:0:0:0:
192,192,45288,1,0,0:0:0:0:
64,192,45438,128,0,45885:0:0:0:0:
320,192,45438,1,0,0:0:0:0:
192,192,45885,128,0,46035:0:0:0:0:
448,192,46035,128,0,46333:0:0:0:0:
320,192,46333,1,0,0:0:0:0:
64,192,46632,1,0,0:0:0:0:
448,192,46930,1,0,0:0:0:0:
320,192,47079,1,0,0:0:0:0:
192,192,47229,1,0,0:0:0:0:
64,192,47527,1,0,0:0:0:0:
448,192,47826,128,0,48124:0:0:0:0:
64,192,48124,128,0,48273:0:0:0:0:
320,192,48273,128,0,48423:0:0:0:0:
192,192,48423,128,0,48721:0:0:0:0:
448,192,48721,1,0,0:0:0:0:
192,192,49020,128,0,49617:0:0:0:0:
320,192,49020,1,0,0:0:0:0:
320,192,49617,128,0,50214:0:0:0:0:
64,192,50214,128,0,50512:0:0:0:0:
192,192,50512,1,0,0:0:0:0:
320,192,50661,1,0,0:0:0:0:
448,192,50811,1,0,0:0:0:0:
64,192,51109,1,0,0:0:0:0:
192,192,51408,1,0,0:0:0:0:
64,192,51557,1,0,0:0:0:0:
448,192,51706,1,0,0:0:0:0:
320,192,51856,1,0,0:0:0:0:
64,192,52005,1,0,0:0:0:0:
192,192,52154,1,0,0:0:0:0:
448,192,52303,1,0,0:0:0:0:
320,192,52453,1,0,0:0:0:0:
64,192,52602,1,0,0:0:0:0:
192,192,52602,128,0,53050:0:0:0:0:
320,192,53050,1,0,0:0:0:0:
64,192,53199,1,0,0:0:0:0:
320,192,53348,1,0,0:0:0:0:
448,192,53497,1,0,0:0:0:0:
192,192,53647,1,0,0:0:0:0:
64,192,53796,1,0,0:0:0:0:
320,192,54020,1,0,0:0:0:0:
448,192,54244,128,0,54691:0:0:0:0:
64,192,54244,1,0,0:0:0:0:
320,192,54691,1,0,0:0:0:0:
64,192,54841,1,0,0:0:0:0:
192,192,54990,1,0,0:0:0:0:
448,192,55214,1,0,0:0:0:0:
64,192,55438,128,0,55736:0:0:0:0:
192,192,55438,1,0,0:0:0:0:
320,192,55736,1,0,0:0:0:0:
192,192,55885,1,0,0:0:0:0:
448,192,56035,1,0,0:0:0:0:
320,192,56184,1,0,0:0:0:0:
64,192,56408,1,0,0:0:0:0:
192,192,56632,1,0,0:0:0:0:
448,192,56781,1,0,0:0:0:0:
320,192,57005,1,0,0:0:0:0:
64,192,57229,1,0,0:0:0:0:
448,192,57378,128,0,57975:0:0:0:0:
192,192,57378,1,0,0:0:0:0:
64,192,57975,1,0,0:0:0:0:
192,192,58273,1,0,0:0:0:0:
320,192,58572,1,0,0:0:0:0:
448,192,58796,1,0,0:0:0:0:
192,192,59020,1,0,0:0:0:0:
64,192,59318,1,0,0:0:0:0:
448,192,59467,1,0,0:0:0:0:
192,192,59617,1,0,0:0:0:0:
320,192,59766,1,0,0:0:0:0:
64,192,59915,1,0,0:0:0:0:
448,192,59915,1,0,0:0:0:0:
192,192,60064,1,0,0:0:0:0:
320,192,60363,1,0,0:0:0:0:
64,192,60512,1,0,0:0:0:0:
192,192,60661,1,0,0:0:0:0:
448,192,60811,1,0,0:0:0:0:
320,192,60960,128,0,61184:0:0:0:0:
192,192,60960,1,0,0:0:0:0:
64,192,61184,1,0,0:0:0:0:
192,192,61408,1,0,0:0:0:0:
64,192,61557,128,0,61781:0:0:0:0:
448,192,61557,1,0,0:0:0:0:
320,192,61781,1,0,0:0:0:0:
448,192,62005,1,0,0:0:0:0:
192,192,62154,1,0,0:0:0:0:
320,192,62378,1,0,0:0:0:0:
192,192,62602,1,0,0:0:0:0:
64,192,62751,1,0,0:0:0:0:
448,192,62900,1,0,0:0:0:0:
320,192,63050,1,0,0:0:0:0:
192,192,63199,128,0,63647:0:0:0:0:
64,192,63647,1,0,0:0:0:0:
448,192,63796,1,0,0:0:0:0:
192,192,63945,1,0,0:0:0:0:
64,192,64094,1,0,0:0:0:0:
192,192,64244,1,0,0:0:0:0:
320,192,64393,1,0,0:0:0:0:
192,192,64542,1,0,0:0:0:0:
320,192,64766,1,0,0:0:0:0:
448,192,64990,128,0,65288:0:0:0:0:
64,192,64990,1,0,0:0:0:0:
192,192,65288,1,0,0:0:0:0:
64,192,65438,1,0,0:0:0:0:
192,192,65587,1,0,0:0:0:0:
320,192,65736,128,0,65960:0:0:0:0:
448,192,65736,1,0,0:0:0:0:
192,192,65960,1,0,0:0:0:0:
64,192,66184,1,0,0:0:0:0:
320,192,66333,1,0,0:0:0:0:
448,192,66557,1,0,0:0:0:0:
320,192,66781,1,0,0:0:0:0:
64,192,66930,128,0,67527:0:0:0:0:
192,192,66930,1,0,0:0:0:0:
448,192,67527,128,0,67826:0:0:0:0:
320,192,67527,1,0,0:0:0:0:
192,192,67826,1,0,0:0:0:0:
320,192,68124,128,0,68423:0:0:0:0:
64,192,68124,1,0,0:0:0:0:
192,192,68423,128,0,68721:0:0:0:0:
64,192,68721,1,0,0:0:0:0:
448,192,68870,1,0,0:0:0:0:
64,192,69020,128,0,69318:0:0:0:0:
320,192,69020,1,0,0:0:0:0:
192,192,69318,1,0,0:0:0:0:
448,192,69617,1,0,0:0:0:0:
192,192,69915,1,0,0:0:0:0:
448,192,70214,128,0,70512:0:0:0:0:
320,192,70214,1,0,0:0:0:0:
64,192,70512,1,0,0:0:0:0:
320,192,70661,1,0,0:0:0:0:
192,192,70811,1,0,0:0:0:0:
448,192,70960,1,0,0:0:0:0:
64,192,71109,1,0,0:0:0:0:
320,192,71258,1,0,0:0:0:0:
192,192,71408,1,0,0:0:0:0:
448,192,71557,1,0,0:0:0:0:
64,192,71706,1,0,0:0:0:0:
192,192,71856,1,0,0:0:0:0:
320,192,72005,1,0,0:0:0:0:
448,192,72154,1,0,0:0:0:0:
192,192,72303,1,0,0:0:0:0:
320,192,72453,1,0,0:0:0:0:
64,192,72602,1,0,0:0:0:0:
192,192,72751,1,0,0:0:0:0:
320,192,72900,5,0,0:0:0:0:
448,192,72900,128,0,75288:0:0:0:0:
64,192,73497,1,0,0:0:0:0:
320,192,74094,1,0,0:0:0:0:
64,192,74691,1,0,0:0:0:0:
192,192,75288,128,0,76482:0:0:0:0:
320,192,75288,1,0,0:0:0:0:
64,192,75885,1,0,0:0:0:0:
320,192,76482,1,0,0:0:0:0:
448,192,76632,1,0,0:0:0:0:
320,192,76781,1,0,0:0:0:0:
192,192,76930,1,0,0:0:0:0:
448,192,77079,1,0,0:0:0:0:
64,192,77229,1,0,0:0:0:0:
192,192,77378,1,0,0:0:0:0:
448,192,77527,1,0,0:0:0:0:
320,192,77676,1,0,0:0:0:0:
64,192,77676,128,0,78870:0:0:0:0:
448,192,78273,1,0,0:0:0:0:
192,192,78870,128,0,80064:0:0:0:0:
320,192,78870,1,0,0:0:0:0:
64,192,79467,1,0,0:0:0:0:
448,192,80064,128,0,81258:0:0:0:0:
320,192,80064,1,0,0:0:0:0:
192,192,80736,1,0,0:0:0:0:
320,192,81258,128,0,81856:0:0:0:0:
64,192,81258,1,0,0:0:0:0:
192,192,81856,128,0,82453:0:0:0:0:
448,192,82453,1,0,0:0:0:0:
64,192,82602,1,0,0:0:0:0:
192,192,82751,1,0,0:0:0:0:
448,192,82900,1,0,0:0:0:0:
320,192,83050,1,0,0:0:0:0:
192,192,83199,1,0,0:0:0:0:
64,192,83348,1,0,0:0:0:0:
320,192,83497,1,0,0:0:0:0:
192,192,83647,1,0,0:0:0:0:
448,192,83796,1,0,0:0:0:0:
64,192,83945,1,0,0:0:0:0:
192,192,84094,1,0,0:0:0:0:
448,192,84244,1,0,0:0:0:0:
320,192,84393,1,0,0:0:0:0:
64,192,84542,1,0,0:0:0:0:
448,192,84691,1,0,0:0:0:0:
320,192,84841,1,0,0:0:0:0:
192,192,84990,1,0,0:0:0:0:
448,192,85139,1,0,0:0:0:0:
64,192,85288,1,0,0:0:0:0:
192,192,85438,1,0,0:0:0:0:
320,192,85587,1,0,0:0:0:0:
448,192,85736,1,0,0:0:0:0:
64,192,85885,1,0,0:0:0:0:
320,192,86035,1,0,0:0:0:0:
64,192,86184,1,0,0:0:0:0:
448,192,86333,1,0,0:0:0:0:
192,192,86482,1,0,0:0:0:0:
320,192,86632,1,0,0:0:0:0:
192,192,86781,1,0,0:0:0:0:
64,192,86930,1,0,0:0:0:0:
320,192,87079,1,0,0:0:0:0:
448,192,87229,128,0,87826:0:0:0:0:
192,192,87229,1,0,0:0:0:0:
320,192,87826,128,0,88423:0:0:0:0:
64,192,87826,1,0,0:0:0:0:
64,192,88423,128,0,89020:0:0:0:0:
192,192,88423,1,0,0:0:0:0:
448,192,89020,128,0,89617:0:0:0:0:
320,192,89020,1,0,0:0:0:0:
64,192,89617,128,0,90811:0:0:0:0:
192,192,89617,1,0,0:0:0:0:
320,192,89915,1,0,0:0:0:0:
192,192,90214,1,0,0:0:0:0:
320,192,90512,1,0,0:0:0:0:
448,192,90811,5,0,0:0:0:0:
192,192,90811,1,0,0:0:0:0:
192,192,91408,1,0,0:0:0:0:
448,192,91557,1,0,0:0:0:0:
320,192,91706,1,0,0:0:0:0:
192,192,91856,1,0,0:0:0:0:
64,192,92005,128,0,92602:0:0:0:0:
320,192,92005,1,0,0:0:0:0:
448,192,92602,1,0,0:0:0:0:
192,192,92900,128,0,93199:0:0:0:0:
320,192,92900,1,0,0:0:0:0:
64,192,93199,5,0,0:0:0:0:
320,192,93423,1,0,0:0:0:0:
64,192,93647,1,0,0:0:0:0:
320,192,94094,128,0,94393:0:0:0:0:
192,192,94094,1,0,0:0:0:0:
448,192,94393,1,0,0:0:0:0:
192,192,94542,1,0,0:0:0:0:
448,192,94841,1,0,0:0:0:0:
192,192,95139,1,0,0:0:0:0:
320,192,95288,1,0,0:0:0:0:
448,192,95438,1,0,0:0:0:0:
64,192,95587,128,0,96184:0:0:0:0:
192,192,95587,1,0,0:0:0:0:
448,192,95885,1,0,0:0:0:0:
320,192,96184,1,0,0:0:0:0:
448,192,96333,1,0,0:0:0:0:
192,192,96632,1,0,0:0:0:0:
448,192,96781,128,0,97378:0:0:0:0:
320,192,96781,1,0,0:0:0:0:
64,192,97378,1,0,0:0:0:0:
320,192,97676,1,0,0:0:0:0:
64,192,97975,1,0,0:0:0:0:
320,192,98124,1,0,0:0:0:0:
192,192,98423,1,0,0:0:0:0:
448,192,98572,1,0,0:0:0:0:
64,192,98721,1,0,0:0:0:0:
448,192,98870,1,0,0:0:0:0:
192,192,99020,1,0,0:0:0:0:
64,192,99169,1,0,0:0:0:0:
448,192,99318,1,0,0:0:0:0:
320,192,99467,1,0,0:0:0:0:
64,192,99766,1,0,0:0:0:0:
320,192,99915,1,0,0:0:0:0:
192,192,100064,1,0,0:0:0:0:
448,192,100214,1,0,0:0:0:0:
64,192,100363,1,0,0:0:0:0:
320,192,100512,1,0,0:0:0:0:
448,192,100811,1,0,0:0:0:0:
64,192,100960,1,0,0:0:0:0:
448,192,101109,1,0,0:0:0:0:
320,192,101408,1,0,0:0:0:0:
192,192,101557,1,0,0:0:0:0:
64,192,101706,1,0,0:0:0:0:
320,192,102005,1,0,0:0:0:0:
448,192,102154,1,0,0:0:0:0:
320,192,102453,1,0,0:0:0:0:
192,192,102751,128,0,103050:0:0:0:0:
448,192,102751,1,0,0:0:0:0:
64,192,103050,128,0,103647:0:0:0:0:
320,192,103050,1,0,0:0:0:0:
448,192,103348,1,0,0:0:0:0:
320,192,103647,128,0,103945:0:0:0:0:
64,192,103945,128,0,104094:0:0:0:0:
192,192,104094,128,0,104393:0:0:0:0:
320,192,104393,128,0,104691:0:0:0:0:
448,192,104691,1,0,0:0:0:0:
64,192,104841,1,0,0:0:0:0:
320,192,104990,1,0,0:0:0:0:
192,192,105139,128,0,105438:0:0:0:0:
64,192,105139,1,0,0:0:0:0:
448,192,105438,1,0,0:0:0:0:
64,192,105587,1,0,0:0:0:0:
320,192,105736,128,0,106035:0:0:0:0:
448,192,105736,1,0,0:0:0:0:
64,192,106035,1,0,0:0:0:0:
448,192,106184,1,0,0:0:0:0:
64,192,106333,128,0,106930:0:0:0:0:
192,192,106333,1,0,0:0:0:0:
448,192,106930,128,0,107229:0:0:0:0:
320,192,107229,1,0,0:0:0:0:
192,192,107527,1,0,0:0:0:0:
64,192,107826,128,0,108273:0:0:0:0:
320,192,107826,1,0,0:0:0:0:
192,192,108273,1,0,0:0:0:0:
448,192,108423,128,0,108721:0:0:0:0:
64,192,108721,1,0,0:0:0:0:
192,192,109020,128,0,109617:0:0:0:0:
320,192,109020,1,0,0:0:0:0:
448,192,109617,128,0,109915:0:0:0:0:
64,192,109915,1,0,0:0:0:0:
192,192,110064,1,0,0:0:0:0:
448,192,110214,1,0,0:0:0:0:
320,192,110363,1,0,0:0:0:0:
64,192,110512,1,0,0:0:0:0:
192,192,110661,1,0,0:0:0:0:
448,192,110811,1,0,0:0:0:0:
320,192,110960,1,0,0:0:0:0:
64,192,111109,1,0,0:0:0:0:
192,192,111258,1,0,0:0:0:0:
320,192,111408,1,0,0:0:0:0:
192,192,111557,1,0,0:0:0:0:
448,192,111706,1,0,0:0:0:0:
64,192,111856,1,0,0:0:0:0:
320,192,112005,1,0,0:0:0:0:
192,192,112154,1,0,0:0:0:0:
448,192,112303,128,0,114691:0:0:0:0:
320,192,112303,1,0,0:0:0:0:
64,192,114691,128,0,117079:0:0:0:0:
192,192,117079,1,0,0:0:0:0:
448,192,117079,1,0,0:0:0:0:
