osu file format v13

[General]
AudioFilename: newworld.mp3
AudioLeadIn: 0
PreviewTime: 81984
Countdown: 0
SampleSet: Soft
StackLeniency: 0.7
Mode: 3
LetterboxInBreaks: 0
SpecialStyle: 1
WidescreenStoryboard: 0

[Editor]
DistanceSpacing: 0.8
BeatDivisor: 4
GridSize: 32
TimelineZoom: 0.6999999

[Metadata]
Title:New World (Shin Sekai)
TitleUnicode:New World (Shin Sekai)
Artist:cosMo@Bousou-P feat. Hatsune Miku
ArtistUnicode:cosMo@Bousou-P feat. Hatsune Miku
Creator:huycoihn
Version:NM
Source:
Tags:Vocaloid, stream, mania
BeatmapID:441961
BeatmapSetID:184648

[Difficulty]
HPDrainRate:6
CircleSize:4
OverallDifficulty:7
ApproachRate:5
SliderMultiplier:1.4
SliderTickRate:1

[Events]
//Background and Video events
0,0,"vocaloid indoors hatsune miku room cleavage long hair shadows plants barefoot instruments guitars pi_www.wallpaperhi.com_85 (1).jpg",0,0
//Break Periods
//Storyboard Layer 0 (Background)
//Storyboard Layer 1 (Fail)
//Storyboard Layer 2 (Pass)
//Storyboard Layer 3 (Foreground)
//Storyboard Sound Samples
//Background Colour Transformations
3,100,163,162,255

[TimingPoints]
1003,368.098159509202,4,2,1,100,1,0
28978,-100,4,2,1,80,0,1
64315,-100,4,2,1,80,0,0
81984,-100,4,2,1,80,0,1
133518,-100,4,2,1,80,0,0

[HitObjects]
192,192,1002,5,2,0:0:0:0:
64,192,1371,1,2,0:0:0:0:
448,192,1371,1,2,0:0:0:0:
320,192,1739,1,2,0:0:0:0:
448,192,2107,1,2,0:0:0:0:
64,192,2107,1,2,0:0:0:0:
192,192,2475,1,0,0:0:0:0:
320,192,2751,1,0,0:0:0:0:
448,192,3027,1,0,0:0:0:0:
64,192,3947,128,0,4499:0:0:0:0:
448,192,3947,128,0,4499:0:0:0:0:
192,192,4223,1,0,0:0:0:0:
320,192,4499,1,0,0:0:0:0:
192,192,5420,128,0,5972:0:0:0:0:
448,192,5420,128,0,5972:0:0:0:0:
320,192,5696,1,0,0:0:0:0:
64,192,5972,1,0,0:0:0:0:
192,192,6892,128,0,7444:0:0:0:0:
320,192,6892,128,0,7444:0:0:0:0:
448,192,7168,1,0,0:0:0:0:
64,192,7444,1,0,0:0:0:0:
64,192,7996,1,0,0:0:0:0:
192,192,8364,128,0,8917:0:0:0:0:
448,192,8364,128,0,8917:0:0:0:0:
320,192,8641,1,0,0:0:0:0:
64,192,8917,1,0,0:0:0:0:
320,192,9285,1,0,0:0:0:0:
192,192,9561,1,0,0:0:0:0:
64,192,9837,1,0,0:0:0:0:
192,192,10082,1,0,0:0:0:0:
320,192,10328,1,0,0:0:0:0:
448,192,10573,128,0,11309:0:0:0:0:
320,192,11309,128,0,11861:0:0:0:0:
192,192,11861,1,0,0:0:0:0:
64,192,12045,1,0,0:0:0:0:
448,192,12229,1,0,0:0:0:0:
64,192,12782,1,8,0:0:0:0:
448,192,12782,1,8,0:0:0:0:
192,192,13518,1,0,0:0:0:0:
320,192,13886,1,0,0:0:0:0:
64,192,14254,128,0,15726:0:0:0:0:
192,192,15726,128,0,17199:0:0:0:0:
320,192,17199,128,0,18671:0:0:0:0:
192,192,18671,128,0,19407:0:0:0:0:
320,192,19407,128,0,20144:0:0:0:0:
192,192,20144,128,0,21616:0:0:0:0:
64,192,21616,128,0,22352:0:0:0:0:
192,192,22352,128,0,23088:0:0:0:0:
64,192,23088,128,0,23825:0:0:0:0:
192,192,24561,1,8,0:0:0:0:
320,192,24561,1,0,0:0:0:0:
64,192,25542,1,0,0:0:0:0:
192,192,25910,1,0,0:0:0:0:
320,192,26279,1,0,0:0:0:0:
448,192,26769,1,0,0:0:0:0:
64,192,27506,128,0,28242:0:0:0:0:
448,192,28242,128,0,29162:0:0:0:0:
192,192,29162,1,0,0:0:0:0:
320,192,29346,1,0,0:0:0:0:
64,192,29530,1,0,0:0:0:0:
448,192,29622,1,0,0:0:0:0:
320,192,29898,1,0,0:0:0:0:
192,192,30082,1,0,0:0:0:0:
64,192,30266,1,0,0:0:0:0:
448,192,30358,128,0,31187:0:0:0:0:
192,192,31187,1,0,0:0:0:0:
320,192,31371,1,0,0:0:0:0:
448,192,31555,1,0,0:0:0:0:
192,192,32107,1,0,0:0:0:0:
320,192,32291,1,0,0:0:0:0:
64,192,32475,1,0,0:0:0:0:
448,192,32567,1,0,0:0:0:0:
192,192,33027,1,0,0:0:0:0:
64,192,33211,1,0,0:0:0:0:
448,192,33303,1,0,0:0:0:0:
320,192,34131,1,0,0:0:0:0:
192,192,34315,1,0,0:0:0:0:
320,192,34499,1,0,0:0:0:0:
64,192,34868,1,0,0:0:0:0:
320,192,35236,1,0,0:0:0:0:
448,192,35604,1,0,0:0:0:0:
192,192,35972,1,0,0:0:0:0:
64,192,36340,1,0,0:0:0:0:
320,192,36708,1,0,0:0:0:0:
64,192,37076,1,0,0:0:0:0:
320,192,37260,1,0,0:0:0:0:
192,192,37352,1,0,0:0:0:0:
64,192,38549,128,0,39653:0:0:0:0:
320,192,38549,128,0,39653:0:0:0:0:
192,192,39653,128,0,40021:0:0:0:0:
448,192,39653,128,0,40021:0:0:0:0:
320,192,40021,128,0,40389:0:0:0:0:
64,192,40021,128,0,40389:0:0:0:0:
64,192,40757,1,0,0:0:0:0:
64,192,41125,1,0,0:0:0:0:
320,192,41493,1,0,0:0:0:0:
192,192,41861,1,0,0:0:0:0:
320,192,42229,1,0,0:0:0:0:
192,192,42598,1,0,0:0:0:0:
64,192,42966,1,0,0:0:0:0:
192,192,43334,1,0,0:0:0:0:
320,192,43702,1,0,0:0:0:0:
192,192,44070,1,0,0:0:0:0:
64,192,44438,1,0,0:0:0:0:
192,192,44806,1,0,0:0:0:0:
320,192,45174,1,0,0:0:0:0:
192,192,45542,1,0,0:0:0:0:
320,192,45910,1,0,0:0:0:0:
64,192,46647,1,0,0:0:0:0:
320,192,46831,1,0,0:0:0:0:
448,192,46923,1,0,0:0:0:0:
320,192,47383,128,0,48119:0:0:0:0:
448,192,48119,128,0,48855:0:0:0:0:
192,192,49039,1,0,0:0:0:0:
64,192,49131,1,0,0:0:0:0:
192,192,49683,1,0,0:0:0:0:
320,192,49776,1,0,0:0:0:0:
320,192,50328,128,0,51064:0:0:0:0:
192,192,50328,1,0,0:0:0:0:
448,192,51432,128,0,51800:0:0:0:0:
320,192,51432,1,0,0:0:0:0:
192,192,51800,128,0,52352:0:0:0:0:
64,192,51800,1,0,0:0:0:0:
320,192,52536,1,0,0:0:0:0:
64,192,52996,1,0,0:0:0:0:
192,192,53641,1,0,0:0:0:0:
64,192,54009,1,0,0:0:0:0:
448,192,54377,1,0,0:0:0:0:
448,192,54745,1,0,0:0:0:0:
320,192,55113,1,0,0:0:0:0:
320,192,55481,128,0,56953:0:0:0:0:
448,192,56953,128,0,58426:0:0:0:0:
320,192,58426,1,0,0:0:0:0:
64,192,58794,1,0,0:0:0:0:
320,192,58978,1,0,0:0:0:0:
192,192,59346,1,0,0:0:0:0:
448,192,59530,1,0,0:0:0:0:
64,192,59898,1,0,0:0:0:0:
320,192,60082,1,0,0:0:0:0:
192,192,60450,1,0,0:0:0:0:
448,192,60634,1,0,0:0:0:0:
64,192,60818,1,0,0:0:0:0:
192,192,61002,1,0,0:0:0:0:
320,192,61187,1,0,0:0:0:0:
448,192,61371,1,0,0:0:0:0:
192,192,61739,1,0,0:0:0:0:
320,192,61923,1,0,0:0:0:0:
64,192,62291,1,0,0:0:0:0:
448,192,62475,1,0,0:0:0:0:
192,192,62843,1,0,0:0:0:0:
320,192,63027,1,0,0:0:0:0:
64,192,63395,1,0,0:0:0:0:
448,192,63579,1,0,0:0:0:0:
64,192,63763,1,0,0:0:0:0:
192,192,63947,1,0,0:0:0:0:
320,192,64131,1,0,0:0:0:0:
448,192,64315,1,0,0:0:0:0:
448,192,65052,1,0,0:0:0:0:
64,192,65788,1,0,0:0:0:0:
64,192,66524,1,0,0:0:0:0:
320,192,67260,1,0,0:0:0:0:
320,192,67996,1,0,0:0:0:0:
320,192,68733,1,0,0:0:0:0:
448,192,68917,1,0,0:0:0:0:
320,192,69101,1,0,0:0:0:0:
192,192,69285,1,0,0:0:0:0:
64,192,69469,1,0,0:0:0:0:
192,192,69653,1,0,0:0:0:0:
320,192,69837,1,0,0:0:0:0:
448,192,70021,1,0,0:0:0:0:
64,192,70205,128,0,71677:0:0:0:0:
448,192,70573,1,0,0:0:0:0:
192,192,70941,1,0,0:0:0:0:
448,192,71309,1,0,0:0:0:0:
448,192,71677,128,0,73150:0:0:0:0:
64,192,72045,1,0,0:0:0:0:
320,192,72414,1,0,0:0:0:0:
64,192,72782,1,0,0:0:0:0:
192,192,73150,128,0,74622:0:0:0:0:
448,192,73518,1,0,0:0:0:0:
64,192,73886,1,0,0:0:0:0:
448,192,74254,1,0,0:0:0:0:
320,192,74622,128,0,76095:0:0:0:0:
64,192,74990,1,0,0:0:0:0:
448,192,75358,1,0,0:0:0:0:
64,192,75726,1,0,0:0:0:0:
64,192,76095,128,0,79039:0:0:0:0:
448,192,76095,128,0,79039:0:0:0:0:
192,192,76831,1,0,0:0:0:0:
320,192,77567,1,0,0:0:0:0:
192,192,78303,1,0,0:0:0:0:
192,192,79039,1,8,0:0:0:0:
320,192,79039,1,8,0:0:0:0:
64,192,79407,1,0,0:0:0:0:
448,192,79776,1,0,0:0:0:0:
64,192,80144,1,0,0:0:0:0:
448,192,80512,1,0,0:0:0:0:
192,192,80880,1,0,0:0:0:0:
320,192,81248,1,0,0:0:0:0:
192,192,81616,1,0,0:0:0:0:
64,192,81984,1,0,0:0:0:0:
320,192,82352,1,0,0:0:0:0:
192,192,82720,1,0,0:0:0:0:
64,192,83088,1,0,0:0:0:0:
192,192,83456,1,0,0:0:0:0:
320,192,83825,1,0,0:0:0:0:
192,192,84193,1,0,0:0:0:0:
448,192,84561,1,0,0:0:0:0:
320,192,84929,1,0,0:0:0:0:
192,192,85297,1,0,0:0:0:0:
448,192,85665,1,0,0:0:0:0:
320,192,86033,1,0,0:0:0:0:
320,192,86401,1,0,0:0:0:0:
192,192,86769,1,0,0:0:0:0:
64,192,87137,1,0,0:0:0:0:
64,192,87506,1,0,0:0:0:0:
192,192,87874,1,0,0:0:0:0:
192,192,88242,1,0,0:0:0:0:
320,192,88610,1,0,0:0:0:0:
320,192,88978,1,0,0:0:0:0:
448,192,89346,1,0,0:0:0:0:
448,192,89714,1,0,0:0:0:0:
320,192,90082,1,0,0:0:0:0:
320,192,90450,1,0,0:0:0:0:
64,192,90818,1,0,0:0:0:0:
448,192,91002,1,0,0:0:0:0:
64,192,91187,1,0,0:0:0:0:
448,192,91371,1,0,0:0:0:0:
64,192,91555,1,0,0:0:0:0:
448,192,91739,1,0,0:0:0:0:
64,192,91923,1,0,0:0:0:0:
448,192,92107,1,0,0:0:0:0:
192,192,92291,128,0,93763:0:0:0:0:
320,192,92291,128,0,93763:0:0:0:0:
448,192,93763,1,0,0:0:0:0:
64,192,93763,1,0,0:0:0:0:
64,192,94131,1,0,0:0:0:0:
448,192,94131,1,0,0:0:0:0:
192,192,94499,1,0,0:0:0:0:
320,192,94683,1,0,0:0:0:0:
448,192,94868,1,0,0:0:0:0:
448,192,95236,1,0,0:0:0:0:
320,192,95420,1,0,0:0:0:0:
192,192,95604,1,0,0:0:0:0:
64,192,95788,1,0,0:0:0:0:
192,192,95972,1,0,0:0:0:0:
320,192,96156,1,0,0:0:0:0:
192,192,96340,1,0,0:0:0:0:
64,192,96524,1,0,0:0:0:0:
448,192,96708,1,0,0:0:0:0:
192,192,97076,1,0,0:0:0:0:
64,192,97444,1,0,0:0:0:0:
320,192,97812,1,0,0:0:0:0:
448,192,98180,1,0,0:0:0:0:
192,192,98549,1,0,0:0:0:0:
64,192,98917,1,0,0:0:0:0:
320,192,99285,1,0,0:0:0:0:
192,192,99653,1,0,0:0:0:0:
320,192,100021,1,0,0:0:0:0:
64,192,100389,1,0,0:0:0:0:
448,192,100573,1,0,0:0:0:0:
64,192,100757,1,0,0:0:0:0:
448,192,100941,1,0,0:0:0:0:
64,192,101125,1,0,0:0:0:0:
320,192,101309,1,0,0:0:0:0:
64,192,101493,1,0,0:0:0:0:
320,192,101677,1,0,0:0:0:0:
192,192,101861,1,0,0:0:0:0:
448,192,102045,1,0,0:0:0:0:
192,192,102229,1,0,0:0:0:0:
448,192,102414,1,0,0:0:0:0:
320,192,102598,1,0,0:0:0:0:
64,192,102966,1,0,0:0:0:0:
320,192,103334,1,0,0:0:0:0:
64,192,103702,1,0,0:0:0:0:
448,192,104070,1,0,0:0:0:0:
192,192,104438,1,0,0:0:0:0:
448,192,104806,1,0,0:0:0:0:
192,192,105174,1,0,0:0:0:0:
320,192,105358,1,0,0:0:0:0:
448,192,105542,1,0,0:0:0:0:
64,192,105542,1,0,0:0:0:0:
64,192,105726,1,0,0:0:0:0:
448,192,105726,1,0,0:0:0:0:
320,192,106279,1,0,0:0:0:0:
192,192,106555,1,0,0:0:0:0:
64,192,106831,1,0,0:0:0:0:
192,192,107199,1,0,0:0:0:0:
320,192,107475,1,0,0:0:0:0:
192,192,107751,1,0,0:0:0:0:
320,192,108027,1,0,0:0:0:0:
64,192,108671,1,0,0:0:0:0:
448,192,108947,1,0,0:0:0:0:
64,192,109223,1,0,0:0:0:0:
448,192,109499,1,0,0:0:0:0:
448,192,109960,1,0,0:0:0:0:
320,192,110144,1,0,0:0:0:0:
64,192,110236,1,0,0:0:0:0:
192,192,110512,1,0,0:0:0:0:
320,192,110696,1,0,0:0:0:0:
448,192,110880,1,0,0:0:0:0:
320,192,110972,1,0,0:0:0:0:
192,192,111248,1,0,0:0:0:0:
448,192,111432,1,0,0:0:0:0:
192,192,111708,1,0,0:0:0:0:
448,192,112168,1,0,0:0:0:0:
320,192,112352,1,0,0:0:0:0:
192,192,112536,1,0,0:0:0:0:
64,192,112720,1,0,0:0:0:0:
448,192,112904,1,0,0:0:0:0:
320,192,113088,1,0,0:0:0:0:
192,192,113272,1,0,0:0:0:0:
64,192,113456,1,0,0:0:0:0:
192,192,113641,1,0,0:0:0:0:
320,192,113825,1,0,0:0:0:0:
448,192,114009,1,0,0:0:0:0:
320,192,114193,1,0,0:0:0:0:
192,192,114377,1,0,0:0:0:0:
448,192,114561,1,0,0:0:0:0:
320,192,114745,1,0,0:0:0:0:
448,192,114929,1,0,0:0:0:0:
192,192,115113,1,0,0:0:0:0:
64,192,115297,1,0,0:0:0:0:
192,192,115481,1,0,0:0:0:0:
64,192,115665,1,0,0:0:0:0:
64,192,115849,128,0,118794:0:0:0:0:
192,192,115849,128,0,116401:0:0:0:0:
320,192,116401,128,0,116953:0:0:0:0:
448,192,116953,128,0,118794:0:0:0:0:
320,192,117506,128,0,118794:0:0:0:0:
192,192,118058,128,0,118794:0:0:0:0:
192,192,119530,1,0,0:0:0:0:
320,192,119530,1,0,0:0:0:0:
448,192,120266,1,0,0:0:0:0:
64,192,120266,1,0,0:0:0:0:
320,192,121002,1,0,0:0:0:0:
192,192,121002,1,0,0:0:0:0:
64,192,121739,1,0,0:0:0:0:
192,192,121923,1,0,0:0:0:0:
448,192,122107,1,0,0:0:0:0:
320,192,122291,1,0,0:0:0:0:
192,192,122475,1,0,0:0:0:0:
64,192,122659,1,0,0:0:0:0:
192,192,122843,1,0,0:0:0:0:
320,192,123027,1,0,0:0:0:0:
64,192,123211,1,0,0:0:0:0:
192,192,123395,1,0,0:0:0:0:
448,192,123579,128,0,123947:0:0:0:0:
64,192,123947,1,0,0:0:0:0:
192,192,124131,1,0,0:0:0:0:
320,192,124315,1,0,0:0:0:0:
448,192,124499,1,0,0:0:0:0:
320,192,124683,1,0,0:0:0:0:
192,192,124868,1,0,0:0:0:0:
64,192,125052,1,0,0:0:0:0:
192,192,125236,1,0,0:0:0:0:
320,192,125420,1,0,0:0:0:0:
448,192,125604,1,0,0:0:0:0:
320,192,125788,1,0,0:0:0:0:
192,192,125972,1,0,0:0:0:0:
64,192,126156,1,0,0:0:0:0:
448,192,126432,1,0,0:0:0:0:
64,192,126708,1,0,0:0:0:0:
448,192,126892,1,0,0:0:0:0:
192,192,127076,1,0,0:0:0:0:
320,192,127260,1,0,0:0:0:0:
64,192,127444,1,0,0:0:0:0:
64,192,127628,128,0,129101:0:0:0:0:
448,192,127996,1,0,0:0:0:0:
448,192,128364,1,0,0:0:0:0:
448,192,128733,1,0,0:0:0:0:
192,192,129101,128,0,130573:0:0:0:0:
448,192,129469,1,0,0:0:0:0:
448,192,129837,1,0,0:0:0:0:
448,192,130205,1,0,0:0:0:0:
320,192,130573,128,0,132045:0:0:0:0:
64,192,130941,1,0,0:0:0:0:
64,192,131309,1,0,0:0:0:0:
64,192,131677,1,0,0:0:0:0:
448,192,132045,128,0,133518:0:0:0:0:
64,192,132414,1,0,0:0:0:0:
64,192,132782,1,0,0:0:0:0:
64,192,133150,1,0,0:0:0:0:
192,192,133518,1,4,0:0:0:0:
64,192,133518,1,0,0:0:0:0:
64,192,136463,1,0,0:0:0:0:
448,192,136463,1,0,0:0:0:0:
192,192,136831,1,0,0:0:0:0:
320,192,137199,1,0,0:0:0:0:
192,192,137567,1,0,0:0:0:0:
320,192,137935,1,0,0:0:0:0:
192,192,138303,1,0,0:0:0:0:
320,192,138671,1,0,0:0:0:0:
192,192,139039,1,0,0:0:0:0:
320,192,139407,128,8,139776:0:0:0:0:
192,192,140144,128,8,140512:0:0:0:0:
64,192,140880,128,10,141248:0:0:0:0:
192,192,141616,128,10,141984:0:0:0:0:
320,192,142352,128,10,142720:0:0:0:0:
448,192,143088,128,10,143456:0:0:0:0:
320,192,143825,128,10,144193:0:0:0:0:
192,192,144561,128,10,144929:0:0:0:0:
64,192,145297,128,2,146769:0:0:0:0:
