osu file format v13

[General]
AudioFilename: newworld.mp3
AudioLeadIn: 0
PreviewTime: 81984
Countdown: 0
SampleSet: Soft
StackLeniency: 0.7
Mode: 3
LetterboxInBreaks: 0
SpecialStyle: 1
WidescreenStoryboard: 1

[Editor]
DistanceSpacing: 0.8
BeatDivisor: 4
GridSize: 32
TimelineZoom: 1

[Metadata]
Title:New World (Shin Sekai)
TitleUnicode:New World (Shin Sekai)
Artist:cosMo@Bousou-P feat. Hatsune Miku
ArtistUnicode:cosMo@Bousou-P feat. Hatsune Miku
Creator:huycoihn
Version:HD
Source:
Tags:Vocaloid, stream, mania, cosmo, miku, hatsune
BeatmapID:442564
BeatmapSetID:184648

[Difficulty]
HPDrainRate:8
CircleSize:4
OverallDifficulty:8
ApproachRate:5
SliderMultiplier:1.4
SliderTickRate:1

[Events]
//Background and Video events
0,0,"vocaloid indoors hatsune miku room cleavage long hair shadows plants barefoot instruments guitars pi_www.wallpaperhi.com_85 (1).jpg",0,0
//Break Periods
//Storyboard Layer 0 (Background)
//Storyboard Layer 1 (Fail)
//Storyboard Layer 2 (Pass)
//Storyboard Layer 3 (Foreground)
//Storyboard Sound Samples
//Background Colour Transformations
3,100,163,162,255

[TimingPoints]
1003,368.098159509202,4,2,1,100,1,0
28242,-100,4,2,1,80,0,1
64315,-100,4,2,1,80,0,0
81984,-100,4,2,1,80,0,1
133518,-100,4,2,1,80,0,0

[HitObjects]
64,192,1002,1,2,0:0:0:0:
448,192,1002,1,2,0:0:0:0:
64,192,1371,1,2,0:0:0:0:
448,192,1371,1,2,0:0:0:0:
64,192,1739,1,2,0:0:0:0:
448,192,1739,1,2,0:0:0:0:
64,192,2107,1,2,0:0:0:0:
448,192,2107,1,2,0:0:0:0:
448,192,2475,1,0,0:0:0:0:
448,192,2751,1,0,0:0:0:0:
320,192,3027,1,0,0:0:0:0:
64,192,3947,1,0,0:0:0:0:
64,192,4223,1,0,0:0:0:0:
192,192,4499,1,0,0:0:0:0:
320,192,5420,1,0,0:0:0:0:
320,192,5696,1,0,0:0:0:0:
192,192,5972,1,0,0:0:0:0:
192,192,6892,1,0,0:0:0:0:
192,192,7168,1,0,0:0:0:0:
320,192,7444,1,0,0:0:0:0:
448,192,8364,1,0,0:0:0:0:
448,192,8641,1,0,0:0:0:0:
64,192,8917,1,0,0:0:0:0:
192,192,9285,1,0,0:0:0:0:
192,192,9469,1,0,0:0:0:0:
320,192,9837,1,0,0:0:0:0:
320,192,10082,1,0,0:0:0:0:
448,192,10328,1,0,0:0:0:0:
448,192,10573,1,0,0:0:0:0:
192,192,11309,1,0,0:0:0:0:
320,192,11309,1,0,0:0:0:0:
192,192,11861,1,0,0:0:0:0:
64,192,12045,1,0,0:0:0:0:
320,192,12229,128,0,13518:0:0:0:0:
192,192,12229,1,0,0:0:0:0:
64,192,12414,1,0,0:0:0:0:
192,192,12598,1,0,0:0:0:0:
64,192,12782,1,0,0:0:0:0:
64,192,13886,1,0,0:0:0:0:
448,192,13886,1,0,0:0:0:0:
192,192,14254,128,10,15726:0:0:0:0:
448,192,14622,1,0,0:0:0:0:
320,192,14806,1,0,0:0:0:0:
448,192,15174,1,0,0:0:0:0:
320,192,15358,1,0,0:0:0:0:
320,192,15726,128,10,17199:0:0:0:0:
192,192,16095,1,0,0:0:0:0:
64,192,16279,1,0,0:0:0:0:
192,192,16647,1,0,0:0:0:0:
64,192,16831,1,0,0:0:0:0:
448,192,17199,128,10,18671:0:0:0:0:
320,192,17567,1,0,0:0:0:0:
192,192,17751,1,0,0:0:0:0:
320,192,18119,1,0,0:0:0:0:
192,192,18303,1,0,0:0:0:0:
320,192,18671,128,10,19407:0:0:0:0:
192,192,19039,1,0,0:0:0:0:
64,192,19223,1,0,0:0:0:0:
448,192,19407,128,10,20144:0:0:0:0:
192,192,19591,1,0,0:0:0:0:
64,192,19776,1,0,0:0:0:0:
320,192,20144,128,10,21616:0:0:0:0:
64,192,20512,1,0,0:0:0:0:
448,192,20696,1,0,0:0:0:0:
64,192,21064,1,0,0:0:0:0:
448,192,21248,1,0,0:0:0:0:
192,192,21616,128,10,22352:0:0:0:0:
448,192,21892,1,0,0:0:0:0:
448,192,22168,1,0,0:0:0:0:
320,192,22352,128,10,23088:0:0:0:0:
64,192,22628,1,0,0:0:0:0:
64,192,22904,1,0,0:0:0:0:
192,192,23088,128,10,24561:0:0:0:0:
320,192,24561,1,4,0:0:0:0:
64,192,25542,128,0,25910:0:0:0:0:
192,192,25910,128,0,26279:0:0:0:0:
320,192,26279,128,0,26708:0:0:0:0:
448,192,26708,128,0,28180:0:0:0:0:
64,192,28242,1,0,0:0:0:0:
192,192,28334,1,0,0:0:0:0:
320,192,28426,1,0,0:0:0:0:
448,192,28518,1,0,0:0:0:0:
320,192,28610,1,0,0:0:0:0:
192,192,28702,1,0,0:0:0:0:
64,192,28794,1,0,0:0:0:0:
448,192,29070,1,0,0:0:0:0:
320,192,29162,1,0,0:0:0:0:
192,192,29254,1,0,0:0:0:0:
64,192,29346,1,0,0:0:0:0:
192,192,29438,1,0,0:0:0:0:
320,192,29530,1,0,0:0:0:0:
448,192,29622,1,0,0:0:0:0:
64,192,29898,1,0,0:0:0:0:
320,192,30082,128,0,30266:0:0:0:0:
64,192,30266,1,0,0:0:0:0:
448,192,30358,1,0,0:0:0:0:
448,192,30634,1,0,0:0:0:0:
64,192,30818,1,0,0:0:0:0:
448,192,31002,1,0,0:0:0:0:
448,192,31187,1,0,0:0:0:0:
320,192,31279,1,0,0:0:0:0:
192,192,31371,1,0,0:0:0:0:
64,192,31463,1,0,0:0:0:0:
192,192,31555,1,0,0:0:0:0:
320,192,31647,1,0,0:0:0:0:
448,192,31739,1,0,0:0:0:0:
64,192,32107,1,0,0:0:0:0:
192,192,32199,1,0,0:0:0:0:
320,192,32291,1,0,0:0:0:0:
448,192,32383,1,0,0:0:0:0:
448,192,32567,1,0,0:0:0:0:
320,192,33027,1,0,0:0:0:0:
192,192,33211,1,0,0:0:0:0:
448,192,33303,1,0,0:0:0:0:
448,192,33579,1,0,0:0:0:0:
320,192,33763,1,0,0:0:0:0:
192,192,33947,1,0,0:0:0:0:
448,192,34131,1,0,0:0:0:0:
320,192,34223,1,0,0:0:0:0:
192,192,34315,1,0,0:0:0:0:
64,192,34407,1,0,0:0:0:0:
192,192,34499,1,0,0:0:0:0:
320,192,34591,1,0,0:0:0:0:
448,192,34683,1,0,0:0:0:0:
320,192,34776,1,0,0:0:0:0:
192,192,34868,1,0,0:0:0:0:
448,192,35052,128,0,37260:0:0:0:0:
320,192,35052,1,0,0:0:0:0:
64,192,35236,1,0,0:0:0:0:
320,192,35420,1,0,0:0:0:0:
64,192,35604,1,0,0:0:0:0:
320,192,35788,1,0,0:0:0:0:
64,192,35972,1,0,0:0:0:0:
320,192,36156,1,0,0:0:0:0:
64,192,36340,1,0,0:0:0:0:
320,192,36524,1,0,0:0:0:0:
64,192,36708,1,0,0:0:0:0:
320,192,36892,1,0,0:0:0:0:
64,192,37076,1,0,0:0:0:0:
320,192,37260,1,0,0:0:0:0:
320,192,37935,1,0,0:0:0:0:
192,192,38119,1,0,0:0:0:0:
320,192,38364,1,0,0:0:0:0:
448,192,38549,1,0,0:0:0:0:
320,192,38641,1,0,0:0:0:0:
192,192,38733,1,0,0:0:0:0:
64,192,38825,1,0,0:0:0:0:
192,192,38917,1,0,0:0:0:0:
320,192,39009,1,0,0:0:0:0:
448,192,39101,1,0,0:0:0:0:
448,192,39653,1,0,0:0:0:0:
320,192,39745,1,0,0:0:0:0:
192,192,39837,1,0,0:0:0:0:
320,192,40021,1,0,0:0:0:0:
448,192,40113,1,0,0:0:0:0:
320,192,40205,1,0,0:0:0:0:
448,192,40297,1,0,0:0:0:0:
320,192,40389,1,0,0:0:0:0:
192,192,40481,1,0,0:0:0:0:
64,192,40573,1,0,0:0:0:0:
192,192,40665,1,0,0:0:0:0:
320,192,40757,1,0,0:0:0:0:
448,192,40849,1,0,0:0:0:0:
192,192,40941,1,0,0:0:0:0:
64,192,41033,1,0,0:0:0:0:
192,192,41125,1,0,0:0:0:0:
320,192,41217,1,0,0:0:0:0:
448,192,41309,1,0,0:0:0:0:
320,192,41401,1,0,0:0:0:0:
64,192,41677,1,0,0:0:0:0:
192,192,41861,1,0,0:0:0:0:
64,192,42045,1,0,0:0:0:0:
448,192,42137,1,0,0:0:0:0:
448,192,42414,128,0,42598:0:0:0:0:
320,192,42598,128,0,42782:0:0:0:0:
448,192,42782,128,0,42966:0:0:0:0:
320,192,42966,1,0,0:0:0:0:
192,192,43058,1,0,0:0:0:0:
64,192,43150,1,0,0:0:0:0:
192,192,43242,1,0,0:0:0:0:
320,192,43334,1,0,0:0:0:0:
448,192,43426,1,0,0:0:0:0:
320,192,43518,1,0,0:0:0:0:
192,192,43610,1,0,0:0:0:0:
64,192,43886,1,0,0:0:0:0:
192,192,43978,1,0,0:0:0:0:
320,192,44070,1,0,0:0:0:0:
448,192,44162,1,0,0:0:0:0:
448,192,44346,1,0,0:0:0:0:
448,192,44806,1,0,0:0:0:0:
64,192,44990,1,0,0:0:0:0:
448,192,45082,1,0,0:0:0:0:
448,192,45358,1,0,0:0:0:0:
320,192,45542,1,0,0:0:0:0:
192,192,45726,1,0,0:0:0:0:
192,192,45910,1,0,0:0:0:0:
64,192,46002,1,0,0:0:0:0:
192,192,46095,1,0,0:0:0:0:
320,192,46187,1,0,0:0:0:0:
448,192,46279,1,0,0:0:0:0:
320,192,46371,1,0,0:0:0:0:
192,192,46463,1,0,0:0:0:0:
64,192,46555,1,0,0:0:0:0:
192,192,46647,1,0,0:0:0:0:
320,192,46831,1,0,0:0:0:0:
448,192,46923,128,0,49039:0:0:0:0:
64,192,47199,1,0,0:0:0:0:
192,192,47383,1,0,0:0:0:0:
320,192,47567,1,0,0:0:0:0:
192,192,47751,1,0,0:0:0:0:
64,192,47935,1,0,0:0:0:0:
192,192,48119,1,0,0:0:0:0:
320,192,48303,1,0,0:0:0:0:
192,192,48487,1,0,0:0:0:0:
64,192,48671,1,0,0:0:0:0:
192,192,48855,1,0,0:0:0:0:
320,192,49039,1,0,0:0:0:0:
64,192,49131,1,0,0:0:0:0:
320,192,49714,1,0,0:0:0:0:
192,192,49898,1,0,0:0:0:0:
320,192,50143,1,0,0:0:0:0:
448,192,50328,1,0,0:0:0:0:
320,192,50420,1,0,0:0:0:0:
192,192,50512,1,0,0:0:0:0:
64,192,50604,1,0,0:0:0:0:
192,192,50696,1,0,0:0:0:0:
320,192,50788,1,0,0:0:0:0:
448,192,50880,1,0,0:0:0:0:
64,192,51432,1,0,0:0:0:0:
192,192,51524,1,0,0:0:0:0:
320,192,51616,1,0,0:0:0:0:
320,192,51800,1,0,0:0:0:0:
192,192,51892,1,0,0:0:0:0:
64,192,51984,1,0,0:0:0:0:
320,192,52536,1,0,0:0:0:0:
448,192,52628,1,0,0:0:0:0:
320,192,52720,1,0,0:0:0:0:
192,192,52812,1,0,0:0:0:0:
192,192,52996,1,0,0:0:0:0:
320,192,53088,1,0,0:0:0:0:
448,192,53180,1,0,0:0:0:0:
320,192,53272,1,0,0:0:0:0:
192,192,53364,1,0,0:0:0:0:
64,192,53456,1,0,0:0:0:0:
192,192,53549,1,0,0:0:0:0:
320,192,53641,1,0,0:0:0:0:
448,192,53733,1,0,0:0:0:0:
320,192,53825,1,0,0:0:0:0:
192,192,53917,1,0,0:0:0:0:
320,192,54009,128,0,54377:0:0:0:0:
448,192,54009,1,0,0:0:0:0:
64,192,54009,1,0,0:0:0:0:
192,192,54377,128,0,54745:0:0:0:0:
64,192,54377,1,0,0:0:0:0:
64,192,54745,128,0,55113:0:0:0:0:
320,192,54745,1,0,0:0:0:0:
448,192,55113,128,0,55481:0:0:0:0:
320,192,55113,1,0,0:0:0:0:
192,192,55481,1,0,0:0:0:0:
320,192,55481,128,0,56953:0:0:0:0:
448,192,55665,1,0,0:0:0:0:
192,192,55849,1,0,0:0:0:0:
448,192,56033,1,0,0:0:0:0:
192,192,56217,1,0,0:0:0:0:
448,192,56401,1,0,0:0:0:0:
192,192,56585,1,0,0:0:0:0:
448,192,56769,1,0,0:0:0:0:
192,192,56953,128,0,58058:0:0:0:0:
64,192,57137,1,0,0:0:0:0:
320,192,57322,1,0,0:0:0:0:
64,192,57506,1,0,0:0:0:0:
320,192,57690,1,0,0:0:0:0:
64,192,57874,1,0,0:0:0:0:
320,192,58058,1,0,0:0:0:0:
64,192,58426,1,0,0:0:0:0:
448,192,58610,1,0,0:0:0:0:
192,192,58886,1,0,0:0:0:0:
320,192,58978,1,0,0:0:0:0:
192,192,59070,1,0,0:0:0:0:
448,192,59162,1,0,0:0:0:0:
64,192,59530,1,0,0:0:0:0:
320,192,59622,1,0,0:0:0:0:
448,192,59714,1,0,0:0:0:0:
192,192,59806,1,0,0:0:0:0:
64,192,59898,1,0,0:0:0:0:
192,192,59990,1,0,0:0:0:0:
448,192,60082,1,0,0:0:0:0:
320,192,60174,1,0,0:0:0:0:
64,192,60266,1,0,0:0:0:0:
192,192,60358,1,0,0:0:0:0:
448,192,60450,1,0,0:0:0:0:
320,192,60542,1,0,0:0:0:0:
192,192,60634,1,0,0:0:0:0:
64,192,60726,1,0,0:0:0:0:
192,192,60818,1,0,0:0:0:0:
320,192,60910,1,0,0:0:0:0:
448,192,61002,1,0,0:0:0:0:
192,192,61095,1,0,0:0:0:0:
64,192,61187,1,0,0:0:0:0:
192,192,61279,1,0,0:0:0:0:
64,192,61371,1,0,0:0:0:0:
192,192,61463,1,0,0:0:0:0:
192,192,61647,1,0,0:0:0:0:
64,192,61831,1,0,0:0:0:0:
320,192,61923,1,0,0:0:0:0:
192,192,62015,1,0,0:0:0:0:
448,192,62107,1,0,0:0:0:0:
64,192,62199,1,0,0:0:0:0:
320,192,62291,1,0,0:0:0:0:
192,192,62383,1,0,0:0:0:0:
448,192,62475,1,0,0:0:0:0:
64,192,62567,1,0,0:0:0:0:
320,192,62659,1,0,0:0:0:0:
64,192,62751,1,0,0:0:0:0:
320,192,62843,1,0,0:0:0:0:
448,192,62935,1,0,0:0:0:0:
192,192,63027,1,0,0:0:0:0:
320,192,63119,1,0,0:0:0:0:
192,192,63303,1,0,0:0:0:0:
64,192,63579,1,0,0:0:0:0:
192,192,63671,1,0,0:0:0:0:
320,192,63763,1,0,0:0:0:0:
192,192,63855,1,0,0:0:0:0:
320,192,63947,1,0,0:0:0:0:
448,192,64039,1,0,0:0:0:0:
64,192,64315,1,0,0:0:0:0:
192,192,64407,1,0,0:0:0:0:
320,192,64499,1,0,0:0:0:0:
448,192,64591,1,0,0:0:0:0:
320,192,64683,1,0,0:0:0:0:
192,192,64776,1,0,0:0:0:0:
64,192,64960,1,0,0:0:0:0:
64,192,65144,1,0,0:0:0:0:
192,192,65236,1,0,0:0:0:0:
64,192,65512,1,0,0:0:0:0:
192,192,65604,1,0,0:0:0:0:
64,192,65696,1,0,0:0:0:0:
192,192,65788,1,0,0:0:0:0:
320,192,65880,1,0,0:0:0:0:
448,192,65972,1,0,0:0:0:0:
320,192,66064,1,0,0:0:0:0:
192,192,66156,1,0,0:0:0:0:
192,192,66708,1,0,0:0:0:0:
320,192,66892,1,0,0:0:0:0:
448,192,67076,1,0,0:0:0:0:
320,192,67260,1,0,0:0:0:0:
192,192,67352,1,0,0:0:0:0:
320,192,67444,1,0,0:0:0:0:
448,192,67536,1,0,0:0:0:0:
320,192,67628,1,0,0:0:0:0:
192,192,67720,1,0,0:0:0:0:
64,192,67904,1,0,0:0:0:0:
192,192,68088,1,0,0:0:0:0:
320,192,68180,1,0,0:0:0:0:
448,192,68272,1,0,0:0:0:0:
320,192,68364,1,0,0:0:0:0:
64,192,68456,1,0,0:0:0:0:
320,192,68549,1,0,0:0:0:0:
192,192,68641,1,0,0:0:0:0:
448,192,68733,1,0,0:0:0:0:
64,192,69009,1,0,0:0:0:0:
448,192,69285,1,0,0:0:0:0:
320,192,69469,1,0,0:0:0:0:
448,192,69561,1,0,0:0:0:0:
320,192,69653,1,0,0:0:0:0:
192,192,69745,1,0,0:0:0:0:
64,192,69837,1,0,0:0:0:0:
192,192,69929,1,0,0:0:0:0:
320,192,70021,1,0,0:0:0:0:
64,192,70113,1,0,0:0:0:0:
320,192,70205,1,0,0:0:0:0:
448,192,70297,1,0,0:0:0:0:
320,192,70389,1,0,0:0:0:0:
192,192,70481,1,0,0:0:0:0:
64,192,70573,1,0,0:0:0:0:
192,192,70665,1,0,0:0:0:0:
64,192,70849,1,0,0:0:0:0:
192,192,71033,1,0,0:0:0:0:
320,192,71125,1,0,0:0:0:0:
192,192,71401,1,0,0:0:0:0:
320,192,71493,1,0,0:0:0:0:
192,192,71585,1,0,0:0:0:0:
64,192,71677,1,0,0:0:0:0:
192,192,71769,1,0,0:0:0:0:
320,192,71861,1,0,0:0:0:0:
64,192,71953,1,0,0:0:0:0:
320,192,72045,1,0,0:0:0:0:
192,192,72137,1,0,0:0:0:0:
448,192,72322,1,0,0:0:0:0:
192,192,72506,1,0,0:0:0:0:
320,192,72598,1,0,0:0:0:0:
448,192,72690,1,0,0:0:0:0:
320,192,72874,1,0,0:0:0:0:
192,192,72966,1,0,0:0:0:0:
64,192,73058,1,0,0:0:0:0:
320,192,73150,1,0,0:0:0:0:
192,192,73242,1,0,0:0:0:0:
64,192,73334,1,0,0:0:0:0:
192,192,73426,1,0,0:0:0:0:
320,192,73518,1,0,0:0:0:0:
192,192,73610,1,0,0:0:0:0:
448,192,73794,1,0,0:0:0:0:
320,192,73978,1,0,0:0:0:0:
192,192,74070,1,0,0:0:0:0:
448,192,74162,1,0,0:0:0:0:
64,192,74254,1,0,0:0:0:0:
320,192,74346,1,0,0:0:0:0:
192,192,74438,1,0,0:0:0:0:
448,192,74530,1,0,0:0:0:0:
64,192,74622,1,0,0:0:0:0:
192,192,74714,1,0,0:0:0:0:
320,192,74806,1,0,0:0:0:0:
448,192,74898,1,0,0:0:0:0:
320,192,74990,1,0,0:0:0:0:
448,192,75082,1,0,0:0:0:0:
64,192,75266,1,0,0:0:0:0:
192,192,75450,1,0,0:0:0:0:
448,192,75542,1,0,0:0:0:0:
320,192,75634,1,0,0:0:0:0:
192,192,75726,1,0,0:0:0:0:
64,192,75818,1,0,0:0:0:0:
192,192,75910,1,0,0:0:0:0:
64,192,76002,1,0,0:0:0:0:
320,192,76095,128,0,78303:0:0:0:0:
192,192,76831,1,0,0:0:0:0:
64,192,76831,1,0,0:0:0:0:
192,192,77567,1,0,0:0:0:0:
64,192,77567,1,0,0:0:0:0:
64,192,78303,1,0,0:0:0:0:
192,192,78303,1,0,0:0:0:0:
64,192,79039,1,0,0:0:0:0:
448,192,79223,1,0,0:0:0:0:
64,192,79407,1,0,0:0:0:0:
448,192,79591,1,0,0:0:0:0:
64,192,79776,1,0,0:0:0:0:
448,192,79960,1,0,0:0:0:0:
64,192,80144,1,0,0:0:0:0:
448,192,80328,1,0,0:0:0:0:
192,192,80512,1,0,0:0:0:0:
320,192,80696,1,0,0:0:0:0:
192,192,80880,1,0,0:0:0:0:
320,192,81064,1,0,0:0:0:0:
192,192,81248,1,0,0:0:0:0:
320,192,81432,1,0,0:0:0:0:
192,192,81616,1,0,0:0:0:0:
320,192,81800,1,0,0:0:0:0:
64,192,81984,1,0,0:0:0:0:
192,192,82168,1,0,0:0:0:0:
320,192,82352,1,0,0:0:0:0:
448,192,82536,1,0,0:0:0:0:
320,192,82720,1,0,0:0:0:0:
192,192,82812,1,0,0:0:0:0:
64,192,82904,1,0,0:0:0:0:
192,192,82996,1,0,0:0:0:0:
320,192,83180,1,0,0:0:0:0:
448,192,83272,1,0,0:0:0:0:
320,192,83364,1,0,0:0:0:0:
64,192,83456,1,0,0:0:0:0:
192,192,83456,1,0,0:0:0:0:
320,192,83549,1,0,0:0:0:0:
448,192,83549,1,0,0:0:0:0:
192,192,83733,1,0,0:0:0:0:
64,192,83733,1,0,0:0:0:0:
320,192,83825,1,0,0:0:0:0:
448,192,83825,1,0,0:0:0:0:
64,192,84009,1,0,0:0:0:0:
192,192,84101,1,0,0:0:0:0:
320,192,84193,1,0,0:0:0:0:
192,192,84377,1,0,0:0:0:0:
448,192,84561,1,0,0:0:0:0:
192,192,84745,1,0,0:0:0:0:
448,192,84929,1,0,0:0:0:0:
320,192,85113,1,0,0:0:0:0:
192,192,85297,1,0,0:0:0:0:
320,192,85389,1,0,0:0:0:0:
448,192,85573,1,0,0:0:0:0:
320,192,85849,1,0,0:0:0:0:
192,192,86033,1,0,0:0:0:0:
320,192,86125,1,0,0:0:0:0:
64,192,86401,1,0,0:0:0:0:
320,192,86493,1,0,0:0:0:0:
192,192,86585,1,0,0:0:0:0:
448,192,86677,1,0,0:0:0:0:
64,192,86769,1,0,0:0:0:0:
320,192,86861,1,0,0:0:0:0:
192,192,86953,1,0,0:0:0:0:
448,192,87045,1,0,0:0:0:0:
192,192,87322,1,0,0:0:0:0:
320,192,87322,1,0,0:0:0:0:
192,192,87506,1,0,0:0:0:0:
320,192,87506,1,0,0:0:0:0:
64,192,87874,1,0,0:0:0:0:
192,192,87966,1,0,0:0:0:0:
320,192,88058,1,0,0:0:0:0:
192,192,88150,1,0,0:0:0:0:
64,192,88242,1,0,0:0:0:0:
192,192,88334,1,0,0:0:0:0:
320,192,88426,1,0,0:0:0:0:
192,192,88518,1,0,0:0:0:0:
64,192,88610,1,0,0:0:0:0:
448,192,88794,1,0,0:0:0:0:
320,192,88886,1,0,0:0:0:0:
448,192,89070,1,0,0:0:0:0:
320,192,89162,1,0,0:0:0:0:
448,192,89254,1,0,0:0:0:0:
192,192,89346,1,0,0:0:0:0:
192,192,89530,1,0,0:0:0:0:
320,192,89714,1,0,0:0:0:0:
192,192,89806,1,0,0:0:0:0:
192,192,89990,1,0,0:0:0:0:
64,192,90082,1,0,0:0:0:0:
192,192,90266,128,0,90634:0:0:0:0:
320,192,90542,1,0,0:0:0:0:
448,192,90573,1,0,0:0:0:0:
320,192,90634,1,0,0:0:0:0:
64,192,90818,1,0,0:0:0:0:
320,192,90910,1,0,0:0:0:0:
448,192,91002,1,0,0:0:0:0:
192,192,91095,1,0,0:0:0:0:
64,192,91187,1,0,0:0:0:0:
192,192,91279,1,0,0:0:0:0:
448,192,91371,1,0,0:0:0:0:
320,192,91463,1,0,0:0:0:0:
64,192,91555,1,0,0:0:0:0:
192,192,91647,1,0,0:0:0:0:
320,192,91739,1,0,0:0:0:0:
320,192,91831,1,0,0:0:0:0:
192,192,91923,1,0,0:0:0:0:
192,192,92015,1,0,0:0:0:0:
320,192,92107,1,0,0:0:0:0:
320,192,92199,1,0,0:0:0:0:
192,192,92291,128,0,93027:0:0:0:0:
448,192,93211,1,0,0:0:0:0:
320,192,93395,1,0,0:0:0:0:
192,192,93487,1,0,0:0:0:0:
64,192,93763,1,0,0:0:0:0:
448,192,93763,1,0,0:0:0:0:
192,192,94131,1,0,0:0:0:0:
320,192,94131,1,0,0:0:0:0:
64,192,94499,1,0,0:0:0:0:
192,192,94591,1,0,0:0:0:0:
320,192,94683,1,0,0:0:0:0:
448,192,94776,1,0,0:0:0:0:
448,192,95236,1,0,0:0:0:0:
320,192,95282,1,0,0:0:0:0:
64,192,95420,1,0,0:0:0:0:
192,192,95466,1,0,0:0:0:0:
448,192,95604,1,0,0:0:0:0:
320,192,95650,1,0,0:0:0:0:
64,192,95788,1,0,0:0:0:0:
192,192,95834,1,0,0:0:0:0:
448,192,95972,1,0,0:0:0:0:
320,192,96064,1,0,0:0:0:0:
192,192,96156,1,0,0:0:0:0:
64,192,96248,1,0,0:0:0:0:
192,192,96340,1,0,0:0:0:0:
320,192,96432,1,0,0:0:0:0:
192,192,96524,1,0,0:0:0:0:
64,192,96616,1,0,0:0:0:0:
448,192,96708,1,0,0:0:0:0:
320,192,96800,1,0,0:0:0:0:
448,192,96892,1,0,0:0:0:0:
320,192,96984,1,0,0:0:0:0:
448,192,97076,1,0,0:0:0:0:
320,192,97168,1,0,0:0:0:0:
448,192,97260,1,0,0:0:0:0:
320,192,97352,1,0,0:0:0:0:
448,192,97444,1,0,0:0:0:0:
320,192,97536,1,0,0:0:0:0:
448,192,97628,1,0,0:0:0:0:
320,192,97720,1,0,0:0:0:0:
192,192,97812,1,0,0:0:0:0:
64,192,97904,1,0,0:0:0:0:
192,192,97996,1,0,0:0:0:0:
64,192,98088,1,0,0:0:0:0:
192,192,98180,1,0,0:0:0:0:
64,192,98272,1,0,0:0:0:0:
192,192,98364,1,0,0:0:0:0:
64,192,98456,1,0,0:0:0:0:
192,192,98549,1,0,0:0:0:0:
64,192,98641,1,0,0:0:0:0:
192,192,98733,1,0,0:0:0:0:
64,192,98825,1,0,0:0:0:0:
448,192,98917,1,0,0:0:0:0:
320,192,99009,1,0,0:0:0:0:
448,192,99101,1,0,0:0:0:0:
320,192,99193,1,0,0:0:0:0:
448,192,99285,1,0,0:0:0:0:
320,192,99377,1,0,0:0:0:0:
448,192,99469,1,0,0:0:0:0:
320,192,99561,1,0,0:0:0:0:
448,192,99653,1,0,0:0:0:0:
320,192,99714,1,0,0:0:0:0:
192,192,99776,1,0,0:0:0:0:
64,192,99837,1,0,0:0:0:0:
192,192,99898,1,0,0:0:0:0:
320,192,99960,1,0,0:0:0:0:
448,192,100021,1,0,0:0:0:0:
320,192,100082,1,0,0:0:0:0:
192,192,100144,1,0,0:0:0:0:
64,192,100205,1,0,0:0:0:0:
448,192,100266,1,0,0:0:0:0:
320,192,100328,1,0,0:0:0:0:
192,192,100389,1,0,0:0:0:0:
64,192,100450,1,0,0:0:0:0:
192,192,100512,1,0,0:0:0:0:
448,192,100573,1,0,0:0:0:0:
320,192,100634,1,0,0:0:0:0:
192,192,100696,1,0,0:0:0:0:
64,192,100757,1,0,0:0:0:0:
192,192,100818,1,0,0:0:0:0:
320,192,100880,1,0,0:0:0:0:
448,192,100941,1,0,0:0:0:0:
64,192,101125,1,0,0:0:0:0:
192,192,101187,1,0,0:0:0:0:
320,192,101248,1,0,0:0:0:0:
192,192,101309,1,0,0:0:0:0:
320,192,101371,1,0,0:0:0:0:
448,192,101432,1,0,0:0:0:0:
64,192,101493,1,0,0:0:0:0:
192,192,101555,1,0,0:0:0:0:
320,192,101616,1,0,0:0:0:0:
192,192,101677,1,0,0:0:0:0:
320,192,101739,1,0,0:0:0:0:
448,192,101800,1,0,0:0:0:0:
320,192,101861,1,0,0:0:0:0:
192,192,101923,1,0,0:0:0:0:
64,192,101984,1,0,0:0:0:0:
192,192,102045,1,0,0:0:0:0:
320,192,102107,1,0,0:0:0:0:
448,192,102168,1,0,0:0:0:0:
64,192,102229,1,0,0:0:0:0:
320,192,102291,1,0,0:0:0:0:
192,192,102352,1,0,0:0:0:0:
448,192,102414,1,0,0:0:0:0:
64,192,102475,1,0,0:0:0:0:
320,192,102536,1,0,0:0:0:0:
448,192,102598,1,0,0:0:0:0:
192,192,102690,1,0,0:0:0:0:
320,192,102782,1,0,0:0:0:0:
64,192,102874,1,0,0:0:0:0:
192,192,102966,1,0,0:0:0:0:
320,192,103058,1,0,0:0:0:0:
192,192,103150,1,0,0:0:0:0:
320,192,103242,1,0,0:0:0:0:
448,192,103334,1,0,0:0:0:0:
320,192,103426,1,0,0:0:0:0:
448,192,103518,1,0,0:0:0:0:
64,192,103610,1,0,0:0:0:0:
192,192,103702,1,0,0:0:0:0:
320,192,103794,1,0,0:0:0:0:
192,192,103886,1,0,0:0:0:0:
64,192,103978,1,0,0:0:0:0:
192,192,104070,1,0,0:0:0:0:
448,192,104162,1,0,0:0:0:0:
320,192,104254,1,0,0:0:0:0:
192,192,104346,1,0,0:0:0:0:
64,192,104438,1,0,0:0:0:0:
320,192,104530,1,0,0:0:0:0:
192,192,104622,1,0,0:0:0:0:
448,192,104714,1,0,0:0:0:0:
320,192,104806,1,0,0:0:0:0:
192,192,104898,1,0,0:0:0:0:
320,192,104990,1,0,0:0:0:0:
192,192,105082,1,0,0:0:0:0:
64,192,105174,1,0,0:0:0:0:
192,192,105542,1,0,0:0:0:0:
320,192,105542,1,0,0:0:0:0:
192,192,105726,1,0,0:0:0:0:
320,192,105726,1,0,0:0:0:0:
64,192,106095,1,0,0:0:0:0:
192,192,106187,1,0,0:0:0:0:
320,192,106279,128,0,106555:0:0:0:0:
192,192,106555,128,0,106831:0:0:0:0:
64,192,106831,128,0,107107:0:0:0:0:
448,192,107107,1,0,0:0:0:0:
448,192,107199,128,0,107475:0:0:0:0:
192,192,107199,128,0,107475:0:0:0:0:
320,192,107475,128,0,107751:0:0:0:0:
64,192,107475,128,0,107751:0:0:0:0:
192,192,107751,128,0,108027:0:0:0:0:
448,192,107751,128,0,108027:0:0:0:0:
320,192,108027,128,0,108303:0:0:0:0:
64,192,108027,128,0,108303:0:0:0:0:
192,192,108303,128,0,108579:0:0:0:0:
448,192,108303,128,0,108579:0:0:0:0:
192,192,108671,128,0,108947:0:0:0:0:
320,192,108671,128,0,108947:0:0:0:0:
448,192,108671,128,0,108947:0:0:0:0:
64,192,108947,128,0,109223:0:0:0:0:
192,192,109223,128,0,109499:0:0:0:0:
320,192,109223,128,0,109499:0:0:0:0:
448,192,109223,128,0,109499:0:0:0:0:
64,192,109499,128,0,109776:0:0:0:0:
192,192,109776,1,0,0:0:0:0:
320,192,109776,1,0,0:0:0:0:
320,192,109960,1,0,0:0:0:0:
448,192,110052,1,0,0:0:0:0:
320,192,110144,1,0,0:0:0:0:
192,192,110236,1,0,0:0:0:0:
192,192,110420,1,0,0:0:0:0:
320,192,110512,1,0,0:0:0:0:
192,192,110604,1,0,0:0:0:0:
64,192,110696,1,0,0:0:0:0:
192,192,110788,1,0,0:0:0:0:
320,192,110880,1,0,0:0:0:0:
448,192,110972,1,0,0:0:0:0:
192,192,111156,1,0,0:0:0:0:
320,192,111248,1,0,0:0:0:0:
192,192,111340,1,0,0:0:0:0:
448,192,111432,128,0,111708:0:0:0:0:
64,192,111708,128,0,112168:0:0:0:0:
448,192,112168,1,0,0:0:0:0:
320,192,112352,1,0,0:0:0:0:
192,192,112536,1,0,0:0:0:0:
64,192,112720,1,0,0:0:0:0:
320,192,112904,1,0,0:0:0:0:
192,192,112996,1,0,0:0:0:0:
448,192,113088,1,0,0:0:0:0:
320,192,113180,1,0,0:0:0:0:
64,192,113272,1,0,0:0:0:0:
192,192,113364,1,0,0:0:0:0:
448,192,113456,1,0,0:0:0:0:
320,192,113549,1,0,0:0:0:0:
64,192,113641,1,0,0:0:0:0:
448,192,113733,1,0,0:0:0:0:
192,192,113825,1,0,0:0:0:0:
320,192,113917,1,0,0:0:0:0:
64,192,114009,1,0,0:0:0:0:
192,192,114101,1,0,0:0:0:0:
448,192,114193,1,0,0:0:0:0:
64,192,114285,1,0,0:0:0:0:
64,192,114469,1,0,0:0:0:0:
448,192,114561,1,0,0:0:0:0:
192,192,114653,1,0,0:0:0:0:
448,192,114745,1,0,0:0:0:0:
64,192,114837,1,0,0:0:0:0:
448,192,115021,1,0,0:0:0:0:
320,192,115205,1,0,0:0:0:0:
192,192,115297,1,0,0:0:0:0:
448,192,115389,1,0,0:0:0:0:
64,192,115481,1,0,0:0:0:0:
320,192,115573,1,0,0:0:0:0:
192,192,115665,1,0,0:0:0:0:
448,192,115757,1,0,0:0:0:0:
64,192,115849,128,0,116125:0:0:0:0:
192,192,116125,1,0,0:0:0:0:
192,192,116401,1,0,0:0:0:0:
320,192,116493,1,0,0:0:0:0:
192,192,116585,1,0,0:0:0:0:
448,192,116677,1,0,0:0:0:0:
64,192,116953,1,0,0:0:0:0:
192,192,117045,1,0,0:0:0:0:
320,192,117137,1,0,0:0:0:0:
448,192,117229,1,0,0:0:0:0:
192,192,117322,1,0,0:0:0:0:
64,192,117414,1,0,0:0:0:0:
192,192,117506,1,0,0:0:0:0:
320,192,117598,1,0,0:0:0:0:
448,192,117690,1,0,0:0:0:0:
192,192,117782,1,0,0:0:0:0:
320,192,117874,1,0,0:0:0:0:
192,192,117966,1,0,0:0:0:0:
64,192,118058,1,0,0:0:0:0:
320,192,118150,1,0,0:0:0:0:
320,192,118334,1,0,0:0:0:0:
192,192,118518,1,0,0:0:0:0:
64,192,118610,1,0,0:0:0:0:
192,192,118702,1,0,0:0:0:0:
64,192,118794,1,0,0:0:0:0:
320,192,118886,1,0,0:0:0:0:
320,192,119070,1,0,0:0:0:0:
192,192,119254,1,0,0:0:0:0:
448,192,119346,1,0,0:0:0:0:
192,192,119438,1,0,0:0:0:0:
448,192,119530,1,0,0:0:0:0:
320,192,119622,1,0,0:0:0:0:
192,192,119714,1,0,0:0:0:0:
64,192,119806,1,0,0:0:0:0:
192,192,119898,1,0,0:0:0:0:
448,192,119990,1,0,0:0:0:0:
192,192,120082,1,0,0:0:0:0:
320,192,120174,1,0,0:0:0:0:
448,192,120266,1,0,0:0:0:0:
192,192,120358,1,0,0:0:0:0:
320,192,120450,1,0,0:0:0:0:
448,192,120542,1,0,0:0:0:0:
320,192,120634,1,0,0:0:0:0:
64,192,121002,1,0,0:0:0:0:
192,192,121095,1,0,0:0:0:0:
320,192,121187,1,0,0:0:0:0:
448,192,121279,1,0,0:0:0:0:
64,192,121371,1,0,0:0:0:0:
192,192,121463,1,0,0:0:0:0:
320,192,121555,1,0,0:0:0:0:
448,192,121647,1,0,0:0:0:0:
192,192,121739,1,0,0:0:0:0:
448,192,121831,1,0,0:0:0:0:
64,192,121923,1,0,0:0:0:0:
448,192,122015,1,0,0:0:0:0:
320,192,122107,1,0,0:0:0:0:
192,192,122199,1,0,0:0:0:0:
64,192,122383,1,0,0:0:0:0:
192,192,122567,1,0,0:0:0:0:
320,192,122659,1,0,0:0:0:0:
192,192,122935,1,0,0:0:0:0:
320,192,123027,1,0,0:0:0:0:
192,192,123119,1,0,0:0:0:0:
64,192,123211,1,0,0:0:0:0:
192,192,123303,1,0,0:0:0:0:
320,192,123395,1,0,0:0:0:0:
448,192,123487,1,0,0:0:0:0:
320,192,123579,128,0,124131:0:0:0:0:
192,192,124131,1,0,0:0:0:0:
320,192,124315,1,0,0:0:0:0:
448,192,124499,1,0,0:0:0:0:
320,192,124683,1,0,0:0:0:0:
192,192,124776,1,0,0:0:0:0:
320,192,124868,1,0,0:0:0:0:
448,192,124960,1,0,0:0:0:0:
320,192,125052,1,0,0:0:0:0:
192,192,125144,128,0,125328:0:0:0:0:
64,192,125328,1,0,0:0:0:0:
64,192,125512,1,0,0:0:0:0:
192,192,125604,1,0,0:0:0:0:
320,192,125696,1,0,0:0:0:0:
448,192,125788,1,0,0:0:0:0:
192,192,125880,1,0,0:0:0:0:
64,192,125972,1,0,0:0:0:0:
448,192,126156,128,0,126432:0:0:0:0:
64,192,126432,128,0,126708:0:0:0:0:
448,192,126708,1,0,0:0:0:0:
320,192,126892,1,0,0:0:0:0:
448,192,126984,1,0,0:0:0:0:
192,192,127076,1,0,0:0:0:0:
64,192,127168,1,0,0:0:0:0:
320,192,127260,1,0,0:0:0:0:
192,192,127352,1,0,0:0:0:0:
64,192,127444,1,0,0:0:0:0:
320,192,127536,1,0,0:0:0:0:
64,192,127628,1,0,0:0:0:0:
192,192,127720,1,0,0:0:0:0:
320,192,127812,1,0,0:0:0:0:
448,192,127904,1,0,0:0:0:0:
320,192,127996,1,0,0:0:0:0:
192,192,128088,1,0,0:0:0:0:
64,192,128272,1,0,0:0:0:0:
320,192,128456,1,0,0:0:0:0:
192,192,128549,1,0,0:0:0:0:
192,192,128825,1,0,0:0:0:0:
320,192,128917,1,0,0:0:0:0:
192,192,129009,1,0,0:0:0:0:
64,192,129101,1,0,0:0:0:0:
192,192,129193,1,0,0:0:0:0:
320,192,129285,1,0,0:0:0:0:
448,192,129377,1,0,0:0:0:0:
320,192,129469,1,0,0:0:0:0:
192,192,129561,1,0,0:0:0:0:
320,192,129745,1,0,0:0:0:0:
64,192,129929,1,0,0:0:0:0:
320,192,130021,1,0,0:0:0:0:
448,192,130113,1,0,0:0:0:0:
320,192,130297,1,0,0:0:0:0:
64,192,130389,1,0,0:0:0:0:
192,192,130481,1,0,0:0:0:0:
448,192,130573,1,0,0:0:0:0:
320,192,130665,1,0,0:0:0:0:
192,192,130757,1,0,0:0:0:0:
320,192,130849,1,0,0:0:0:0:
448,192,130941,1,0,0:0:0:0:
320,192,131033,128,0,131217:0:0:0:0:
64,192,131217,1,0,0:0:0:0:
192,192,131401,1,0,0:0:0:0:
320,192,131493,1,0,0:0:0:0:
448,192,131585,1,0,0:0:0:0:
192,192,131677,1,0,0:0:0:0:
320,192,131769,1,0,0:0:0:0:
448,192,131861,1,0,0:0:0:0:
64,192,131953,1,0,0:0:0:0:
448,192,132045,1,0,0:0:0:0:
320,192,132137,1,0,0:0:0:0:
64,192,132229,1,0,0:0:0:0:
320,192,132322,1,0,0:0:0:0:
192,192,132414,1,0,0:0:0:0:
448,192,132506,128,0,132690:0:0:0:0:
64,192,132690,1,0,0:0:0:0:
192,192,132874,1,0,0:0:0:0:
320,192,132966,1,0,0:0:0:0:
192,192,133058,1,0,0:0:0:0:
320,192,133150,1,0,0:0:0:0:
192,192,133242,1,0,0:0:0:0:
320,192,133334,1,0,0:0:0:0:
192,192,133426,1,0,0:0:0:0:
448,192,133518,128,0,134254:0:0:0:0:
64,192,133518,128,0,134254:0:0:0:0:
192,192,134070,1,0,0:0:0:0:
320,192,134070,1,0,0:0:0:0:
192,192,134254,128,0,134990:0:0:0:0:
320,192,134254,128,0,134990:0:0:0:0:
448,192,134806,1,0,0:0:0:0:
64,192,134806,1,0,0:0:0:0:
64,192,134990,128,0,135358:0:0:0:0:
448,192,134990,128,0,135358:0:0:0:0:
192,192,135358,128,0,135726:0:0:0:0:
320,192,135358,128,0,135726:0:0:0:0:
64,192,135726,128,0,136463:0:0:0:0:
448,192,135726,128,0,136463:0:0:0:0:
192,192,136279,1,0,0:0:0:0:
320,192,136371,1,0,0:0:0:0:
192,192,136463,128,0,138119:0:0:0:0:
320,192,136647,1,0,0:0:0:0:
448,192,136831,1,0,0:0:0:0:
320,192,137015,1,0,0:0:0:0:
448,192,137199,1,0,0:0:0:0:
320,192,137383,1,0,0:0:0:0:
448,192,137567,1,0,0:0:0:0:
320,192,137751,1,0,0:0:0:0:
448,192,137935,1,0,0:0:0:0:
64,192,138119,128,0,138303:0:0:0:0:
320,192,138119,1,0,0:0:0:0:
192,192,138303,128,0,138487:0:0:0:0:
448,192,138303,1,0,0:0:0:0:
64,192,138487,128,0,138671:0:0:0:0:
320,192,138487,1,0,0:0:0:0:
192,192,138671,128,0,138855:0:0:0:0:
448,192,138671,1,0,0:0:0:0:
320,192,138855,128,0,139039:0:0:0:0:
448,192,139039,1,0,0:0:0:0:
320,192,139131,1,0,0:0:0:0:
192,192,139223,1,0,0:0:0:0:
64,192,139407,128,8,140144:0:0:0:0:
192,192,139591,1,0,0:0:0:0:
448,192,139776,1,0,0:0:0:0:
192,192,139960,1,0,0:0:0:0:
192,192,140144,128,0,140880:0:0:0:0:
320,192,140328,1,0,0:0:0:0:
64,192,140512,1,0,0:0:0:0:
320,192,140696,1,0,0:0:0:0:
320,192,140880,128,8,141616:0:0:0:0:
192,192,141064,1,0,0:0:0:0:
448,192,141248,1,0,0:0:0:0:
192,192,141432,1,0,0:0:0:0:
448,192,141616,128,0,142352:0:0:0:0:
64,192,141800,1,0,0:0:0:0:
320,192,141984,1,0,0:0:0:0:
64,192,142168,1,0,0:0:0:0:
320,192,142352,128,8,143088:0:0:0:0:
448,192,142536,1,0,0:0:0:0:
64,192,142720,1,0,0:0:0:0:
448,192,142904,1,0,0:0:0:0:
192,192,143088,128,0,143825:0:0:0:0:
448,192,143272,1,0,0:0:0:0:
320,192,143456,1,0,0:0:0:0:
448,192,143641,1,0,0:0:0:0:
64,192,143825,128,8,144561:0:0:0:0:
320,192,144009,1,0,0:0:0:0:
192,192,144193,1,0,0:0:0:0:
320,192,144377,1,0,0:0:0:0:
448,192,144561,1,0,0:0:0:0:
320,192,144929,128,4,145113:0:1:0:0:
192,192,144929,128,4,145113:0:1:0:0:
448,192,145113,128,4,146769:0:1:0:0:
64,192,145113,128,4,146769:0:1:0:0:
