osu file format v14

[General]
AudioFilename: Dissapear.mp3
AudioLeadIn: 0
PreviewTime: 56121
Countdown: 0
SampleSet: Soft
StackLeniency: 0.7
Mode: 0
LetterboxInBreaks: 0
EpilepsyWarning: 1
WidescreenStoryboard: 1

[Editor]
Bookmarks: 5237,12479,77651,85927,141789,144893,157565,158341,159375,207996
DistanceSpacing: 1
BeatDivisor: 4
GridSize: 16
TimelineZoom: 1

[Metadata]
Title:Real Hatsune Miku no Shoushitsu
TitleUnicode:リアル初音ミクの消失
Artist:cosMo@Bousou-P
ArtistUnicode:cosMo@暴走P
Creator:Zyl
Version:diS@PpEa-r
Source:
Tags:dissapear
BeatmapID:1207007
BeatmapSetID:569393

[Difficulty]
HPDrainRate:6
CircleSize:4
OverallDifficulty:5
ApproachRate:9.6
SliderMultiplier:1.93
SliderTickRate:1

[Events]
//Background and Video events
0,0,"BGDissapear.jpg",0,0
//Break Periods
//Storyboard Layer 0 (Background)
//Storyboard Layer 1 (Fail)
//Storyboard Layer 2 (Pass)
//Storyboard Layer 3 (Foreground)
//Storyboard Sound Samples

[TimingPoints]
1100,258.620689655172,4,2,0,50,1,0
5237,-100,4,2,0,50,0,0
12479,-83.3333333333333,4,2,0,50,0,0
12737,-71.4285714285714,4,2,0,50,0,0
12996,-100,4,2,0,50,0,0
13513,-100,4,2,0,50,0,1
17910,-90.9090909090909,4,2,0,50,0,1
18168,-100,4,2,0,50,0,1
21757,-100,4,2,0,50,0,0
21789,-100,4,2,0,50,0,1
23793,-100,4,2,0,50,0,1
27996,-100,4,2,0,50,0,0
56962,-100,4,2,0,50,0,1
65205,-100,4,2,0,50,0,0
65237,-100,4,2,0,50,0,1
77651,-100,4,2,0,50,0,0
121099,-100,4,2,0,50,0,1
129343,-100,4,2,0,50,0,0
129375,-100,4,2,0,50,0,1
141789,-100,4,2,0,50,0,0
160410,-100,4,2,0,50,0,1
166584,-100,4,2,0,50,0,0
166617,-100,4,2,0,50,0,1
177996,-100,4,2,0,50,0,0
179031,-100,4,2,0,50,0,1
181067,-100,4,2,0,50,0,0
181099,-100,4,2,0,50,0,1
185205,-100,4,2,0,50,0,0
185237,-100,4,2,0,50,0,1
187274,-100,4,2,0,50,0,0
187306,-100,4,2,0,50,0,1
188309,-100,4,2,0,50,0,0
188341,-100,4,2,0,50,0,1
189343,-100,4,2,0,50,0,0
189375,-100,4,2,0,50,0,1
190378,-100,4,2,0,50,0,0
190410,-100,4,2,0,50,0,1
195550,-100,4,2,0,50,0,0
195582,-100,4,2,0,50,0,1
199720,-100,4,2,0,50,0,0

[Colours]
Combo1 : 30,183,181
Combo2 : 249,80,83

[HitObjects]
140,87,1100,5,0,0:0:0:0:
146,107,1358,1,0,0:0:0:0:
148,129,1617,1,0,0:0:0:0:
145,151,1875,1,0,0:0:0:0:
221,261,2134,5,0,0:0:0:0:
215,281,2392,1,0,0:0:0:0:
213,303,2651,1,0,0:0:0:0:
216,325,2909,1,0,0:0:0:0:
361,207,3168,5,0,0:0:0:0:
359,186,3426,1,0,0:0:0:0:
357,165,3685,1,0,0:0:0:0:
355,144,3943,1,0,0:0:0:0:
166,284,4203,5,0,0:0:0:0:
154,212,4461,1,0,0:0:0:0:
168,141,4720,1,0,0:0:0:0:
155,69,4978,1,0,0:0:0:0:
357,144,5237,5,0,0:0:0:0:
355,165,5301,1,0,0:0:0:0:
354,186,5366,1,0,0:0:0:0:
353,207,5430,1,0,0:0:0:0:
353,233,5496,2,0,L|348:349,1,96.5
211,334,5755,1,0,0:0:0:0:
189,324,5819,1,0,0:0:0:0:
165,323,5884,1,0,0:0:0:0:
142,331,5948,1,0,0:0:0:0:
122,341,6013,2,0,P|83:353|19:340,1,96.5
142,208,6272,5,0,0:0:0:0:
142,208,6336,1,0,0:0:0:0:
142,208,6401,1,0,0:0:0:0:
211,334,6531,1,0,0:0:0:0:
211,334,6595,1,0,0:0:0:0:
211,334,6660,1,0,0:0:0:0:
48,327,6789,1,0,0:0:0:0:
48,327,6853,1,0,0:0:0:0:
48,327,6918,1,0,0:0:0:0:
239,243,7048,5,0,0:0:0:0:
90,35,7177,1,0,0:0:0:0:
91,260,7306,5,0,0:0:0:0:
72,239,7370,1,0,0:0:0:0:
67,211,7435,1,0,0:0:0:0:
76,185,7499,1,0,0:0:0:0:
93,162,7565,2,0,L|206:169,1,96.5
374,116,7824,1,0,0:0:0:0:
344,112,7888,1,0,0:0:0:0:
315,108,7953,1,0,0:0:0:0:
286,104,8017,1,0,0:0:0:0:
256,102,8082,2,0,P|241:67|253:8,1,96.5
374,116,8341,5,0,0:0:0:0:
374,116,8406,1,0,0:0:0:0:
374,116,8470,1,0,0:0:0:0:
282,251,8599,1,0,0:0:0:0:
282,251,8664,1,0,0:0:0:0:
282,251,8729,1,0,0:0:0:0:
186,128,8858,1,0,0:0:0:0:
186,128,8923,1,0,0:0:0:0:
186,128,8987,1,0,0:0:0:0:
310,34,9117,5,0,0:0:0:0:
356,289,9246,1,0,0:0:0:0:
128,175,9375,5,0,0:0:0:0:
111,148,9439,1,0,0:0:0:0:
110,116,9504,1,0,0:0:0:0:
124,88,9568,1,0,0:0:0:0:
155,65,9634,2,0,L|260:62,1,96.5
403,188,9893,1,0,0:0:0:0:
405,220,9957,1,0,0:0:0:0:
390,249,10022,1,0,0:0:0:0:
363,266,10086,1,0,0:0:0:0:
330,269,10151,2,0,P|281:264|223:269,1,96.5
119,351,10410,5,0,0:0:0:0:
119,351,10474,1,0,0:0:0:0:
119,351,10539,1,0,0:0:0:0:
86,194,10668,1,0,0:0:0:0:
86,194,10733,1,0,0:0:0:0:
86,194,10798,1,0,0:0:0:0:
233,267,10927,1,0,0:0:0:0:
233,267,10992,1,0,0:0:0:0:
233,267,11056,1,0,0:0:0:0:
62,287,11186,5,0,0:0:0:0:
170,68,11315,1,0,0:0:0:0:
298,238,11444,5,0,0:0:0:0:
309,267,11508,1,0,0:0:0:0:
303,298,11573,1,0,0:0:0:0:
282,320,11637,1,0,0:0:0:0:
253,336,11703,2,0,L|142:325,1,96.5
54,135,11962,1,0,0:0:0:0:
90,137,12026,1,0,0:0:0:0:
128,139,12091,1,0,0:0:0:0:
166,142,12155,1,0,0:0:0:0:
207,145,12220,2,0,L|330:153,1,96.5
434,308,12479,6,0,B|370:308|370:308|322:324|322:324|258:324,1,173.699994699097
128,339,12737,6,0,P|105:254|195:293,1,202.649993815613
253,336,12996,5,0,0:0:0:0:
241,289,13060,1,0,0:0:0:0:
238,241,13125,1,0,0:0:0:0:
244,193,13189,1,0,0:0:0:0:
257,146,13254,5,0,0:0:0:0:
262,98,13319,1,0,0:0:0:0:
253,51,13383,1,0,0:0:0:0:
234,7,13448,1,0,0:0:0:0:
234,7,13513,6,0,P|319:51|412:7,1,193
465,127,13901,1,0,0:0:0:0:
461,316,14031,2,0,B|444:228|444:228|464:126,1,193
336,82,14418,1,0,0:0:0:0:
323,186,14548,6,0,P|278:217|361:216,1,193
402,153,14936,1,0,0:0:0:0:
204,225,15065,2,0,L|182:31,1,193
276,69,15453,1,0,0:0:0:0:
114,168,15582,5,0,0:0:0:0:
226,311,15712,1,0,0:0:0:0:
285,166,15841,5,0,0:0:0:0:
84,269,15970,1,0,0:0:0:0:
312,263,16099,5,0,0:0:0:0:
188,102,16229,1,0,0:0:0:0:
138,348,16358,5,0,0:0:0:0:
362,200,16487,1,0,0:0:0:0:
48,170,16617,5,0,0:0:0:0:
282,356,16746,1,0,0:0:0:0:
233,45,16875,5,0,0:0:0:0:
84,269,17005,1,0,0:0:0:0:
421,257,17134,5,0,0:0:0:0:
441,214,17198,1,0,0:0:0:0:
435,167,17263,1,0,0:0:0:0:
404,131,17327,1,0,0:0:0:0:
358,118,17393,5,0,0:0:0:0:
310,127,17457,1,0,0:0:0:0:
263,136,17522,1,0,0:0:0:0:
217,123,17586,1,0,0:0:0:0:
176,95,17651,6,0,P|110:94|145:152,1,144.75
204,213,17910,6,0,B|188:286|188:286|204:371,1,159.225004859162
108,278,18168,6,0,P|45:283|13:355,1,144.75
10,218,18427,5,0,0:0:0:0:
37,64,18556,1,0,0:0:0:0:
151,155,18686,6,0,P|219:137|283:229,1,193
181,364,19074,1,0,0:0:0:0:
76,220,19203,5,0,0:0:0:0:
170,202,19332,1,0,0:0:0:0:
265,185,19461,5,0,0:0:0:0:
360,168,19590,1,0,0:0:0:0:
434,281,19720,5,0,0:0:0:0:
378,28,19849,1,0,0:0:0:0:
343,300,19979,5,0,0:0:0:0:
287,36,20108,1,0,0:0:0:0:
258,320,20237,5,0,0:0:0:0:
202,58,20366,1,0,0:0:0:0:
175,340,20496,5,0,0:0:0:0:
119,79,20625,1,0,0:0:0:0:
26,210,20755,5,0,0:0:0:0:
72,198,20819,1,0,0:0:0:0:
120,195,20884,1,0,0:0:0:0:
168,201,20948,1,0,0:0:0:0:
214,217,21013,5,0,0:0:0:0:
259,233,21078,1,0,0:0:0:0:
306,242,21142,1,0,0:0:0:0:
354,242,21207,1,0,0:0:0:0:
401,230,21272,5,0,0:0:0:0:
387,184,21336,1,0,0:0:0:0:
372,138,21401,1,0,0:0:0:0:
358,92,21465,1,0,0:0:0:0:
403,110,21530,5,0,0:0:0:0:
358,335,21660,1,0,0:0:0:0:
259,233,21789,2,0,B|163:213|163:213|34:253,1,193
105,134,22177,1,0,0:0:0:0:
9,324,22306,2,0,P|52:289|154:361,1,193
76,362,22694,1,0,0:0:0:0:
187,238,22824,6,0,L|168:32,1,193
105,134,23212,1,0,0:0:0:0:
259,232,23341,2,0,P|311:250|315:92,1,289.5
308,171,23858,6,0,L|189:138,1,96.5
137,321,24117,2,0,L|229:346,1,96.5
138,155,24375,2,0,L|105:274,1,96.5
313,337,24634,2,0,L|338:244,1,96.5
223,370,24893,6,0,L|131:345,1,96.5
220,117,25152,2,0,L|313:143,1,96.5
112,247,25410,2,0,L|138:155,1,96.5
