osu file format v13

[General]
AudioFilename: Bamboo Sword Girl.mp3
AudioLeadIn: 0
PreviewTime: 54241
Countdown: 0
SampleSet: Normal
StackLeniency: 0.7
Mode: 1
LetterboxInBreaks: 0
WidescreenStoryboard: 1

[Editor]
Bookmarks: 1164,5780,10395,17318,21934,26549,31164,35780,40395,45011,49626,54241,58857,64626,69241,73857,78472,83088,87703,92318,96934,101549,106164
DistanceSpacing: 1.2
BeatDivisor: 4
GridSize: 4
TimelineZoom: 1.8

[Metadata]
Title:Bamboo Sword Girl
TitleUnicode:バンブーソード・ガール
Artist:cosMo@Bousou-P
ArtistUnicode:cosMo@暴走P
Creator:MineC24
Version:Taiko Oni
Source:GUMI 5th Anniversary party
Tags:Bamboo Sword Girl GUMI jubeat saucer fulfill REFLEC BEAT groovin'!! Dance Dance Revolution GITADORA OverDrive SOUND VOLTEX II -infinite infection- pop'n music Lapistoria pop'n rhythmin
BeatmapID:474631
BeatmapSetID:190006

[Difficulty]
HPDrainRate:5
CircleSize:4
OverallDifficulty:4
ApproachRate:5
SliderMultiplier:1.4
SliderTickRate:1

[Events]
//Background and Video events
Video,0,"bamboo.flv"
0,0,"BG.jpg",0,0
//Break Periods
//Storyboard Layer 0 (Background)
//Storyboard Layer 1 (Fail)
//Storyboard Layer 2 (Pass)
//Storyboard Layer 3 (Foreground)
//Storyboard Sound Samples
//Background Colour Transformations
3,100,163,162,255

[TimingPoints]
590,288.461538461538,4,1,1,75,1,0
1167,288.461538461538,4,1,1,75,1,0
17320,-133.333333333333,4,1,1,65,0,0
25974,-100,4,1,1,75,0,0
54243,-100,4,1,1,75,0,1
73859,-100,4,1,1,65,0,0
87705,-100,4,1,1,75,0,1
106166,-100,4,1,1,75,0,0

[Colours]
Combo1 : 255,255,255
Combo2 : 128,255,128
Combo3 : 0,128,255
Combo4 : 255,128,192

[HitObjects]
256,192,590,5,8,0:0:0:0:
256,192,662,1,8,0:0:0:0:
256,192,734,1,8,0:0:0:0:
256,192,878,1,8,0:0:0:0:
256,192,950,1,8,0:0:0:0:
256,192,1022,1,8,0:0:0:0:
256,192,1167,1,4,0:0:0:0:
256,192,1455,1,4,0:0:0:0:
256,192,1743,1,0,0:0:0:0:
256,192,2032,1,0,0:0:0:0:
256,192,2176,1,8,0:0:0:0:
256,192,2465,1,0,0:0:0:0:
256,192,2537,1,0,0:0:0:0:
256,192,2609,1,8,0:0:0:0:
256,192,2753,1,0,0:0:0:0:
256,192,2897,1,8,0:0:0:0:
256,192,3041,1,0,0:0:0:0:
256,192,3114,1,0,0:0:0:0:
256,192,3186,1,8,0:0:0:0:
256,192,3330,1,0,0:0:0:0:
256,192,3474,1,12,0:0:0:0:
256,192,3763,1,4,0:0:0:0:
256,192,4051,1,8,0:0:0:0:
256,192,4195,1,0,0:0:0:0:
256,192,4484,1,8,0:0:0:0:
256,192,4772,1,0,0:0:0:0:
256,192,4916,1,8,0:0:0:0:
256,192,5061,1,0,0:0:0:0:
256,192,5205,1,8,0:0:0:0:
256,192,5349,1,0,0:0:0:0:
256,192,5421,1,0,0:0:0:0:
256,192,5493,1,8,0:0:0:0:
256,192,5782,1,0,0:0:0:0:
256,192,5926,1,8,0:0:0:0:
256,192,6070,1,0,0:0:0:0:
256,192,6215,1,8,0:0:0:0:
256,192,6359,1,0,0:0:0:0:
256,192,6431,1,0,0:0:0:0:
256,192,6503,1,8,0:0:0:0:
256,192,6575,1,8,0:0:0:0:
256,192,6647,1,0,0:0:0:0:
256,192,6719,1,8,0:0:0:0:
256,192,6791,1,0,0:0:0:0:
256,192,6936,1,8,0:0:0:0:
256,192,7080,1,0,0:0:0:0:
256,192,7152,1,8,0:0:0:0:
256,192,7224,1,0,0:0:0:0:
256,192,7296,1,0,0:0:0:0:
256,192,7368,1,8,0:0:0:0:
256,192,7513,1,0,0:0:0:0:
256,192,7657,1,0,0:0:0:0:
256,192,7801,1,0,0:0:0:0:
256,192,7873,1,0,0:0:0:0:
256,192,7945,1,0,0:0:0:0:
256,192,8017,1,0,0:0:0:0:
256,192,8090,1,0,0:0:0:0:
256,192,8234,1,8,0:0:0:0:
256,192,8378,1,0,0:0:0:0:
256,192,8522,1,8,0:0:0:0:
256,192,8666,1,8,0:0:0:0:
256,192,8811,1,0,0:0:0:0:
256,192,8883,1,8,0:0:0:0:
256,192,8955,1,0,0:0:0:0:
256,192,9027,1,0,0:0:0:0:
256,192,9099,1,0,0:0:0:0:
256,192,9243,1,8,0:0:0:0:
256,192,9460,1,0,0:0:0:0:
256,192,9676,1,8,0:0:0:0:
256,192,9820,1,0,0:0:0:0:
256,192,9965,1,8,0:0:0:0:
256,192,10109,1,0,0:0:0:0:
256,192,10181,1,0,0:0:0:0:
256,192,10253,1,0,0:0:0:0:
256,192,10325,1,0,0:0:0:0:
256,192,10397,1,0,0:0:0:0:
256,192,10541,1,8,0:0:0:0:
256,192,10686,1,0,0:0:0:0:
256,192,10830,1,8,0:0:0:0:
256,192,10974,1,8,0:0:0:0:
256,192,11046,1,0,0:0:0:0:
256,192,11118,1,8,0:0:0:0:
256,192,11191,1,8,0:0:0:0:
256,192,11263,1,0,0:0:0:0:
256,192,11335,1,0,0:0:0:0:
256,192,11407,1,0,0:0:0:0:
256,192,11551,1,8,0:0:0:0:
256,192,11695,1,0,0:0:0:0:
256,192,11767,1,8,0:0:0:0:
256,192,11840,1,0,0:0:0:0:
256,192,11912,1,0,0:0:0:0:
256,192,11984,1,0,0:0:0:0:
256,192,12128,1,0,0:0:0:0:
256,192,12272,1,0,0:0:0:0:
256,192,12416,1,0,0:0:0:0:
256,192,12489,1,0,0:0:0:0:
256,192,12561,1,0,0:0:0:0:
256,192,12633,1,8,0:0:0:0:
256,192,12705,1,0,0:0:0:0:
256,192,12849,1,8,0:0:0:0:
256,192,12993,1,0,0:0:0:0:
256,192,13138,1,8,0:0:0:0:
256,192,13282,1,8,0:0:0:0:
256,192,13426,1,0,0:0:0:0:
256,192,13498,1,8,0:0:0:0:
256,192,13570,1,0,0:0:0:0:
256,192,13642,1,8,0:0:0:0:
256,192,13715,1,0,0:0:0:0:
256,192,13859,1,8,0:0:0:0:
256,192,14075,1,0,0:0:0:0:
256,192,14291,1,8,0:0:0:0:
256,192,14436,1,0,0:0:0:0:
256,192,14580,1,8,0:0:0:0:
256,192,14724,1,4,0:0:0:0:
256,192,15157,1,8,0:0:0:0:
256,192,15301,1,0,0:0:0:0:
256,192,15445,1,0,0:0:0:0:
256,192,15590,1,0,0:0:0:0:
256,192,15734,1,8,0:0:0:0:
256,192,15878,1,0,0:0:0:0:
256,192,16022,1,0,0:0:0:0:
256,192,16166,1,8,0:0:0:0:
256,192,16263,1,0,0:0:0:0:
256,192,16359,1,0,0:0:0:0:
256,192,16455,1,8,0:0:0:0:
256,192,16551,1,0,0:0:0:0:
256,192,16647,1,0,0:0:0:0:
256,192,16743,1,8,0:0:0:0:
256,192,16840,1,8,0:0:0:0:
256,192,16936,1,8,0:0:0:0:
256,192,17032,1,0,0:0:0:0:
256,192,17320,1,0,0:0:0:0:
256,192,17897,1,0,0:0:0:0:
256,192,18041,1,0,0:0:0:0:
256,192,18186,1,8,0:0:0:0:
256,192,18474,1,0,0:0:0:0:
256,192,18763,1,0,0:0:0:0:
256,192,18907,1,0,0:0:0:0:
256,192,19051,1,8,0:0:0:0:
256,192,19195,1,0,0:0:0:0:
256,192,19340,1,8,0:0:0:0:
256,192,19628,1,0,0:0:0:0:
256,192,19916,1,0,0:0:0:0:
256,192,20061,1,0,0:0:0:0:
256,192,20205,1,8,0:0:0:0:
256,192,20493,1,0,0:0:0:0:
256,192,20782,1,0,0:0:0:0:
256,192,21215,1,0,0:0:0:0:
256,192,21287,1,0,0:0:0:0:
256,192,21359,1,0,0:0:0:0:
256,192,21647,1,8,0:0:0:0:
256,192,21936,1,0,0:0:0:0:
256,192,22368,1,0,0:0:0:0:
256,192,22513,1,8,0:0:0:0:
256,192,22801,1,0,0:0:0:0:
256,192,22945,1,8,0:0:0:0:
256,192,23090,1,0,0:0:0:0:
256,192,23522,1,0,0:0:0:0:
256,192,23666,1,8,0:0:0:0:
256,192,23955,1,8,0:0:0:0:
256,192,24099,1,0,0:0:0:0:
256,192,24243,1,0,0:0:0:0:
256,192,24676,1,8,0:0:0:0:
256,192,24820,1,0,0:0:0:0:
256,192,25109,1,0,0:0:0:0:
256,192,25253,1,8,0:0:0:0:
256,192,25397,1,4,0:0:0:0:
256,192,25614,1,4,0:0:0:0:
256,192,25830,1,4,0:0:0:0:
256,192,25974,1,0,0:0:0:0:
256,192,26046,1,0,0:0:0:0:
256,192,26118,1,0,0:0:0:0:
256,192,26191,1,0,0:0:0:0:
256,192,26263,1,0,0:0:0:0:
256,192,26551,1,0,0:0:0:0:
256,192,26695,1,0,0:0:0:0:
256,192,26840,1,8,0:0:0:0:
256,192,26984,1,0,0:0:0:0:
256,192,27128,1,0,0:0:0:0:
256,192,27272,1,8,0:0:0:0:
256,192,27344,1,8,0:0:0:0:
256,192,27416,1,0,0:0:0:0:
256,192,27561,1,8,0:0:0:0:
256,192,27705,1,0,0:0:0:0:
256,192,27849,1,8,0:0:0:0:
256,192,27921,1,8,0:0:0:0:
256,192,27993,1,8,0:0:0:0:
256,192,28138,1,0,0:0:0:0:
256,192,28282,1,0,0:0:0:0:
256,192,28426,1,8,0:0:0:0:
256,192,28498,1,8,0:0:0:0:
256,192,28570,1,0,0:0:0:0:
256,192,28715,1,8,0:0:0:0:
256,192,28859,1,8,0:0:0:0:
256,192,29003,1,0,0:0:0:0:
256,192,29147,1,8,0:0:0:0:
256,192,29291,1,0,0:0:0:0:
256,192,29364,1,8,0:0:0:0:
256,192,29436,1,0,0:0:0:0:
256,192,29580,1,0,0:0:0:0:
256,192,29724,1,8,0:0:0:0:
256,192,29868,1,0,0:0:0:0:
256,192,30013,1,0,0:0:0:0:
256,192,30157,1,0,0:0:0:0:
256,192,30301,1,8,0:0:0:0:
256,192,30445,1,0,0:0:0:0:
256,192,30517,1,0,0:0:0:0:
256,192,30590,1,0,0:0:0:0:
256,192,30734,1,8,0:0:0:0:
256,192,30878,1,0,0:0:0:0:
256,192,30950,1,0,0:0:0:0:
256,192,31022,1,8,0:0:0:0:
256,192,31166,1,0,0:0:0:0:
256,192,31311,1,0,0:0:0:0:
256,192,31455,1,8,0:0:0:0:
256,192,31527,1,0,0:0:0:0:
256,192,31599,1,0,0:0:0:0:
256,192,31671,1,0,0:0:0:0:
256,192,31743,1,0,0:0:0:0:
256,192,31888,1,0,0:0:0:0:
256,192,32032,1,8,0:0:0:0:
256,192,32104,1,0,0:0:0:0:
256,192,32176,1,8,0:0:0:0:
256,192,32248,1,0,0:0:0:0:
256,192,32320,1,8,0:0:0:0:
256,192,32465,1,0,0:0:0:0:
256,192,32537,1,8,0:0:0:0:
256,192,32609,1,0,0:0:0:0:
256,192,32753,1,8,0:0:0:0:
256,192,32897,1,8,0:0:0:0:
256,192,33041,1,0,0:0:0:0:
256,192,33114,1,0,0:0:0:0:
256,192,33186,1,0,0:0:0:0:
256,192,33258,1,0,0:0:0:0:
256,192,33330,1,0,0:0:0:0:
256,192,33402,1,0,0:0:0:0:
256,192,33474,1,0,0:0:0:0:
256,192,33618,1,0,0:0:0:0:
256,192,33763,1,8,0:0:0:0:
256,192,33907,1,0,0:0:0:0:
256,192,34051,1,0,0:0:0:0:
256,192,34195,1,8,0:0:0:0:
256,192,34340,1,0,0:0:0:0:
256,192,34484,1,8,0:0:0:0:
256,192,34628,1,12,0:0:0:0:
256,192,34844,1,12,0:0:0:0:
256,192,35061,1,12,0:0:0:0:
256,192,35205,1,0,0:0:0:0:
256,192,35277,1,0,0:0:0:0:
256,192,35349,1,8,0:0:0:0:
256,192,35421,1,8,0:0:0:0:
256,192,35493,1,0,0:0:0:0:
256,192,35566,1,0,0:0:0:0:
256,192,35638,1,8,0:0:0:0:
256,192,35710,1,8,0:0:0:0:
256,192,35782,1,0,0:0:0:0:
256,192,35926,1,0,0:0:0:0:
256,192,36070,1,8,0:0:0:0:
256,192,36215,1,0,0:0:0:0:
256,192,36287,1,0,0:0:0:0:
256,192,36359,1,0,0:0:0:0:
256,192,36503,1,8,0:0:0:0:
256,192,36647,1,0,0:0:0:0:
256,192,36791,1,8,0:0:0:0:
256,192,36936,1,8,0:0:0:0:
256,192,37080,1,0,0:0:0:0:
256,192,37224,1,0,0:0:0:0:
256,192,37368,1,8,0:0:0:0:
256,192,37441,1,8,0:0:0:0:
256,192,37513,1,8,0:0:0:0:
256,192,37657,1,0,0:0:0:0:
256,192,37801,1,8,0:0:0:0:
256,192,37945,1,0,0:0:0:0:
256,192,38090,1,0,0:0:0:0:
256,192,38234,1,0,0:0:0:0:
256,192,38378,1,8,0:0:0:0:
256,192,38522,1,0,0:0:0:0:
256,192,38594,1,0,0:0:0:0:
256,192,38666,1,0,0:0:0:0:
256,192,38811,1,0,0:0:0:0:
256,192,38955,1,8,0:0:0:0:
256,192,39099,1,0,0:0:0:0:
256,192,39243,1,8,0:0:0:0:
256,192,39388,1,8,0:0:0:0:
256,192,39532,1,0,0:0:0:0:
256,192,39676,1,8,0:0:0:0:
256,192,39820,1,8,0:0:0:0:
256,192,39868,1,8,0:0:0:0:
256,192,39916,1,8,0:0:0:0:
256,192,39965,1,8,0:0:0:0:
256,192,40013,1,8,0:0:0:0:
256,192,40061,1,8,0:0:0:0:
256,192,40109,1,0,0:0:0:0:
256,192,40253,1,0,0:0:0:0:
256,192,40397,1,0,0:0:0:0:
256,192,40541,1,0,0:0:0:0:
256,192,40686,1,8,0:0:0:0:
256,192,40830,1,0,0:0:0:0:
256,192,40902,1,0,0:0:0:0:
256,192,40974,1,8,0:0:0:0:
256,192,41118,1,0,0:0:0:0:
256,192,41263,1,8,0:0:0:0:
256,192,41407,1,0,0:0:0:0:
256,192,41551,1,0,0:0:0:0:
256,192,41695,1,8,0:0:0:0:
256,192,41840,1,0,0:0:0:0:
256,192,41912,1,0,0:0:0:0:
256,192,41984,1,0,0:0:0:0:
256,192,42056,1,8,0:0:0:0:
256,192,42128,1,8,0:0:0:0:
256,192,42272,1,0,0:0:0:0:
256,192,42416,1,8,0:0:0:0:
256,192,42561,1,0,0:0:0:0:
256,192,42705,1,0,0:0:0:0:
256,192,42849,1,0,0:0:0:0:
256,192,42993,1,8,0:0:0:0:
256,192,43138,1,0,0:0:0:0:
256,192,43282,1,0,0:0:0:0:
256,192,43354,1,0,0:0:0:0:
256,192,43426,1,8,0:0:0:0:
256,192,43498,1,8,0:0:0:0:
256,192,43570,1,0,0:0:0:0:
256,192,43715,1,0,0:0:0:0:
256,192,43859,1,8,0:0:0:0:
256,192,44003,1,8,0:0:0:0:
256,192,44147,1,8,0:0:0:0:
256,192,44291,1,0,0:0:0:0:
256,192,44436,1,0,0:0:0:0:
256,192,44508,1,0,0:0:0:0:
256,192,44580,1,0,0:0:0:0:
256,192,44724,1,8,0:0:0:0:
256,192,44796,1,8,0:0:0:0:
256,192,44868,1,8,0:0:0:0:
256,192,45013,1,0,0:0:0:0:
256,192,45157,1,0,0:0:0:0:
256,192,45229,1,0,0:0:0:0:
256,192,45301,1,8,0:0:0:0:
256,192,45445,1,0,0:0:0:0:
256,192,45517,1,8,0:0:0:0:
256,192,45590,1,0,0:0:0:0:
256,192,45734,1,0,0:0:0:0:
256,192,45878,1,8,0:0:0:0:
256,192,46022,1,0,0:0:0:0:
256,192,46166,1,8,0:0:0:0:
256,192,46311,1,8,0:0:0:0:
256,192,46383,1,8,0:0:0:0:
256,192,46455,1,0,0:0:0:0:
256,192,46599,1,8,0:0:0:0:
256,192,46743,1,8,0:0:0:0:
256,192,46816,1,8,0:0:0:0:
256,192,46888,1,8,0:0:0:0:
256,192,47032,1,8,0:0:0:0:
256,192,47104,1,0,0:0:0:0:
256,192,47176,1,8,0:0:0:0:
256,192,47320,1,0,0:0:0:0:
256,192,47465,1,0,0:0:0:0:
256,192,47537,1,0,0:0:0:0:
256,192,47609,1,8,0:0:0:0:
256,192,47681,1,0,0:0:0:0:
256,192,47753,1,8,0:0:0:0:
256,192,47897,1,0,0:0:0:0:
256,192,47969,1,0,0:0:0:0:
256,192,48041,1,8,0:0:0:0:
256,192,48186,1,0,0:0:0:0:
256,192,48258,1,0,0:0:0:0:
256,192,48330,1,8,0:0:0:0:
256,192,48474,1,0,0:0:0:0:
256,192,48618,1,0,0:0:0:0:
256,192,48691,1,0,0:0:0:0:
256,192,48763,1,0,0:0:0:0:
256,192,48907,1,8,0:0:0:0:
256,192,49051,1,0,0:0:0:0:
256,192,49123,1,0,0:0:0:0:
256,192,49195,1,8,0:0:0:0:
256,192,49267,1,8,0:0:0:0:
256,192,49340,1,0,0:0:0:0:
256,192,49412,1,8,0:0:0:0:
256,192,49484,1,0,0:0:0:0:
256,192,49556,1,8,0:0:0:0:
256,192,49628,1,0,0:0:0:0:
256,192,49844,1,0,0:0:0:0:
256,192,50061,1,0,0:0:0:0:
256,192,50205,1,8,0:0:0:0:
256,192,50349,1,0,0:0:0:0:
256,192,50493,1,8,0:0:0:0:
256,192,50638,1,0,0:0:0:0:
256,192,50782,1,8,0:0:0:0:
256,192,50998,1,0,0:0:0:0:
256,192,51215,1,0,0:0:0:0:
256,192,51359,1,8,0:0:0:0:
256,192,51503,1,0,0:0:0:0:
256,192,51647,1,8,0:0:0:0:
256,192,51791,1,0,0:0:0:0:
256,192,51864,1,0,0:0:0:0:
256,192,51936,1,0,0:0:0:0:
256,192,52080,1,0,0:0:0:0:
256,192,52224,1,0,0:0:0:0:
256,192,52368,1,0,0:0:0:0:
256,192,52513,1,0,0:0:0:0:
256,192,52585,1,0,0:0:0:0:
256,192,52657,1,0,0:0:0:0:
256,192,52729,1,0,0:0:0:0:
256,192,52801,1,0,0:0:0:0:
256,192,52873,1,0,0:0:0:0:
256,192,52945,1,0,0:0:0:0:
256,192,53090,2,0,L|256:120,3,70,0|0|0|0,0:0|0:0|0:0|0:0,0:0:0:0:
256,192,53666,1,4,0:0:0:0:
256,192,53883,1,4,0:0:0:0:
256,192,54099,1,4,0:0:0:0:
256,192,54243,1,4,0:0:0:0:
256,192,54388,1,0,0:0:0:0:
256,192,54460,1,0,0:0:0:0:
256,192,54532,1,8,0:0:0:0:
256,192,54676,1,0,0:0:0:0:
256,192,54820,1,0,0:0:0:0:
256,192,54965,1,0,0:0:0:0:
256,192,55037,1,0,0:0:0:0:
256,192,55109,1,8,0:0:0:0:
256,192,55253,1,8,0:0:0:0:
256,192,55397,1,0,0:0:0:0:
256,192,55541,1,0,0:0:0:0:
256,192,55686,1,0,0:0:0:0:
256,192,55830,1,8,0:0:0:0:
256,192,55974,1,8,0:0:0:0:
256,192,56046,1,0,0:0:0:0:
256,192,56118,1,0,0:0:0:0:
256,192,56191,1,0,0:0:0:0:
256,192,56263,1,8,0:0:0:0:
256,192,56335,1,8,0:0:0:0:
256,192,56407,1,0,0:0:0:0:
256,192,56551,1,0,0:0:0:0:
256,192,56695,1,8,0:0:0:0:
256,192,56767,1,8,0:0:0:0:
256,192,56840,1,0,0:0:0:0:
256,192,56984,1,8,0:0:0:0:
256,192,57056,1,8,0:0:0:0:
256,192,57128,1,0,0:0:0:0:
256,192,57272,1,8,0:0:0:0:
256,192,57416,1,0,0:0:0:0:
256,192,57561,1,8,0:0:0:0:
256,192,57705,1,0,0:0:0:0:
256,192,57849,1,0,0:0:0:0:
256,192,57921,1,0,0:0:0:0:
256,192,57993,1,8,0:0:0:0:
256,192,58138,1,0,0:0:0:0:
256,192,58210,1,8,0:0:0:0:
256,192,58282,1,8,0:0:0:0:
256,192,58426,1,0,0:0:0:0:
256,192,58570,1,8,0:0:0:0:
256,192,58642,1,8,0:0:0:0:
256,192,58715,1,0,0:0:0:0:
256,192,58859,1,0,0:0:0:0:
256,192,59003,1,0,0:0:0:0:
256,192,59075,1,0,0:0:0:0:
256,192,59147,1,8,0:0:0:0:
256,192,59291,1,0,0:0:0:0:
256,192,59436,1,0,0:0:0:0:
256,192,59580,1,0,0:0:0:0:
256,192,59652,1,0,0:0:0:0:
256,192,59724,1,8,0:0:0:0:
256,192,59868,1,8,0:0:0:0:
256,192,60013,1,8,0:0:0:0:
256,192,60157,1,0,0:0:0:0:
256,192,60301,1,8,0:0:0:0:
256,192,60445,1,0,0:0:0:0:
256,192,60590,1,8,0:0:0:0:
256,192,60662,1,8,0:0:0:0:
256,192,60734,1,0,0:0:0:0:
256,192,60806,1,0,0:0:0:0:
256,192,60878,1,8,0:0:0:0:
256,192,60950,1,0,0:0:0:0:
256,192,61022,1,0,0:0:0:0:
256,192,61166,1,8,0:0:0:0:
256,192,61311,1,0,0:0:0:0:
256,192,61383,1,8,0:0:0:0:
256,192,61455,1,0,0:0:0:0:
256,192,61599,1,8,0:0:0:0:
256,192,61671,1,8,0:0:0:0:
256,192,61743,1,0,0:0:0:0:
256,192,61888,1,0,0:0:0:0:
256,192,62032,1,8,0:0:0:0:
256,192,62176,1,0,0:0:0:0:
256,192,62320,1,4,0:0:0:0:
256,192,62609,1,4,0:0:0:0:
256,192,62897,1,0,0:0:0:0:
256,192,63041,1,0,0:0:0:0:
256,192,63114,1,0,0:0:0:0:
256,192,63186,1,8,0:0:0:0:
256,192,63330,1,8,0:0:0:0:
256,192,63474,1,4,0:0:0:0:
256,192,63691,1,4,0:0:0:0:
256,192,63907,1,4,0:0:0:0:
256,192,64051,1,8,0:0:0:0:
256,192,64195,1,8,0:0:0:0:
256,192,64267,1,8,0:0:0:0:
256,192,64340,1,0,0:0:0:0:
256,192,64484,1,8,0:0:0:0:
256,192,64628,1,0,0:0:0:0:
256,192,64772,1,0,0:0:0:0:
256,192,64844,1,0,0:0:0:0:
256,192,64916,1,8,0:0:0:0:
256,192,65061,1,0,0:0:0:0:
256,192,65205,1,0,0:0:0:0:
256,192,65349,1,0,0:0:0:0:
256,192,65421,1,0,0:0:0:0:
256,192,65493,1,8,0:0:0:0:
256,192,65638,1,8,0:0:0:0:
256,192,65782,1,0,0:0:0:0:
256,192,65926,1,0,0:0:0:0:
256,192,66070,1,8,0:0:0:0:
256,192,66215,1,0,0:0:0:0:
256,192,66359,1,8,0:0:0:0:
256,192,66431,1,0,0:0:0:0:
256,192,66503,1,0,0:0:0:0:
256,192,66575,1,8,0:0:0:0:
256,192,66647,1,0,0:0:0:0:
256,192,66719,1,0,0:0:0:0:
256,192,66791,1,0,0:0:0:0:
256,192,66936,1,0,0:0:0:0:
256,192,67080,1,8,0:0:0:0:
256,192,67152,1,0,0:0:0:0:
256,192,67224,1,0,0:0:0:0:
256,192,67368,1,8,0:0:0:0:
256,192,67441,1,8,0:0:0:0:
256,192,67513,1,0,0:0:0:0:
256,192,67657,1,8,0:0:0:0:
256,192,67801,1,8,0:0:0:0:
256,192,67945,1,0,0:0:0:0:
256,192,68090,1,0,0:0:0:0:
256,192,68234,1,0,0:0:0:0:
256,192,68306,1,0,0:0:0:0:
256,192,68378,1,8,0:0:0:0:
256,192,68522,1,0,0:0:0:0:
256,192,68666,1,0,0:0:0:0:
256,192,68811,1,8,0:0:0:0:
256,192,68883,1,8,0:0:0:0:
256,192,68955,1,8,0:0:0:0:
256,192,69027,1,8,0:0:0:0:
256,192,69099,1,8,0:0:0:0:
256,192,69243,1,0,0:0:0:0:
256,192,69388,1,0,0:0:0:0:
256,192,69460,1,0,0:0:0:0:
256,192,69532,1,8,0:0:0:0:
256,192,69676,1,0,0:0:0:0:
256,192,69820,1,0,0:0:0:0:
256,192,69965,1,0,0:0:0:0:
256,192,70037,1,0,0:0:0:0:
256,192,70109,1,8,0:0:0:0:
256,192,70253,1,8,0:0:0:0:
256,192,70397,1,8,0:0:0:0:
256,192,70541,1,0,0:0:0:0:
256,192,70686,1,8,0:0:0:0:
256,192,70830,1,0,0:0:0:0:
256,192,70974,1,8,0:0:0:0:
256,192,71046,1,0,0:0:0:0:
256,192,71118,1,8,0:0:0:0:
256,192,71191,1,0,0:0:0:0:
256,192,71263,1,0,0:0:0:0:
256,192,71335,1,0,0:0:0:0:
256,192,71407,1,0,0:0:0:0:
256,192,71551,1,0,0:0:0:0:
256,192,71623,1,0,0:0:0:0:
256,192,71695,1,8,0:0:0:0:
256,192,71767,1,8,0:0:0:0:
256,192,71840,1,0,0:0:0:0:
256,192,71984,1,8,0:0:0:0:
256,192,72128,1,0,0:0:0:0:
256,192,72272,1,0,0:0:0:0:
256,192,72416,1,8,0:0:0:0:
256,192,72561,1,0,0:0:0:0:
256,192,72705,1,4,0:0:0:0:
256,192,72921,1,4,0:0:0:0:
256,192,73138,1,4,0:0:0:0:
256,192,73282,1,0,0:0:0:0:
256,192,73378,1,0,0:0:0:0:
256,192,73474,1,0,0:0:0:0:
256,192,73570,1,8,0:0:0:0:
256,192,73666,1,0,0:0:0:0:
256,192,73763,1,8,0:0:0:0:
256,192,73859,1,0,0:0:0:0:
256,192,74291,1,0,0:0:0:0:
256,192,74364,1,0,0:0:0:0:
256,192,74436,1,8,0:0:0:0:
256,192,75013,1,0,0:0:0:0:
256,192,75445,1,0,0:0:0:0:
256,192,75517,1,0,0:0:0:0:
256,192,75590,1,8,0:0:0:0:
256,192,75878,1,8,0:0:0:0:
256,192,76166,1,0,0:0:0:0:
256,192,76599,1,0,0:0:0:0:
256,192,76647,1,0,0:0:0:0:
256,192,76695,1,0,0:0:0:0:
256,192,76743,1,8,0:0:0:0:
256,192,77032,1,8,0:0:0:0:
256,192,77320,1,4,0:0:0:0:
256,192,77897,1,0,0:0:0:0:
256,192,78186,1,0,0:0:0:0:
256,192,78474,1,0,0:0:0:0:
256,192,78618,1,0,0:0:0:0:
256,192,78691,1,0,0:0:0:0:
256,192,78763,1,8,0:0:0:0:
256,192,78907,1,0,0:0:0:0:
256,192,79051,1,0,0:0:0:0:
256,192,79195,1,8,0:0:0:0:
256,192,79267,1,0,0:0:0:0:
256,192,79340,1,0,0:0:0:0:
256,192,79484,1,8,0:0:0:0:
256,192,79628,1,0,0:0:0:0:
256,192,79844,1,0,0:0:0:0:
256,192,79916,1,0,0:0:0:0:
256,192,80061,1,0,0:0:0:0:
256,192,80205,1,8,0:0:0:0:
256,192,80493,1,0,0:0:0:0:
256,192,80566,1,0,0:0:0:0:
256,192,80638,1,8,0:0:0:0:
256,192,80710,1,8,0:0:0:0:
256,192,80782,1,0,0:0:0:0:
256,192,80926,1,0,0:0:0:0:
256,192,80998,1,0,0:0:0:0:
256,192,81070,1,8,0:0:0:0:
256,192,81215,1,0,0:0:0:0:
256,192,81359,1,0,0:0:0:0:
256,192,81503,1,8,0:0:0:0:
256,192,81575,1,8,0:0:0:0:
256,192,81647,1,0,0:0:0:0:
256,192,81791,1,8,0:0:0:0:
256,192,81936,1,0,0:0:0:0:
256,192,82152,1,8,0:0:0:0:
256,192,82224,1,8,0:0:0:0:
256,192,82368,1,0,0:0:0:0:
256,192,82513,1,0,0:0:0:0:
256,192,82585,1,0,0:0:0:0:
256,192,82657,1,0,0:0:0:0:
256,192,82729,1,0,0:0:0:0:
256,192,82801,1,0,0:0:0:0:
256,192,82945,1,0,0:0:0:0:
256,192,83090,1,0,0:0:0:0:
256,192,83306,1,8,0:0:0:0:
256,192,83522,1,0,0:0:0:0:
256,192,83666,1,0,0:0:0:0:
256,192,83883,1,8,0:0:0:0:
256,192,84099,1,0,0:0:0:0:
256,192,84243,1,8,0:0:0:0:
256,192,84460,1,0,0:0:0:0:
256,192,84676,1,8,0:0:0:0:
256,192,84820,1,0,0:0:0:0:
256,192,85109,1,0,0:0:0:0:
256,192,85253,1,8,0:0:0:0:
256,192,85397,2,0,L|256:112,12,70,0|0|0|0|0|0|0|0|0|0|0|0|0,0:0|0:0|0:0|0:0|0:0|0:0|0:0|0:0|0:0|0:0|0:0|0:0|0:0,0:0:0:0:
256,192,87705,1,0,0:0:0:0:
256,192,87850,1,0,0:0:0:0:
256,192,87922,1,0,0:0:0:0:
256,192,87994,1,8,0:0:0:0:
256,192,88138,1,0,0:0:0:0:
256,192,88282,1,0,0:0:0:0:
256,192,88427,1,0,0:0:0:0:
256,192,88499,1,0,0:0:0:0:
256,192,88571,1,8,0:0:0:0:
256,192,88715,1,8,0:0:0:0:
256,192,88859,1,0,0:0:0:0:
256,192,89003,1,8,0:0:0:0:
256,192,89148,1,0,0:0:0:0:
256,192,89292,1,8,0:0:0:0:
256,192,89436,1,8,0:0:0:0:
256,192,89508,1,8,0:0:0:0:
256,192,89580,1,0,0:0:0:0:
256,192,89653,1,0,0:0:0:0:
256,192,89725,1,8,0:0:0:0:
256,192,90013,1,0,0:0:0:0:
256,192,90157,1,8,0:0:0:0:
256,192,90229,1,8,0:0:0:0:
256,192,90302,1,0,0:0:0:0:
256,192,90446,1,8,0:0:0:0:
256,192,90590,1,0,0:0:0:0:
256,192,90734,1,8,0:0:0:0:
256,192,90806,1,8,0:0:0:0:
256,192,90878,1,0,0:0:0:0:
256,192,91023,1,8,0:0:0:0:
256,192,91167,1,0,0:0:0:0:
256,192,91311,1,0,0:0:0:0:
256,192,91455,1,8,0:0:0:0:
256,192,91600,1,0,0:0:0:0:
256,192,91743,1,8,0:0:0:0:
256,192,91816,1,0,0:0:0:0:
256,192,91888,1,0,0:0:0:0:
256,192,91960,1,8,0:0:0:0:
256,192,92032,1,0,0:0:0:0:
256,192,92320,1,0,0:0:0:0:
256,192,92465,1,0,0:0:0:0:
256,192,92537,1,0,0:0:0:0:
256,192,92609,1,8,0:0:0:0:
256,192,92753,1,0,0:0:0:0:
256,192,92897,1,0,0:0:0:0:
256,192,93042,1,0,0:0:0:0:
256,192,93114,1,8,0:0:0:0:
256,192,93186,1,8,0:0:0:0:
256,192,93330,1,0,0:0:0:0:
256,192,93474,1,8,0:0:0:0:
256,192,93618,1,0,0:0:0:0:
256,192,93763,1,8,0:0:0:0:
256,192,93907,1,0,0:0:0:0:
256,192,94051,1,8,0:0:0:0:
256,192,94123,1,0,0:0:0:0:
256,192,94195,1,8,0:0:0:0:
256,192,94268,1,0,0:0:0:0:
256,192,94340,1,0,0:0:0:0:
256,192,94628,1,0,0:0:0:0:
256,192,94772,1,8,0:0:0:0:
256,192,94844,1,8,0:0:0:0:
256,192,94917,1,0,0:0:0:0:
256,192,95061,1,8,0:0:0:0:
256,192,95205,1,0,0:0:0:0:
256,192,95277,1,0,0:0:0:0:
256,192,95349,1,8,0:0:0:0:
256,192,95421,1,8,0:0:0:0:
256,192,95493,1,0,0:0:0:0:
256,192,95638,1,8,0:0:0:0:
256,192,95782,1,4,0:0:0:0:
256,192,95998,1,12,0:0:0:0:
256,192,96215,1,4,0:0:0:0:
256,192,96358,1,8,0:0:0:0:
256,192,96431,1,8,0:0:0:0:
256,192,96503,1,0,0:0:0:0:
256,192,96575,1,8,0:0:0:0:
256,192,96647,1,8,0:0:0:0:
256,192,96791,1,0,0:0:0:0:
256,192,96936,1,0,0:0:0:0:
256,192,97008,1,0,0:0:0:0:
256,192,97080,1,8,0:0:0:0:
256,192,97224,1,0,0:0:0:0:
256,192,97368,1,8,0:0:0:0:
256,192,97513,1,0,0:0:0:0:
256,192,97585,1,0,0:0:0:0:
256,192,97657,1,8,0:0:0:0:
256,192,97801,1,0,0:0:0:0:
256,192,97945,1,0,0:0:0:0:
256,192,98090,1,8,0:0:0:0:
256,192,98162,1,8,0:0:0:0:
256,192,98234,1,0,0:0:0:0:
256,192,98306,1,8,0:0:0:0:
256,192,98378,1,8,0:0:0:0:
256,192,98522,1,0,0:0:0:0:
256,192,98666,1,8,0:0:0:0:
256,192,98739,1,8,0:0:0:0:
256,192,98811,1,8,0:0:0:0:
256,192,98883,1,8,0:0:0:0:
256,192,98955,1,0,0:0:0:0:
256,192,99099,1,0,0:0:0:0:
256,192,99243,1,8,0:0:0:0:
256,192,99316,1,8,0:0:0:0:
256,192,99388,1,8,0:0:0:0:
256,192,99460,1,8,0:0:0:0:
256,192,99532,1,0,0:0:0:0:
256,192,99604,1,0,0:0:0:0:
256,192,99676,1,8,0:0:0:0:
256,192,99748,1,8,0:0:0:0:
256,192,99820,1,0,0:0:0:0:
256,192,99892,1,0,0:0:0:0:
256,192,99965,1,0,0:0:0:0:
256,192,100037,1,8,0:0:0:0:
256,192,100109,1,8,0:0:0:0:
256,192,100253,1,0,0:0:0:0:
256,192,100397,1,0,0:0:0:0:
256,192,100469,1,0,0:0:0:0:
256,192,100541,1,0,0:0:0:0:
256,192,100614,1,0,0:0:0:0:
256,192,100686,1,8,0:0:0:0:
256,192,100830,1,0,0:0:0:0:
256,192,100974,2,0,L|256:120,3,70,0|0|0|0,0:0|0:0|0:0|0:0,0:0:0:0:
256,192,101551,1,8,0:0:0:0:
256,192,101623,1,8,0:0:0:0:
256,192,101695,1,0,0:0:0:0:
256,192,101767,1,0,0:0:0:0:
256,192,101840,1,8,0:0:0:0:
256,192,101912,1,8,0:0:0:0:
256,192,101984,1,0,0:0:0:0:
256,192,102056,1,0,0:0:0:0:
256,192,102128,1,8,0:0:0:0:
256,192,102200,1,8,0:0:0:0:
256,192,102272,1,0,0:0:0:0:
256,192,102344,1,0,0:0:0:0:
256,192,102416,1,8,0:0:0:0:
256,192,102489,1,0,0:0:0:0:
256,192,102561,1,8,0:0:0:0:
256,192,102705,1,8,0:0:0:0:
256,192,102777,1,8,0:0:0:0:
256,192,102849,1,0,0:0:0:0:
256,192,102921,1,0,0:0:0:0:
256,192,102993,1,8,0:0:0:0:
256,192,103066,1,8,0:0:0:0:
256,192,103138,1,0,0:0:0:0:
256,192,103210,1,0,0:0:0:0:
256,192,103282,1,8,0:0:0:0:
256,192,103354,1,8,0:0:0:0:
256,192,103426,1,0,0:0:0:0:
256,192,103498,1,8,0:0:0:0:
256,192,103570,1,8,0:0:0:0:
256,192,103642,1,0,0:0:0:0:
256,192,103715,1,8,0:0:0:0:
256,192,103859,1,0,0:0:0:0:
256,192,103907,1,0,0:0:0:0:
256,192,103955,1,0,0:0:0:0:
256,192,104003,1,8,0:0:0:0:
256,192,104147,1,0,0:0:0:0:
256,192,104291,1,8,0:0:0:0:
256,192,104436,1,0,0:0:0:0:
256,192,104484,1,0,0:0:0:0:
256,192,104532,1,0,0:0:0:0:
256,192,104580,1,8,0:0:0:0:
256,192,104724,1,0,0:0:0:0:
256,192,104772,1,0,0:0:0:0:
256,192,104820,1,0,0:0:0:0:
256,192,104868,1,0,0:0:0:0:
256,192,104916,1,0,0:0:0:0:
256,192,104965,1,8,0:0:0:0:
256,192,105013,1,0,0:0:0:0:
256,192,105301,1,0,0:0:0:0:
256,192,105590,1,0,0:0:0:0:
256,192,105878,1,8,0:0:0:0:
256,192,106166,1,4,0:0:0:0:
256,192,106454,1,4,0:0:0:0:
256,192,106742,1,0,0:0:0:0:
256,192,107031,1,0,0:0:0:0:
256,192,107175,1,8,0:0:0:0:
256,192,107464,1,0,0:0:0:0:
256,192,107536,1,0,0:0:0:0:
256,192,107608,1,8,0:0:0:0:
256,192,107752,1,0,0:0:0:0:
256,192,107896,1,8,0:0:0:0:
256,192,108040,1,0,0:0:0:0:
256,192,108113,1,0,0:0:0:0:
256,192,108185,1,8,0:0:0:0:
256,192,108329,1,0,0:0:0:0:
256,192,108473,1,12,0:0:0:0:
256,192,108762,1,4,0:0:0:0:
256,192,109050,1,8,0:0:0:0:
256,192,109194,1,0,0:0:0:0:
256,192,109483,1,8,0:0:0:0:
256,192,109771,1,0,0:0:0:0:
256,192,109915,1,8,0:0:0:0:
256,192,110060,1,0,0:0:0:0:
256,192,110204,1,8,0:0:0:0:
256,192,110349,1,0,0:0:0:0:
256,192,110397,1,0,0:0:0:0:
256,192,110445,1,0,0:0:0:0:
256,192,110492,1,8,0:0:0:0:
