osu file format v13

[General]
AudioFilename: Bamboo Sword Girl.mp3
AudioLeadIn: 0
PreviewTime: 54241
Countdown: 0
SampleSet: Soft
StackLeniency: 0.7
Mode: 0
LetterboxInBreaks: 1
WidescreenStoryboard: 1

[Editor]
Bookmarks: 1164,5780,10395,17318,21934,26549,31164,35780,40395,45011,49626,54241,58857,64626,69241,73857,78472,83088,87703,92318,96934,101549,106164
DistanceSpacing: 1.1
BeatDivisor: 4
GridSize: 4
TimelineZoom: 1.8

[Metadata]
Title:Bamboo Sword Girl
TitleUnicode:バンブーソード・ガール
Artist:cosMo@Bousou-P
ArtistUnicode:cosMo@暴走P
Creator:MineC24
Version:Beginner
Source:GUMI 5th Anniversary party
Tags:Bamboo Sword Girl GUMI jubeat saucer fulfill REFLEC BEAT groovin'!! Dance Dance Revolution GITADORA OverDrive SOUND VOLTEX II -infinite infection- pop'n music Lapistoria pop'n rhythmin
BeatmapID:474627
BeatmapSetID:190006

[Difficulty]
HPDrainRate:3
CircleSize:2.7
OverallDifficulty:2.5
ApproachRate:3.5
SliderMultiplier:1.1
SliderTickRate:1

[Events]
//Background and Video events
Video,0,"bamboo.flv"
0,0,"BG.jpg",0,0
//Break Periods
2,14924,15940
2,74058,77094
//Storyboard Layer 0 (Background)
//Storyboard Layer 1 (Fail)
//Storyboard Layer 2 (Pass)
//Storyboard Layer 3 (Foreground)
//Storyboard Sound Samples
//Background Colour Transformations
3,100,163,162,255

[TimingPoints]
590,288.461538461538,4,2,1,80,1,0
1167,288.461538461538,4,1,1,60,1,0
5493,-100,4,1,1,45,0,0
5782,-100,4,1,1,50,0,0
17320,-133.333333333333,4,1,1,30,0,0
25974,-100,4,1,1,45,0,0
53666,-100,4,1,1,60,0,0
54243,-100,4,1,1,55,0,1
73859,-100,4,1,1,40,0,0
78474,-100,4,1,1,50,0,0
83090,-100,4,1,1,45,0,0
85397,-100,4,1,1,35,0,0
86551,-100,4,1,1,30,0,0
87705,-100,4,1,1,55,0,1
96900,-100,4,1,1,55,0,0
96936,-100,4,1,1,45,0,1
101515,-100,4,1,1,45,0,0
101551,-100,4,1,1,45,0,1
106166,-100,4,1,1,70,0,0

[Colours]
Combo1 : 255,255,255
Combo2 : 128,255,128
Combo3 : 0,128,255
Combo4 : 255,128,192

[HitObjects]
152,236,1167,6,0,P|124:184|128:124,1,110
228,68,1743,2,0,B|300:180|192:180|260:280,1,220
368,328,2609,2,0,P|388:272|368:216,2,110,0|0|0,0:0|0:0|0:0,0:0:0:0:
257,275,3474,6,0,P|197:273|148:239,2,110,0|0|0,0:0|0:0|0:0,0:0:0:0:
136,140,4484,2,0,B|164:116|164:116|212:176|292:152,1,165
256,36,5205,1,0,0:0:0:0:
464,168,5782,6,0,P|404:184|352:168,1,110
288,72,6359,2,0,P|251:111|238:164,1,110
224,288,6936,2,0,P|215:340|172:372,1,110
100,276,7513,2,0,P|80:256|53:252,2,55,0|0|0,0:0|0:0|0:0,0:0:0:0:
141,162,8090,6,0,P|173:118|172:64,1,110
56,76,8666,2,0,L|0:56,2,55,0|0|0,0:0|0:0|0:0,0:0:0:0:
141,161,9243,1,0,0:0:0:0:
368,248,9820,2,0,L|376:308,2,55,0|0|0,0:0|0:0|0:0,0:0:0:0:
324,136,10397,6,0,P|345:86|394:64,1,110
440,176,10974,2,0,P|489:197|511:246,1,110
396,284,11551,2,0,P|352:316|299:310,1,110
268,192,12128,2,0,L|275:137,2,55,0|0|0,0:0|0:0|0:0,0:0:0:0:
156,240,12705,6,0,P|104:212|92:164,1,110
136,52,13282,2,0,P|188:80|200:128,1,110
156,240,13859,2,0,P|168:292|196:312,2,82.5,0|0|0,0:0|0:0|0:0,0:0:0:0:
180,188,14436,2,0,P|224:144|232:92,1,110,0|0,0:0|0:0,0:0:0:0:
384,96,17320,6,0,P|432:172|400:252,1,165.000006294251
232,192,18474,2,0,P|216:244|224:284,2,82.5000031471254,0|0|0,0:0|0:0|0:0,0:0:0:0:
64,120,19628,6,0,P|32:200|80:276,1,165.000006294251
232,192,20782,2,0,P|264:112|216:36,1,165.000006294251
380,152,21936,6,0,P|400:224|332:296,1,165.000006294251
212,168,23090,2,0,P|192:96|260:24,1,165.000006294251
424,36,24243,6,0,P|464:60|480:100,1,82.5000031471254
416,156,24820,2,0,P|427:201|410:240,1,82.5000031471254
324,244,25397,2,0,P|300:284|260:304,2,82.5000031471254,0|0|0,0:0|0:0|0:0,0:0:0:0:
144,88,26551,6,0,L|264:100,2,110,0|0|0,0:0|0:0|0:0,0:0:0:0:
320,280,27705,2,0,P|347:228|331:172,1,110
332,60,28282,2,0,P|384:50|432:76,1,110
480,188,28859,6,0,P|436:272|416:284,1,110
352,184,29436,2,0,P|296:148|244:152,1,110
260,268,30013,2,0,P|316:304|368:300,2,110,0|0|0,0:0|0:0|0:0,0:0:0:0:
468,148,31166,6,0,P|453:95|417:54,1,110
340,148,31743,2,0,P|354:200|360:272,1,110
255,314,32320,2,0,P|200:336|144:316,1,110,0|0,0:0|0:0,0:0:0:0:
40,284,32897,1,0,0:0:0:0:
260,192,33474,6,0,P|328:252|304:336,2,165,0|0|0,0:0|0:0|0:0,0:0:0:0:
208,312,34628,2,0,P|168:288|152:228,2,110,0|0|0,0:0|0:0|0:0,0:0:0:0:
296,92,35782,6,0,B|348:64|348:64|407:77,1,110
359,187,36359,2,0,B|306:214|306:214|247:201,1,110
184,304,36936,2,0,P|140:264|136:204,2,110,0|0|0,0:0|0:0|0:0,0:0:0:0:
304,328,37801,1,0,0:0:0:0:
424,312,38090,6,0,P|444:256|416:204,1,110
468,96,38666,2,0,P|412:76|360:104,2,110,0|0|0,0:0|0:0|0:0,0:0:0:0:
228,76,39820,2,0,L|248:16,2,55,0|0|0,0:0|0:0|0:0,0:0:0:0:
128,144,40397,6,0,P|147:206|194:228,1,110,0|0,0:0|0:0,0:0:0:0:
256,324,40974,2,0,P|300:276|296:224,1,110
228,136,41551,2,0,P|208:73|161:51,2,110,0|0|0,0:0|0:0|0:0,0:0:0:0:
392,312,42705,6,0,B|440:324|440:324|480:312,2,82.5,0|0|0,0:0|0:0|0:0,0:0:0:0:
332,296,43282,2,0,B|272:280|272:280|216:296,1,110
220,172,43859,2,0,P|144:200|44:120,1,220
180,320,45013,6,0,L|300:332,1,110
352,228,45590,2,0,L|232:216,1,110
180,320,46166,2,0,P|136:276|124:220,2,110,0|0|0,0:0|0:0|0:0,0:0:0:0:
287,104,47320,6,0,P|326:66|380:60,1,110
375,181,47897,2,0,P|336:219|283:225,1,110
288,104,48474,1,0,0:0:0:0:
56,180,49051,2,0,L|44:116,2,55,0|0|0,0:0|0:0|0:0,0:0:0:0:
152,256,49628,6,0,B|184:308|184:308|244:320,1,110
336,256,50205,2,0,P|352:328|336:380,1,110
233,318,50782,2,0,P|184:359|152:363,2,82.5,0|0|0,0:0|0:0|0:0,0:0:0:0:
244,260,51359,2,0,P|256:200|304:168,1,110
400,112,51936,6,0,L|392:224,3,110,0|0|0|0,0:0|0:0|0:0|0:0,0:0:0:0:
392,344,53090,2,0,B|304:344|304:344|256:288|280:220,1,220
278,222,54243,6,0,P|224:252|164:244,1,110
104,152,54820,2,0,P|105:90|192:36,1,165,0|0,0:0|0:0,0:0:0:0:
348,112,55686,2,0,L|444:58,2,110,0|0|0,0:0|0:0|0:0,0:0:0:0:
240,168,56551,6,0,P|264:228|316:256,1,110
388,336,57128,2,0,P|417:323|433:295,2,55,0|0|0,0:0|0:0|0:0,0:0:0:0:
300,252,57705,2,0,L|204:336,1,110
256,372,58138,2,0,P|216:324|112:352,1,165
80,224,58859,6,0,P|92:164|132:124,1,110
240,88,59436,2,0,P|255:166|202:225,1,165
384,220,60301,2,0,P|437:212|479:177,2,110,0|0|0,0:0|0:0|0:0,0:0:0:0:
364,340,61166,6,0,P|304:328|256:356,1,110
256,228,61743,2,0,L|288:272,2,55,0|0|0,0:0|0:0|0:0,0:0:0:0:
176,136,62320,5,0,0:0:0:0:
256,228,62609,1,0,0:0:0:0:
176,136,62897,2,0,L|104:52,2,110,0|0|0,0:0|0:0|0:0,0:0:0:0:
296,112,63763,5,0,0:0:0:0:
256,228,64051,2,0,L|200:276,2,55,0|0|0,0:0|0:0|0:0,0:0:0:0:
300,340,64628,6,0,P|352:372|408:360,1,110
360,252,65205,2,0,P|284:228|212:276,1,165
56,184,66070,2,0,P|32:140|54:83,2,110,0|0|0,0:0|0:0|0:0,0:0:0:0:
168,140,66936,6,0,L|156:264,1,110
260,316,67513,2,0,L|266:254,2,55,0|0|0,0:0|0:0|0:0,0:0:0:0:
380,300,68090,2,0,L|374:362,2,55,0|0|0,0:0|0:0|0:0,0:0:0:0:
328,272,68522,2,0,P|396:232|444:304,1,165
404,172,69243,6,0,B|424:116|424:116|384:68,1,110
316,176,69820,2,0,P|352:244|436:252,1,165
368,84,70686,2,0,P|304:68|260:84,2,110,0|0|0,0:0|0:0|0:0,0:0:0:0:
316,192,71551,6,0,P|367:208|420:195,1,110
368,84,72128,2,0,P|304:68|260:84,1,110,0|0,0:0|0:0,0:0:0:0:
316,192,72705,2,0,L|224:208,2,82.5,0|0|0,0:0|0:0|0:0,0:0:0:0:
376,180,73282,2,0,L|500:156,2,110,0|0|0,0:0|0:0|0:0,0:0:0:0:
128,140,78474,6,0,L|200:48,1,110,0|0,0:0|0:0,0:0:0:0:
308,104,79051,2,0,L|236:196,1,110,0|0,0:0|0:0,0:0:0:0:
128,140,79628,2,0,P|112:204|128:256,2,110,0|0|0,0:0|0:0|0:0,0:0:0:0:
336,268,80782,6,0,L|224:280,1,110,0|0,0:0|0:0,0:0:0:0:
268,164,81359,2,0,L|200:172,2,55,0|0|0,0:0|0:0|0:0,0:0:0:0:
208,60,81936,2,0,L|88:71,2,110,0|0|0,0:0|0:0|0:0,0:0:0:0:
248,304,83090,6,0,P|304:328|364:308,1,110
424,212,83666,2,0,P|368:188|308:208,1,110
248,304,84243,2,0,P|230:245|176:212,1,110
64,228,84820,2,0,P|81:286|135:319,1,110
256,192,85397,12,0,87128,0:0:0:0:
104,100,87705,6,0,P|160:120|216:104,1,110
244,224,88282,2,0,P|302:213|342:171,1,110
320,120,88715,2,0,L|360:244,1,110
340,284,89147,2,0,P|392:312|452:300,2,110,0|0|0,0:0|0:0|0:0,0:0:0:0:
220,280,90013,6,0,L|192:164,1,110
288,96,90590,2,0,P|302:158|348:200,1,110
380,156,91022,2,0,L|284:232,1,110
248,264,91455,2,0,L|200:304,4,55,0|0|0|0|0,0:0|0:0|0:0|0:0|0:0,0:0:0:0:
172,168,92320,6,0,P|116:148|92:96,1,110,0|0,0:0|0:0,0:0:0:0:
200,52,92897,2,0,P|256:72|280:124,1,110
336,128,93330,2,0,L|368:252,1,110
420,256,93763,2,0,P|361:246|329:296,2,110,0|0|0,0:0|0:0|0:0,0:0:0:0:
492,160,94628,6,0,P|492:100|452:56,1,110
340,56,95205,2,0,P|340:114|379:159,1,110
288,244,95782,2,0,P|272:296|244:316,2,82.5,0|0|0,0:0|0:0|0:0,0:0:0:0:
228,252,96359,1,0,0:0:0:0:
352,80,96936,6,0,B|391:106|391:106|407:166,2,110,0|0|0,0:0|0:0|0:0,0:0:0:0:
232,108,97801,1,0,0:0:0:0:
112,92,98090,2,0,B|51:108|51:108|20:156,1,110
28,276,98666,2,0,B|88:260|88:260|120:212,1,110
112,92,99243,6,0,P|136:40|196:28,1,110
268,112,99820,2,0,P|244:164|184:176,1,110
80,216,100397,2,0,L|16:196,2,55,0|0|0,0:0|0:0|0:0,0:0:0:0:
144,320,100974,1,0,0:0:0:0:
384,272,101551,6,0,L|404:328,2,55,0|0|0,0:0|0:0|0:0,0:0:0:0:
428,160,102128,2,0,L|473:198,2,55,0|0|0,0:0|0:0|0:0,0:0:0:0:
410,41,102705,2,0,L|468:51,6,55,0|0|0|0|0|0|0,0:0|0:0|0:0|0:0|0:0|0:0|0:0,0:0:0:0:
292,64,103859,6,0,L|224:32,6,55,0|0|0|0|0|0|0,0:0|0:0|0:0|0:0|0:0|0:0|0:0,0:0:0:0:
288,184,105013,2,0,P|284:240|252:284,1,110
160,208,105590,2,0,P|164:152|196:108,1,110
312,128,106166,6,0,P|340:180|336:240,1,110
236,292,106743,2,0,B|164:180|272:180|204:80,1,220
96,36,107609,2,0,P|76:92|96:148,2,110,0|0|0,0:0|0:0|0:0,0:0:0:0:
206,84,108474,6,0,P|266:86|315:120,2,110,0|0|0,0:0|0:0|0:0,0:0:0:0:
260,256,109484,2,0,B|232:280|232:280|184:220|104:244,1,165
16,308,110205,2,0,P|52:352|108:356,1,110
