osu file format v14

[General]
AudioFilename: setsuna Imitation-cordelia.mp3
AudioLeadIn: 0
PreviewTime: -1
Countdown: 0
SampleSet: Normal
StackLeniency: 0.7
Mode: 0
LetterboxInBreaks: 0
WidescreenStoryboard: 1

[Editor]
Bookmarks: 79548,159548,168639
DistanceSpacing: 1.5
BeatDivisor: 4
GridSize: 16
TimelineZoom: 1.6

[Metadata]
Title:Setsuna Imitation
TitleUnicode:刹那≦Imitation
Artist:cordelia
ArtistUnicode:cordelia
Creator:Zweib
Version:S
Source:
Tags:hanatan c88
BeatmapID:768959
BeatmapSetID:348590

[Difficulty]
HPDrainRate:7
CircleSize:3.7
OverallDifficulty:9.2
ApproachRate:9.3
SliderMultiplier:2.1
SliderTickRate:1

[Events]
//Background and Video events
0,0,"150824002.jpg",0,0
//Break Periods
2,159748,168033
//Storyboard Layer 0 (Background)
//Storyboard Layer 1 (Fail)
//Storyboard Layer 2 (Pass)
//Storyboard Layer 3 (Foreground)
//Storyboard Sound Samples

[TimingPoints]
761,303.030303030303,4,2,0,70,1,0
1064,-200,4,2,0,70,0,0
1973,-166.666666666667,4,2,0,70,0,0
9245,-133.333333333333,4,2,0,70,0,0
10457,-100,4,2,0,70,0,0
11518,-83.3333333333333,4,1,0,70,0,0
11973,-100,4,1,0,70,0,0
26215,-200,4,1,0,70,0,0
26821,-133.333333333333,4,1,0,70,0,0
28639,-133.333333333333,4,2,0,70,0,0
31064,-133.333333333333,4,1,0,70,0,0
35003,-111.111111111111,4,1,0,70,0,0
35912,-100,4,1,0,70,0,0
45609,-166.666666666667,4,1,0,70,0,0
48033,-142.857142857143,4,1,0,70,0,0
50457,-125,4,1,0,70,0,0
53791,-133.333333333333,4,1,0,70,0,0
55306,-100,4,1,0,70,0,0
57276,-166.666666666667,4,1,0,70,0,0
57730,-100,4,1,0,70,0,0
63488,-133.333333333333,4,1,0,70,0,0
64851,-83.3333333333333,4,1,0,70,0,0
65003,-90.9090909090909,4,1,0,70,0,1
74700,-100,4,1,0,70,0,0
84245,-83.3333333333333,4,1,0,70,0,0
84700,-100,4,1,0,70,0,0
94094,-133.333333333333,4,1,0,70,0,0
98639,-200,4,1,0,70,0,0
98942,-133.333333333333,4,1,0,70,0,0
107579,-100,4,1,0,70,0,0
118336,-133.333333333333,4,1,0,70,0,0
140154,-125,4,1,0,70,0,0
158336,-166.666666666667,4,1,0,70,0,0
169245,-133.333333333333,4,1,0,70,0,0
193185,-200,4,2,0,70,0,0
203185,-125,4,1,0,70,0,0
212730,-90.9090909090909,4,1,0,70,0,0
212882,-90.9090909090909,4,1,0,70,0,1
222579,-100,4,1,0,70,0,0

[Colours]
Combo1 : 190,189,191
Combo2 : 63,77,62
Combo3 : 113,139,159
Combo4 : 98,45,46

[HitObjects]
64,236,1367,6,0,B|81:290|81:290|96:244,1,105
112,141,1973,6,0,P|54:130|-6:82,1,125.999996154785
222,98,2427,6,0,B|234:69|305:47|332:14,1,125.999996154785
198,219,2882,6,0,P|200:273|217:363,1,125.999996154785
506,218,3336,2,0,P|496:253|486:300,2,62.9999980773926
383,327,3791,2,0,P|380:296|368:265,1,62.9999980773926
432,126,4094,6,0,P|474:131|495:125,1,62.9999980773926
344,117,4397,6,0,P|321:65|390:55,1,125.999996154785
289,194,4851,6,0,P|236:200|173:249,1,125.999996154785
373,248,5306,6,0,P|355:311|359:373,1,125.999996154785
195,160,5760,2,0,P|221:101|212:31,1,125.999996154785
27,228,6215,6,0,P|9:195|3:158,1,62.9999980773926
133,231,6518,6,0,P|143:286|120:364,2,125.999996154785
290,133,7276,6,0,P|292:193|326:263,1,125.999996154785
106,73,7730,6,0,P|39:125|-16:127,2,125.999996154785
300,24,8488,2,0,P|354:64|421:72,1,125.999996154785
209,2,8942,6,0,L|202:82,1,60
149,141,9246,6,0,B|129:108|129:108|155:11|290:-19|385:80|382:183|292:286|218:255|143:218,1,551.25002102852
238,132,10457,6,0,B|273:145|310:117|310:117|278:176|278:176|314:158|314:158|298:205|298:205|334:231|334:231|338:329|338:329|326:364|288:373,1,420
0,284,11518,6,0,B|52:305|52:305|179:284|179:284|245:300,1,251.999992309571
70,179,12124,5,0,0:0:0:0:
70,179,12200,1,0,0:0:0:0:
70,179,12276,2,0,L|62:84,1,52.5
140,43,12427,1,0,0:0:0:0:
6,66,12579,1,0,0:0:0:0:
279,171,12730,6,0,B|316:196|316:196|371:162|435:175|435:175|460:133,1,210
216,103,13185,1,0,0:0:0:0:
260,265,13336,1,0,0:0:0:0:
510,214,13488,1,0,0:0:0:0:
483,57,13639,1,0,0:0:0:0:
367,157,13791,1,0,0:0:0:0:
409,383,13942,6,0,L|169:368,1,210
161,352,14321,1,0,0:0:0:0:
121,337,14397,1,0,0:0:0:0:
208,227,14548,1,0,0:0:0:0:
248,216,14624,1,0,0:0:0:0:
288,204,14700,2,0,L|297:139,2,52.5
60,167,15003,1,0,0:0:0:0:
447,186,15154,5,0,0:0:0:0:
60,167,15457,5,0,0:0:0:0:
447,186,15761,5,0,0:0:0:0:
60,167,16064,5,0,0:0:0:0:
60,167,16367,6,0,B|72:25|72:25|105:106,1,210
183,214,16821,2,0,L|175:159,1,52.5
13,284,16973,1,0,0:0:0:0:
13,284,17048,1,0,0:0:0:0:
13,284,17124,2,0,L|1:217,1,52.5
183,322,17276,5,0,0:0:0:0:
83,361,17427,1,0,0:0:0:0:
313,131,17579,6,0,P|407:85|476:159,1,210
212,165,18033,2,0,L|216:112,1,52.5
274,19,18185,1,0,0:0:0:0:
274,19,18261,1,0,0:0:0:0:
274,19,18336,1,0,0:0:0:0:
151,62,18488,1,0,0:0:0:0:
34,21,18639,1,0,0:0:0:0:
391,171,18791,6,0,B|400:228|400:228|359:324|359:324|368:380,1,210
273,115,19245,2,0,B|258:170|258:170|270:232,1,105
500,333,19548,2,0,L|495:267,2,52.5
415,219,19851,1,0,0:0:0:0:
203,353,20003,5,0,0:0:0:0:
203,353,20306,1,0,0:0:0:0:
203,353,20609,1,0,0:0:0:0:
203,353,20912,1,0,0:0:0:0:
4,191,21064,6,0,P|82:227|184:188,1,157.5
199,138,21367,6,0,L|192:72,1,52.5
306,56,21518,2,0,L|307:112,1,52.5
350,202,21669,1,0,0:0:0:0:
367,205,21745,1,0,0:0:0:0:
387,209,21821,2,0,L|394:149,5,52.5
236,287,22276,6,0,L|220:229,1,52.5
101,210,22427,1,0,0:0:0:0:
80,215,22503,1,0,0:0:0:0:
59,221,22579,2,0,L|41:280,3,52.5
114,105,22882,1,0,0:0:0:0:
114,105,22957,1,0,0:0:0:0:
114,105,23033,2,0,L|109:8,3,52.5
234,49,23336,5,0,0:0:0:0:
252,51,23412,1,0,0:0:0:0:
267,53,23488,2,0,L|337:35,1,52.5
450,38,23639,1,0,0:0:0:0:
450,38,23715,1,0,0:0:0:0:
450,38,23791,6,0,L|446:120,1,52.5
488,246,23942,1,0,0:0:0:0:
488,246,24094,1,0,0:0:0:0:
318,139,24245,6,0,L|318:205,1,52.5
377,315,24397,1,0,0:0:0:0:
377,315,24548,1,0,0:0:0:0:
152,196,24700,6,0,L|144:266,1,52.5
237,332,24851,1,0,0:0:0:0:
237,332,25003,1,0,0:0:0:0:
50,294,25154,5,0,0:0:0:0:
30,189,25306,1,0,0:0:0:0:
125,118,25457,1,0,0:0:0:0:
1,70,25609,5,0,0:0:0:0:
131,219,25761,1,0,0:0:0:0:
304,161,25912,1,0,0:0:0:0:
174,28,26064,1,0,0:0:0:0:
468,253,26215,6,0,P|465:343|407:293,1,210
256,192,26973,12,0,28639,0:0:0:0:
249,199,30457,6,0,L|243:158,3,26.2500010013581
397,76,31064,5,0,0:0:0:0:
427,126,31215,1,0,0:0:0:0:
419,23,31367,5,0,0:0:0:0:
402,181,31518,1,0,0:0:0:0:
269,95,31670,6,0,L|172:84,1,78.7500030040742
72,115,31973,1,0,0:0:0:0:
357,268,32125,2,0,L|438:284,1,78.7500030040742
79,253,32427,6,0,L|1:241,1,78.7500030040742
204,358,32730,1,0,0:0:0:0:
235,176,32882,2,0,L|310:153,1,78.7500030040742
410,93,33185,1,0,0:0:0:0:
460,242,33336,1,0,0:0:0:0:
151,156,33488,6,0,L|175:-3,1,157.500006008148
54,295,33942,1,0,0:0:0:0:
363,197,34094,2,0,L|327:36,1,157.500006008148
485,296,34548,1,0,0:0:0:0:
199,287,34700,6,0,P|195:233|248:225,1,118.125004506111
323,283,35003,6,0,L|306:376,1,94.499997116089
244,129,35306,5,0,0:0:0:0:
260,97,35382,5,0,0:0:0:0:
253,81,35457,1,0,0:0:0:0:
243,64,35533,1,0,0:0:0:0:
259,34,35609,5,0,0:0:0:0:
316,24,35685,1,0,0:0:0:0:
374,13,35760,1,0,0:0:0:0:
133,146,35912,6,0,B|116:104|116:104|132:35,1,105
359,207,36215,2,0,B|377:175|377:175|365:107,1,105
231,230,36518,1,0,0:0:0:0:
76,249,36670,6,0,B|6:239|6:239|49:278,1,105
376,309,36973,2,0,B|435:319|435:319|495:310,1,105
158,349,37276,6,0,L|278:324,1,105
349,31,37579,2,0,L|227:49,1,105
430,168,37882,1,0,0:0:0:0:
433,146,37958,1,0,0:0:0:0:
436,124,38033,1,0,0:0:0:0:
194,193,38185,1,0,0:0:0:0:
105,109,38336,6,0,L|-8:95,1,105
322,261,38639,2,0,L|430:239,1,105
118,276,38942,1,0,0:0:0:0:
291,132,39094,2,0,L|300:24,1,105
14,237,39397,6,0,B|88:246|88:246|137:228|137:228|239:241,1,210
40,48,39851,2,0,P|32:89|65:143,1,105
298,189,40154,1,0,0:0:0:0:
160,328,40306,1,0,0:0:0:0:
159,343,40382,1,0,0:0:0:0:
159,360,40457,1,0,0:0:0:0:
446,322,40609,1,0,0:0:0:0:
430,94,40760,6,0,B|339:63|339:63|210:79,1,210
49,294,41215,2,0,B|120:315|120:315|290:288,1,210
121,22,41670,1,0,0:0:0:0:
127,32,41973,6,0,P|41:138|59:225,1,210
495,269,42427,2,0,P|458:146|371:116,1,210
240,90,42806,1,0,0:0:0:0:
240,90,42882,1,0,0:0:0:0:
367,247,43033,1,0,0:0:0:0:
250,193,43185,6,0,L|241:352,1,157.5
102,284,43488,6,0,B|82:266|82:266|178:255,1,105
413,188,43791,1,0,0:0:0:0:
339,272,43942,1,0,0:0:0:0:
73,248,44094,6,0,L|211:226,1,105
409,127,44397,1,0,0:0:0:0:
386,236,44548,1,0,0:0:0:0:
47,221,44700,6,0,L|183:199,1,105
489,323,45003,5,0,0:0:0:0:
493,335,45154,1,0,0:0:0:0:
491,347,45306,1,0,0:0:0:0:
487,356,45457,1,0,0:0:0:0:
264,194,45609,6,0,P|310:191|392:211,1,125.999996154785
457,39,46064,5,0,0:0:0:0:
250,185,46215,6,0,P|304:187|383:177,1,125.999996154785
103,78,46670,1,0,0:0:0:0:
235,183,46821,6,0,P|324:188|376:197,1,125.999996154785
154,369,47276,1,0,0:0:0:0:
315,357,47427,5,0,0:0:0:0:
64,279,47629,5,0,0:0:0:0:
393,257,47831,5,0,0:0:0:0:
159,144,48033,6,0,P|167:67|196:0,1,146.999995513916
33,307,48488,1,0,0:0:0:0:
186,170,48640,6,0,P|178:119|146:18,1,146.999995513916
389,283,49094,1,0,0:0:0:0:
152,188,49246,6,0,P|162:103|182:41,1,146.999995513916
220,384,49700,1,0,0:0:0:0:
128,364,49851,6,0,P|121:299|125:279,1,73.4999977569581
299,280,50154,2,0,P|308:338|304:363,1,73.4999977569581
213,250,50457,6,0,P|339:248|395:242,1,168
141,125,50912,1,0,0:0:0:0:
393,249,51064,6,0,P|253:235|218:237,1,168
477,87,51518,1,0,0:0:0:0:
207,259,51670,6,0,P|339:241|391:242,1,168
72,37,52124,1,0,0:0:0:0:
346,99,52276,5,0,0:0:0:0:
252,142,52478,5,0,0:0:0:0:
207,53,52680,5,0,0:0:0:0:
300,10,52882,5,0,0:0:0:0:
252,142,53791,6,0,B|163:169|108:80|108:80|63:129|90:195,1,275.62501051426
186,258,54397,2,0,P|186:216|180:179,1,78.7500030040742
118,365,54700,1,0,0:0:0:0:
141,358,54775,1,0,0:0:0:0:
166,355,54851,1,0,0:0:0:0:
190,356,54927,1,0,0:0:0:0:
214,361,55003,1,0,0:0:0:0:
238,366,55078,1,0,0:0:0:0:
263,369,55154,1,0,0:0:0:0:
287,368,55230,1,0,0:0:0:0:
313,365,55306,6,0,B|336:330|336:330|341:260,1,105
453,193,55609,1,0,0:0:0:0:
162,245,55760,2,0,B|7:225|7:225|66:273,1,210
256,96,56215,5,0,0:0:0:0:
97,46,56367,2,0,P|90:98|109:147,1,105
432,241,56670,2,0,P|377:179|294:195,1,157.5
403,147,56973,2,0,P|422:86|415:47,1,105
199,173,57276,6,0,L|191:236,1,62.9999980773926
20,314,57579,1,0,0:0:0:0:
28,327,57654,1,0,0:0:0:0:
35,339,57730,6,0,P|97:342|151:345,2,105
466,268,58185,2,0,B|386:265|332:323|332:323|384:357,1,210
287,233,58639,1,0,0:0:0:0:
239,346,58791,1,0,0:0:0:0:
120,312,58942,5,0,0:0:0:0:
393,213,59094,2,0,P|423:161|341:159,1,157.5
203,269,59397,2,0,P|191:219|220:161,1,105
275,97,59700,1,0,0:0:0:0:
340,297,59851,2,0,L|337:350,1,52.5
439,230,60003,1,0,0:0:0:0:
470,225,60078,1,0,0:0:0:0:
503,221,60154,5,0,0:0:0:0:
430,123,60306,1,0,0:0:0:0:
321,156,60457,1,0,0:0:0:0:
196,104,60609,2,0,L|204:48,2,52.5
317,7,60912,1,0,0:0:0:0:
78,92,61064,2,0,P|36:86|5:36,1,105
199,216,61291,1,0,0:0:0:0:
201,242,61367,5,0,0:0:0:0:
312,160,61518,1,0,0:0:0:0:
122,160,61670,1,0,0:0:0:0:
437,213,61821,5,0,0:0:0:0:
306,38,61973,1,0,0:0:0:0:
99,262,62124,1,0,0:0:0:0:
92,22,62276,5,0,0:0:0:0:
245,357,62427,1,0,0:0:0:0:
0,295,62579,5,0,0:0:0:0:
17,188,62730,1,0,0:0:0:0:
78,363,62882,1,0,0:0:0:0:
99,262,63033,5,0,0:0:0:0:
401,328,63185,1,0,0:0:0:0:
254,228,63336,2,0,L|258:151,1,52.5
234,71,63488,5,0,0:0:0:0:
234,71,63639,1,0,0:0:0:0:
491,60,63942,5,0,0:0:0:0:
491,60,64094,2,0,L|489:163,1,78.7500030040742
409,148,64321,1,0,0:0:0:0:
409,148,64397,2,0,P|339:188|250:160,1,157.500006008148
197,153,64851,6,0,P|345:191|343:296,1,251.999992309571
91,133,65306,2,0,P|111:86|104:16,1,115.50000352478
131,261,65609,1,0,0:0:0:0:
0,64,65760,1,0,0:0:0:0:
25,224,65912,2,0,P|12:244|-3:279,1,57.7500017623902
192,180,66064,6,0,L|426:189,1,231.000007049561
512,40,66518,1,0,0:0:0:0:
478,313,66670,5,0,0:0:0:0:
314,307,66821,1,0,0:0:0:0:
490,269,66973,5,0,0:0:0:0:
312,331,67124,2,0,L|250:326,1,57.7500017623902
18,312,67276,6,0,B|32:278|65:254|65:254|168:233|156:114,1,231.000007049561
131,29,67730,1,0,0:0:0:0:
109,251,67882,1,0,0:0:0:0:
33,140,68033,1,0,0:0:0:0:
260,101,68185,1,0,0:0:0:0:
234,231,68336,1,0,0:0:0:0:
461,272,68488,6,0,B|468:216|468:216|504:135,2,115.50000352478
154,384,68942,2,0,B|158:328|158:328|131:256,1,115.50000352478
22,201,69170,1,0,0:0:0:0:
22,201,69245,5,0,0:0:0:0:
48,319,69397,1,0,0:0:0:0:
273,378,69548,1,0,0:0:0:0:
385,106,69700,6,0,P|312:78|178:147,1,231.000007049561
463,298,70079,1,0,0:0:0:0:
463,298,70154,2,0,L|480:151,1,115.50000352478
459,23,70457,1,0,0:0:0:0:
297,211,70609,1,0,0:0:0:0:
385,106,70760,5,0,0:0:0:0:
144,111,70912,2,0,P|80:94|39:69,1,115.50000352478
400,225,71215,2,0,P|458:248|505:297,1,115.50000352478
82,350,71518,2,0,P|81:285|105:233,1,115.50000352478
266,15,71821,2,0,P|287:75|292:137,1,115.50000352478
488,359,72124,6,0,B|416:334|399:253|412:219|412:219|437:235|443:278,1,231.000007049561
312,329,72503,1,0,0:0:0:0:
295,315,72579,6,0,P|289:283|295:246,1,57.7500017623902
404,136,72730,2,0,P|395:163|377:185,1,57.7500017623902
264,158,72882,5,0,0:0:0:0:
139,11,73033,1,0,0:0:0:0:
445,65,73185,1,0,0:0:0:0:
228,258,73336,6,0,B|161:264|161:264|63:235|63:235|1:242,1,231.000007049561
50,121,73715,1,0,0:0:0:0:
66,149,73791,5,0,0:0:0:0:
83,155,73867,1,0,0:0:0:0:
100,157,73942,1,0,0:0:0:0:
117,162,74018,1,0,0:0:0:0:
161,153,74094,5,0,0:0:0:0:
156,169,74170,1,0,0:0:0:0:
151,185,74245,1,0,0:0:0:0:
145,201,74321,1,0,0:0:0:0:
76,260,74397,6,0,P|58:311|103:375,1,115.50000352478
470,286,74700,6,0,P|504:181|420:84,1,210
89,11,75154,2,0,P|125:116|242:152,1,210
367,11,75609,1,0,0:0:0:0:
376,0,75912,6,0,B|363:59|363:59|373:142|373:142|351:227,1,210
99,384,76367,2,0,P|58:264|115:221,1,210
473,335,76821,2,0,L|455:222,1,105
41,30,77124,5,0,0:0:0:0:
28,37,77427,2,0,L|170:56,1,140
316,88,77730,6,0,B|326:72|349:64|349:64|322:54|296:31,1,70
163,141,77932,2,0,B|153:155|132:163|132:163|154:173|156:213,1,70
429,223,78134,2,0,B|426:203|441:189|441:189|417:186|393:165,1,70
267,267,78336,6,0,B|258:299|258:299|276:391,1,105
89,375,78639,1,0,0:0:0:0:
85,359,78715,1,0,0:0:0:0:
82,343,78791,1,0,0:0:0:0:
176,215,78942,1,0,0:0:0:0:
173,230,79018,1,0,0:0:0:0:
170,245,79094,1,0,0:0:0:0:
67,186,79245,2,0,B|48:163|48:163|44:68,1,105
458,54,79548,5,0,0:0:0:0:
449,81,79624,2,0,B|399:96|399:96|278:62,1,157.5
234,8,79927,1,0,0:0:0:0:
234,8,80003,5,0,0:0:0:0:
213,31,80078,1,0,0:0:0:0:
205,61,80154,1,0,0:0:0:0:
208,92,80230,1,0,0:0:0:0:
221,120,80306,1,0,0:0:0:0:
245,139,80381,1,0,0:0:0:0:
302,155,80457,5,0,0:0:0:0:
299,189,80532,1,0,0:0:0:0:
296,224,80608,1,0,0:0:0:0:
295,259,80684,1,0,0:0:0:0:
292,297,80760,5,0,0:0:0:0:
319,281,80835,1,0,0:0:0:0:
349,271,80911,1,0,0:0:0:0:
380,268,80987,1,0,0:0:0:0:
411,270,81063,1,0,0:0:0:0:
442,278,81138,1,0,0:0:0:0:
482,301,81215,5,0,0:0:0:0:
430,308,81290,1,0,0:0:0:0:
378,304,81366,1,0,0:0:0:0:
328,287,81442,1,0,0:0:0:0:
284,260,81518,1,0,0:0:0:0:
247,222,81593,1,0,0:0:0:0:
220,176,81670,5,0,0:0:0:0:
171,156,81745,1,0,0:0:0:0:
119,157,81821,1,0,0:0:0:0:
72,179,81897,1,0,0:0:0:0:
36,220,81973,6,0,L|52:287,1,52.5
345,183,82124,1,0,0:0:0:0:
154,289,82276,1,0,0:0:0:0:
376,352,82427,6,0,L|388:300,1,52.5
274,99,82578,1,0,0:0:0:0:
482,191,82730,1,0,0:0:0:0:
408,37,82882,6,0,L|397:116,1,52.5
300,228,83033,1,0,0:0:0:0:
102,143,83185,1,0,0:0:0:0:
200,113,83336,5,0,0:0:0:0:
204,120,83412,1,0,0:0:0:0:
208,127,83488,2,0,L|225:187,1,52.5
68,235,83639,5,0,0:0:0:0:
59,234,83715,1,0,0:0:0:0:
51,234,83791,2,0,L|-9:218,1,52.5
34,64,83942,5,0,0:0:0:0:
38,57,84018,1,0,0:0:0:0:
42,50,84094,2,0,L|85:5,1,52.5
458,115,84245,6,0,B|390:113|390:113|292:131|292:131|199:126,1,251.999992309571
484,366,84851,1,0,0:0:0:0:
465,361,84927,1,0,0:0:0:0:
446,357,85003,6,0,L|457:300,1,52.5
467,214,85154,1,0,0:0:0:0:
203,102,85306,5,0,0:0:0:0:
240,272,85457,2,0,B|144:240|128:304|32:272,1,210
73,172,85912,2,0,P|52:124|62:52,1,105
118,307,86215,1,0,0:0:0:0:
182,188,86367,1,0,0:0:0:0:
189,377,86518,1,0,0:0:0:0:
471,310,86670,6,0,B|481:246|481:246|458:176|458:176|457:97,1,210
363,74,87048,5,0,0:0:0:0:
367,85,87124,1,0,0:0:0:0:
427,0,87276,1,0,0:0:0:0:
259,53,87427,5,0,0:0:0:0:
241,67,87503,1,0,0:0:0:0:
224,88,87579,1,0,0:0:0:0:
510,82,87730,1,0,0:0:0:0:
272,379,87882,5,0,0:0:0:0:
256,368,88185,5,0,0:0:0:0:
239,357,88488,5,0,0:0:0:0:
223,348,88791,5,0,0:0:0:0:
207,338,89094,6,0,L|229:125,1,210
190,27,89548,1,0,0:0:0:0:
105,124,89700,1,0,0:0:0:0:
107,149,89776,1,0,0:0:0:0:
109,173,89851,1,0,0:0:0:0:
321,129,90003,1,0,0:0:0:0:
0,118,90154,1,0,0:0:0:0:
434,68,90306,6,0,L|410:283,1,210
471,373,90760,1,0,0:0:0:0:
328,330,90912,1,0,0:0:0:0:
300,329,90988,1,0,0:0:0:0:
273,328,91064,1,0,0:0:0:0:
321,129,91215,1,0,0:0:0:0:
508,244,91367,1,0,0:0:0:0:
63,358,91518,6,0,P|81:251|173:265,1,210
18,148,91973,2,0,P|-3:88|14:41,1,105
228,37,92276,1,0,0:0:0:0:
228,73,92351,1,0,0:0:0:0:
215,107,92427,1,0,0:0:0:0:
124,201,92579,1,0,0:0:0:0:
469,85,92730,5,0,0:0:0:0:
456,89,93033,5,0,0:0:0:0:
443,95,93336,5,0,0:0:0:0:
431,102,93639,5,0,0:0:0:0:
471,189,93791,2,0,B|432:232|522:255|490:338,1,157.5
397,302,94094,6,0,P|303:299|297:364,1,157.500006008148
281,339,94473,1,0,0:0:0:0:
270,333,94548,1,0,0:0:0:0:
258,329,94624,1,0,0:0:0:0:
246,326,94700,1,0,0:0:0:0:
234,324,94776,1,0,0:0:0:0:
222,321,94851,1,0,0:0:0:0:
210,320,94927,1,0,0:0:0:0:
198,322,95003,6,0,P|108:341|82:283,1,157.500006008148
85,283,95382,1,0,0:0:0:0:
89,272,95457,1,0,0:0:0:0:
92,260,95533,1,0,0:0:0:0:
93,248,95609,1,0,0:0:0:0:
91,236,95685,1,0,0:0:0:0:
85,225,95760,1,0,0:0:0:0:
76,217,95836,1,0,0:0:0:0:
67,208,95912,6,0,B|42:188|42:188|58:175|58:175|31:111|44:63,1,157.500006008148
49,64,96291,1,0,0:0:0:0:
58,56,96367,1,0,0:0:0:0:
67,49,96442,1,0,0:0:0:0:
78,45,96518,5,0,0:0:0:0:
212,82,96670,1,0,0:0:0:0:
345,122,96821,1,0,0:0:0:0:
187,236,96973,5,0,0:0:0:0:
319,203,97124,2,0,L|347:234,1,39.3750015020371
458,172,97276,1,0,0:0:0:0:
476,41,97427,5,0,0:0:0:0:
445,267,97579,2,0,L|443:306,1,39.3750015020371
345,122,97730,5,0,0:0:0:0:
183,306,97882,1,0,0:0:0:0:
0,184,98033,5,0,0:0:0:0:
348,227,98185,1,0,0:0:0:0:
130,157,98336,5,0,0:0:0:0:
125,141,98412,1,0,0:0:0:0:
121,125,98488,1,0,0:0:0:0:
116,109,98564,1,0,0:0:0:0:
112,95,98639,2,0,L|115:-5,1,78.75,0|0,0:0|2:0,0:0:0:0:
237,53,98942,6,0,L|233:162,1,78.7500030040742
214,213,99170,1,0,0:0:0:0:
214,213,99245,1,0,0:0:0:0:
355,192,99397,2,0,L|347:139,1,39.3750015020371
402,76,99548,1,0,0:0:0:0:
447,299,99700,1,0,0:0:0:0:
447,299,100003,6,0,L|284:314,1,157.500006008148
290,313,100382,1,0,0:0:0:0:
290,313,100457,1,0,0:0:0:0:
168,278,100609,5,0,0:0:0:0:
211,360,100760,1,0,0:0:0:0:
251,240,100912,5,0,0:0:0:0:
104,384,101064,1,0,0:0:0:0:
52,187,101215,1,0,0:0:0:0:
315,45,101367,5,0,0:0:0:0:
221,26,101518,1,0,0:0:0:0:
218,44,101594,1,0,0:0:0:0:
218,65,101670,2,0,L|228:116,1,39.3750015020371
286,179,101821,1,0,0:0:0:0:
373,126,101973,5,0,0:0:0:0:
476,108,102124,1,0,0:0:0:0:
393,233,102276,1,0,0:0:0:0:
393,233,102427,6,0,L|403:311,1,78.7500030040742
159,196,102730,1,0,0:0:0:0:
159,196,102881,2,0,L|147:284,1,78.7500030040742
142,319,103109,1,0,0:0:0:0:
142,319,103185,5,0,0:0:0:0:
278,216,103336,1,0,0:0:0:0:
87,129,103488,2,0,B|38:125|6:154|6:154|61:152,1,118.125004506111
227,125,103791,5,0,0:0:0:0:
364,94,103942,1,0,0:0:0:0:
395,89,104018,1,0,0:0:0:0:
432,83,104094,2,0,L|474:73,1,39.3750015020371
490,177,104245,6,0,B|516:217|495:271|495:271|472:242,1,118.125004506111
405,237,104548,1,0,0:0:0:0:
405,237,104700,1,0,0:0:0:0:
277,199,104851,2,0,L|289:148,1,39.3750015020371
333,314,105003,1,0,0:0:0:0:
333,314,105079,1,0,0:0:0:0:
333,314,105154,2,0,L|337:358,1,39.3750015020371
215,298,105306,1,0,0:0:0:0:
138,86,105457,6,0,L|146:43,2,39.3750015020371
69,184,105760,1,0,0:0:0:0:
205,168,105912,1,0,0:0:0:0:
0,71,106064,5,0,0:0:0:0:
272,95,106215,2,0,P|265:33|246:3,1,78.7500030040742
73,219,106518,6,0,L|78:258,1,39.3750015020371
226,312,106670,1,0,0:0:0:0:
377,214,106821,2,0,P|399:161|400:118,1,78.7500030040742
384,110,107048,1,0,0:0:0:0:
384,110,107124,1,0,0:0:0:0:
284,231,107276,5,0,0:0:0:0:
188,281,107427,2,0,P|174:242|174:193,1,78.7500030040742
184,182,107654,1,0,0:0:0:0:
196,155,107730,2,0,L|190:102,2,52.5
87,272,108033,5,0,0:0:0:0:
87,255,108109,1,0,0:0:0:0:
80,240,108185,1,0,0:0:0:0:
66,232,108260,1,0,0:0:0:0:
43,228,108336,5,0,0:0:0:0:
18,238,108412,1,0,0:0:0:0:
1,265,108488,1,0,0:0:0:0:
5,301,108564,1,0,0:0:0:0:
36,329,108639,6,0,B|116:353|116:353|86:372,1,105
206,263,108942,2,0,L|324:295,1,105
419,56,109245,5,0,0:0:0:0:
277,69,109397,1,0,0:0:0:0:
488,135,109548,1,0,0:0:0:0:
219,157,109700,1,0,0:0:0:0:
219,157,110003,5,0,0:0:0:0:
378,357,110154,1,0,0:0:0:0:
488,135,110306,1,0,0:0:0:0:
308,256,110457,5,0,0:0:0:0:
356,152,110609,1,0,0:0:0:0:
425,239,110760,1,0,0:0:0:0:
114,256,110912,1,0,0:0:0:0:
215,292,111064,6,0,B|221:242|221:242|197:193,1,105
21,204,111367,2,0,B|0:244|0:244|16:302,1,105
100,122,111670,5,0,0:0:0:0:
127,369,111821,1,0,0:0:0:0:
112,237,111973,1,0,0:0:0:0:
321,263,112124,6,0,B|341:277|341:277|385:255|385:255|442:310|534:271,1,210
457,80,112579,2,0,P|447:157|467:175,1,105
214,364,112882,1,0,0:0:0:0:
219,331,112957,1,0,0:0:0:0:
218,295,113033,1,0,0:0:0:0:
294,168,113185,1,0,0:0:0:0:
294,168,113336,1,0,0:0:0:0:
34,69,113488,6,0,P|145:99|232:66,1,210
507,290,113942,2,0,P|403:265|281:286,1,210
80,356,114397,1,0,0:0:0:0:
95,367,114700,6,0,B|88:292|88:292|112:224|112:224|105:156,1,210
429,19,115154,2,0,L|410:246,1,210
410,280,115533,1,0,0:0:0:0:
410,280,115609,1,0,0:0:0:0:
202,28,116063,5,0,0:0:0:0:
202,28,116215,2,0,L|213:156,1,105
164,342,116518,1,0,0:0:0:0:
330,151,116670,5,0,0:0:0:0:
49,355,116973,5,0,0:0:0:0:
375,109,117276,5,0,0:0:0:0:
134,216,117427,1,0,0:0:0:0:
338,375,117579,1,0,0:0:0:0:
331,182,117730,5,0,0:0:0:0:
226,190,117882,1,0,0:0:0:0:
239,294,118033,1,0,0:0:0:0:
343,282,118185,1,0,0:0:0:0:
20,33,118336,6,0,L|55:203,1,157.500006008148
176,48,118791,2,0,L|164:148,1,78.7500030040742
256,256,119094,1,0,0:0:0:0:
492,33,119245,6,0,L|457:203,1,157.500006008148
336,48,119700,2,0,L|348:148,1,78.7500030040742
256,256,120003,1,0,0:0:0:0:
111,105,120154,1,0,0:0:0:0:
145,86,120230,1,0,0:0:0:0:
179,65,120306,2,0,L|168:164,2,78.7500030040742
20,351,120760,6,0,L|55:181,1,157.500006008148
176,336,121215,2,0,L|164:236,1,78.7500030040742
256,128,121518,1,0,0:0:0:0:
492,351,121670,6,0,L|457:181,1,157.500006008148
336,336,122125,2,0,L|348:236,1,78.7500030040742
256,133,122428,1,0,0:0:0:0:
180,238,122579,5,0,0:0:0:0:
375,152,122730,1,0,0:0:0:0:
217,36,122882,2,0,L|124:50,1,78.7500030040742
16,144,123185,6,0,L|189:156,1,157.500006008148
480,208,123639,2,0,L|400:224,1,78.7500030040742
288,208,123942,1,0,0:0:0:0:
458,338,124094,2,0,L|288:320,1,157.500006008148
64,256,124548,2,0,L|160:240,1,78.7500030040742
288,112,124851,1,0,0:0:0:0:
103,14,125003,5,0,0:0:0:0:
137,129,125205,1,0,0:0:0:0:
225,35,125407,1,0,0:0:0:0:
479,40,125609,5,0,0:0:0:0:
480,167,125811,1,0,0:0:0:0:
371,108,126013,1,0,0:0:0:0:
13,216,126215,5,0,0:0:0:0:
54,350,126417,1,0,0:0:0:0:
155,252,126619,1,0,0:0:0:0:
480,335,126821,6,0,B|427:334|378:357|378:357|320:352|279:299,1,210.000008010865
326,190,127427,1,0,0:0:0:0:
326,190,127629,2,0,P|341:132|321:64,1,105.000004005432
26,134,128033,6,0,P|13:83|35:10,1,105.000004005432
141,56,128437,1,0,0:0:0:0:
127,192,128639,2,0,P|167:161|236:154,1,105.000004005432
37,240,129043,1,0,0:0:0:0:
397,291,129245,6,0,P|357:253|293:242,2,105.000004005432
498,352,129851,1,0,0:0:0:0:
478,244,130053,1,0,0:0:0:0:
303,342,130255,1,0,0:0:0:0:
263,102,130457,6,0,B|326:46|415:75|415:75|375:146,1,210.000008010865
191,295,131064,2,0,P|101:311|24:198,1,210.000008010865
279,202,131670,5,0,0:0:0:0:
281,326,131872,1,0,0:0:0:0:
123,206,132074,1,0,0:0:0:0:
117,176,132175,1,0,0:0:0:0:
111,145,132276,1,0,0:0:0:0:
359,23,132478,1,0,0:0:0:0:
355,147,132680,1,0,0:0:0:0:
31,156,132882,5,0,0:0:0:0:
146,8,133084,1,0,0:0:0:0:
226,167,133286,1,0,0:0:0:0:
116,341,133488,5,0,0:0:0:0:
137,111,133690,1,0,0:0:0:0:
342,234,133892,1,0,0:0:0:0:
491,136,134094,5,0,0:0:0:0:
293,79,134296,1,0,0:0:0:0:
293,79,134397,1,0,0:0:0:0:
293,79,134498,1,0,0:0:0:0:
430,298,134700,1,0,0:0:0:0:
211,331,134902,1,0,0:0:0:0:
211,331,135003,1,0,0:0:0:0:
211,331,135104,1,0,0:0:0:0:
130,244,135306,5,0,0:0:0:0:
159,136,135508,5,0,0:0:0:0:
271,77,135710,5,0,0:0:0:0:
397,132,135912,5,0,0:0:0:0:
435,279,136114,5,0,0:0:0:0:
299,371,136316,5,0,0:0:0:0:
122,350,136518,5,0,0:0:0:0:
21,188,136720,5,0,0:0:0:0:
135,23,136922,5,0,0:0:0:0:
344,3,137124,5,0,0:0:0:0:
512,149,137326,5,0,0:0:0:0:
423,368,137528,5,0,0:0:0:0:
177,384,137730,6,0,P|153:323|166:254,2,105.000004005432
351,115,138336,2,0,P|359:63|345:13,2,105.000004005432
240,66,138942,6,0,L|276:315,1,236.250009012223
273,299,139548,1,0,0:0:0:0:
306,318,140154,5,0,0:0:0:0:
423,268,140356,1,0,0:0:0:0:
174,295,140558,1,0,0:0:0:0:
15,165,140760,5,0,0:0:0:0:
271,104,140963,1,0,0:0:0:0:
132,89,141165,1,0,0:0:0:0:
366,178,141367,6,0,P|437:171|476:122,1,112
480,120,141670,1,0,0:0:0:0:
482,94,141771,1,0,0:0:0:0:
377,72,141973,5,0,0:0:0:0:
511,278,142175,1,0,0:0:0:0:
511,278,142377,1,0,0:0:0:0:
290,300,142579,6,0,P|236:322|172:301,2,112
16,179,143185,2,0,P|64:139|116:133,2,112
232,190,143791,6,0,P|246:130|218:57,1,112
215,61,144094,1,0,0:0:0:0:
193,48,144195,1,0,0:0:0:0:
112,237,144397,1,0,0:0:0:0:
217,301,144599,1,0,0:0:0:0:
338,267,144801,1,0,0:0:0:0:
467,26,145003,6,0,P|441:98|455:160,1,112
486,317,145407,1,0,0:0:0:0:
272,202,145609,2,0,P|200:182|151:177,1,112
13,235,146013,1,0,0:0:0:0:
250,53,146215,6,0,P|306:35|379:20,1,112
101,36,146619,1,0,0:0:0:0:
342,157,146821,2,0,P|407:175|454:179,1,112
192,156,147225,1,0,0:0:0:0:
108,361,147427,5,0,0:0:0:0:
201,322,147629,2,0,L|193:293,2,28
285,384,147831,1,0,0:0:0:0:
373,334,148033,1,0,0:0:0:0:
348,236,148235,1,0,0:0:0:0:
247,226,148437,1,0,0:0:0:0:
398,138,148639,6,0,P|455:120|505:80,2,112
100,53,149245,1,0,0:0:0:0:
219,237,149447,1,0,0:0:0:0:
0,250,149649,1,0,0:0:0:0:
192,214,149851,6,0,P|195:269|192:326,1,112
403,322,150154,1,0,0:0:0:0:
395,290,150255,2,0,P|390:223|392:165,1,112
290,271,150659,1,0,0:0:0:0:
73,147,150862,1,0,0:0:0:0:
110,126,150963,1,0,0:0:0:0:
140,107,151064,6,0,P|146:169|144:224,1,112
47,331,151468,1,0,0:0:0:0:
47,331,151670,1,0,0:0:0:0:
322,366,151872,1,0,0:0:0:0:
267,261,152074,1,0,0:0:0:0:
413,309,152276,6,0,P|427:244|426:192,1,112
457,81,152680,1,0,0:0:0:0:
118,185,152882,2,0,P|137:267|156:315,1,112
254,369,153286,1,0,0:0:0:0:
12,267,153488,5,0,0:0:0:0:
220,117,153690,1,0,0:0:0:0:
16,165,153892,1,0,0:0:0:0:
11,140,153993,1,0,0:0:0:0:
9,114,154094,1,0,0:0:0:0:
189,219,154296,1,0,0:0:0:0:
181,323,154498,1,0,0:0:0:0:
482,336,154700,5,0,0:0:0:0:
456,215,154902,1,0,0:0:0:0:
325,282,155104,1,0,0:0:0:0:
371,153,155306,2,0,P|382:93|381:26,1,112
241,233,155710,1,0,0:0:0:0:
99,199,155912,6,0,P|86:109|90:65,1,112
252,269,156316,1,0,0:0:0:0:
112,334,156518,2,0,P|51:329|-17:335,1,112
262,306,156922,1,0,0:0:0:0:
405,351,157124,6,0,P|459:339|530:303,2,112
119,241,157730,2,0,P|56:231|-6:189,2,112
266,115,158336,6,0,B|346:82|383:199|437:173|459:149|459:149|442:126|382:106|348:211|348:211|399:270|369:342,1,503.999984619141
254,125,168639,5,0,0:0:0:0:
266,141,168841,5,0,0:0:0:0:
243,177,169043,5,0,0:0:0:0:
282,207,169245,5,0,0:0:0:0:
255,275,169346,1,0,0:0:0:0:
28,317,169548,5,0,0:0:0:0:
18,244,169649,1,0,0:0:0:0:
9,171,169750,1,0,0:0:0:0:
0,98,169851,1,0,0:0:0:0:
215,129,170053,6,0,L|335:115,1,105.000004005432
512,330,170457,5,0,0:0:0:0:
443,356,170558,1,0,0:0:0:0:
296,211,170760,5,0,0:0:0:0:
369,222,170862,1,0,0:0:0:0:
359,294,170963,1,0,0:0:0:0:
286,284,171064,1,0,0:0:0:0:
477,229,171266,6,0,L|475:118,1,105.000004005432
256,64,171670,5,0,0:0:0:0:
256,64,171771,2,0,L|256:128,1,52.5000020027161
115,153,171973,5,0,0:0:0:0:
127,224,172074,1,0,0:0:0:0:
70,268,172175,1,0,0:0:0:0:
78,340,172276,1,0,0:0:0:0:
203,321,172478,6,0,L|315:321,1,105.000004005432
256,192,172882,5,0,0:0:0:0:
256,192,172983,1,0,0:0:0:0:
397,153,173185,5,0,0:0:0:0:
385,224,173286,1,0,0:0:0:0:
442,268,173387,1,0,0:0:0:0:
434,340,173488,1,0,0:0:0:0:
309,321,173690,6,0,L|197:321,1,105.000004005432
197,332,174296,6,0,P|179:276|191:219,1,105.000004005432
276,162,174700,1,0,0:0:0:0:
40,59,174902,2,0,L|157:74,1,105.000004005432
264,39,175306,1,0,0:0:0:0:
512,179,175508,5,0,0:0:0:0:
376,164,175710,1,0,0:0:0:0:
341,296,175912,1,0,0:0:0:0:
27,256,176114,1,0,0:0:0:0:
70,238,176215,1,0,0:0:0:0:
117,235,176316,1,0,0:0:0:0:
161,252,176417,1,0,0:0:0:0:
194,285,176518,2,0,P|197:192|186:157,1,105.000004005432
179,127,176821,1,0,0:0:0:0:
179,127,176922,1,0,0:0:0:0:
88,369,177124,5,0,0:0:0:0:
281,211,177326,1,0,0:0:0:0:
53,129,177528,1,0,0:0:0:0:
219,320,177730,5,0,0:0:0:0:
264,332,177831,1,0,0:0:0:0:
310,337,177932,1,0,0:0:0:0:
355,324,178033,1,0,0:0:0:0:
394,297,178134,1,0,0:0:0:0:
421,258,178235,1,0,0:0:0:0:
432,212,178336,1,0,0:0:0:0:
281,211,178538,2,0,P|258:151|269:106,1,105.000004005432
76,16,178942,6,0,L|8:4,2,52.5000020027161
207,39,179245,1,0,0:0:0:0:
269,34,179346,1,0,0:0:0:0:
331,30,179447,1,0,0:0:0:0:
393,25,179548,1,0,0:0:0:0:
133,136,179750,5,0,0:0:0:0:
393,25,179952,1,0,0:0:0:0:
459,224,180154,6,0,L|527:212,2,52.5000020027161
343,243,180457,1,0,0:0:0:0:
281,238,180558,1,0,0:0:0:0:
219,234,180659,1,0,0:0:0:0:
157,229,180760,1,0,0:0:0:0:
417,340,180962,5,0,0:0:0:0:
157,229,181164,1,0,0:0:0:0:
256,112,181367,5,0,0:0:0:0:
256,112,181468,1,0,0:0:0:0:
114,153,181670,5,0,0:0:0:0:
37,129,181771,1,0,0:0:0:0:
90,71,181872,1,0,0:0:0:0:
114,153,181973,6,0,L|108:271,2,105.000004005432
256,16,182579,5,0,0:0:0:0:
256,16,182680,1,0,0:0:0:0:
398,153,182882,5,0,0:0:0:0:
474,129,182983,1,0,0:0:0:0:
420,71,183084,1,0,0:0:0:0:
398,153,183185,6,0,L|404:271,2,105.000004005432
413,175,183993,5,0,0:0:0:0:
226,207,184195,1,0,0:0:0:0:
389,301,184397,1,0,0:0:0:0:
29,343,184599,5,0,0:0:0:0:
212,296,184801,1,0,0:0:0:0:
61,182,185003,1,0,0:0:0:0:
486,72,185205,5,0,0:0:0:0:
338,152,185407,1,0,0:0:0:0:
225,27,185609,1,0,0:0:0:0:
74,102,185811,1,0,0:0:0:0:
74,102,185912,1,0,0:0:0:0:
74,102,186013,1,0,0:0:0:0:
74,102,186114,1,0,0:0:0:0:
74,102,186215,6,0,L|80:233,1,105.000004005432
61,304,186518,1,0,0:0:0:0:
61,304,186619,1,0,0:0:0:0:
275,72,186821,1,0,0:0:0:0:
378,239,187023,1,0,0:0:0:0:
236,384,187225,1,0,0:0:0:0:
176,224,187427,5,0,0:0:0:0:
193,221,187528,1,0,0:0:0:0:
210,219,187629,1,0,0:0:0:0:
228,217,187730,1,0,0:0:0:0:
245,215,187831,1,0,0:0:0:0:
262,213,187932,1,0,0:0:0:0:
280,210,188033,5,0,0:0:0:0:
103,158,188235,1,0,0:0:0:0:
146,335,188437,1,0,0:0:0:0:
8,250,188639,5,0,0:0:0:0:
248,296,188841,1,0,0:0:0:0:
163,88,189043,1,0,0:0:0:0:
57,334,189245,5,0,0:0:0:0:
194,225,189447,1,0,0:0:0:0:
34,162,189649,1,0,0:0:0:0:
100,239,189851,5,0,0:0:0:0:
170,118,190053,1,0,0:0:0:0:
182,114,190154,1,0,0:0:0:0:
195,111,190255,1,0,0:0:0:0:
208,107,190356,1,0,0:0:0:0:
220,104,190457,5,0,0:0:0:0:
332,173,190659,1,0,0:0:0:0:
163,273,190862,1,0,0:0:0:0:
379,375,191064,5,0,0:0:0:0:
256,192,191165,12,0,192882,0:0:0:0:
193,153,193488,6,0,P|208:198|211:231,2,70
30,119,194094,2,0,P|16:55|19:24,2,70
94,221,194700,6,0,P|86:337|88:381,1,140
313,188,195306,2,0,P|312:118|305:48,1,140
397,272,195912,6,0,P|427:199|423:187,1,70
426,119,196316,1,0,0:0:0:0:
188,188,196518,2,0,P|198:229|239:264,1,70
313,188,196922,1,0,0:0:0:0:
35,271,197124,6,0,B|115:239|147:319|243:287,1,210
259,272,198134,1,0,0:0:0:0:
364,319,198336,5,0,0:0:0:0:
405,210,198538,2,0,L|411:185,2,17.5
479,295,198740,2,0,P|481:329|472:376,2,70
194,365,199346,1,0,0:0:0:0:
346,244,199548,6,0,P|327:155|286:112,1,140
31,9,200154,2,0,P|7:85|25:161,1,140
0,344,200760,5,0,0:0:0:0:
257,252,201165,2,0,L|286:239,2,17.5
173,244,201367,1,0,0:0:0:0:
145,164,201569,1,0,0:0:0:0:
195,96,201771,1,0,0:0:0:0:
278,107,201973,6,0,P|323:93|359:80,1,70
430,28,202377,1,0,0:0:0:0:
190,196,202579,2,0,P|257:204|336:216,1,140
472,117,203185,5,0,0:0:0:0:
417,334,203387,1,0,0:0:0:0:
197,287,203589,1,0,0:0:0:0:
250,69,203791,1,0,0:0:0:0:
260,30,204397,5,0,0:0:0:0:
480,192,204599,1,0,0:0:0:0:
281,378,204801,1,0,0:0:0:0:
50,218,205003,1,0,0:0:0:0:
378,34,205609,5,0,0:0:0:0:
121,92,205811,1,0,0:0:0:0:
386,202,206013,1,0,0:0:0:0:
183,226,206215,1,0,0:0:0:0:
454,362,206417,1,0,0:0:0:0:
98,353,206619,1,0,0:0:0:0:
374,278,206821,5,0,0:0:0:0:
175,197,207023,1,0,0:0:0:0:
322,132,207225,1,0,0:0:0:0:
322,132,207326,1,0,0:0:0:0:
322,132,207427,1,0,0:0:0:0:
322,132,207528,1,0,0:0:0:0:
322,132,207629,1,0,0:0:0:0:
322,132,207730,1,0,0:0:0:0:
322,132,207831,1,0,0:0:0:0:
243,289,208942,2,0,L|231:335,3,28,0|0|0|0,2:0|2:0|2:0|2:0,0:0:0:0:
57,281,209245,5,4,0:0:0:0:
142,96,209851,2,0,L|159:41,2,42
246,252,210154,2,0,L|280:313,1,42
326,144,210457,6,0,L|344:101,4,42
419,231,210912,5,0,0:0:0:0:
419,231,210988,1,0,0:0:0:0:
419,231,211064,1,0,0:0:0:0:
419,231,211139,1,0,0:0:0:0:
419,231,211215,1,0,0:0:0:0:
485,138,211367,5,0,0:0:0:0:
485,138,211443,1,0,0:0:0:0:
485,138,211519,1,0,0:0:0:0:
485,138,211594,1,0,0:0:0:0:
485,138,211670,5,0,0:0:0:0:
479,139,211745,5,0,0:0:0:0:
470,139,211821,5,0,0:0:0:0:
457,135,211897,5,0,0:0:0:0:
440,130,211973,5,0,0:0:0:0:
420,123,212048,5,0,0:0:0:0:
394,122,212124,5,0,0:0:0:0:
364,124,212200,5,0,0:0:0:0:
331,134,212276,5,0,0:0:0:0:
297,151,212351,1,0,0:0:0:0:
269,182,212427,1,0,0:0:0:0:
249,223,212503,1,0,0:0:0:0:
243,273,212579,1,0,0:0:0:0:
210,110,212730,6,0,P|128:122|-7:46,1,231.000007049561
61,227,213185,1,0,0:0:0:0:
314,42,213336,2,0,P|393:40|449:70,1,115.50000352478
510,233,213639,1,0,0:0:0:0:
206,336,213791,1,0,0:0:0:0:
0,146,213942,6,0,L|255:178,1,231.000007049561
363,132,214397,1,0,0:0:0:0:
130,17,214548,1,0,0:0:0:0:
136,45,214624,1,0,0:0:0:0:
141,73,214700,1,0,0:0:0:0:
417,56,214851,1,0,0:0:0:0:
165,326,215003,1,0,0:0:0:0:
90,218,215154,6,0,B|57:151|57:151|130:209|224:170,1,231.000007049561
353,218,215609,1,0,0:0:0:0:
510,65,215760,1,0,0:0:0:0:
498,187,215912,1,0,0:0:0:0:
332,39,216064,1,0,0:0:0:0:
479,339,216215,1,0,0:0:0:0:
53,351,216367,6,0,P|91:247|199:230,1,231.000007049561
18,189,216821,2,0,P|-6:139|0:82,1,115.50000352478
371,151,217124,1,0,0:0:0:0:
128,38,217275,1,0,0:0:0:0:
371,151,217427,1,0,0:0:0:0:
216,365,217579,6,0,P|167:289|240:168,1,231.000007049561
15,39,218033,2,0,P|49:128|52:167,1,115.50000352478
54,371,218336,1,0,0:0:0:0:
275,274,218488,1,0,0:0:0:0:
86,247,218639,1,0,0:0:0:0:
329,380,218791,6,0,L|459:348,1,115.50000352478
222,157,219094,2,0,L|92:189,1,115.50000352478
420,161,219397,2,0,L|438:5,1,115.50000352478
115,384,219700,2,0,L|133:228,1,115.50000352478
4,76,220003,6,0,P|76:137|222:89,1,231.000007049561
251,29,220382,1,0,0:0:0:0:
251,29,220457,1,0,0:0:0:0:
0,211,220609,1,0,0:0:0:0:
401,98,220760,1,0,0:0:0:0:
112,30,220912,1,0,0:0:0:0:
493,30,221064,1,0,0:0:0:0:
325,300,221215,6,0,P|301:231|412:255,1,231.000007049561
428,258,221594,5,0,0:0:0:0:
426,272,221669,1,0,0:0:0:0:
425,286,221745,1,0,0:0:0:0:
424,301,221821,1,0,0:0:0:0:
423,315,221897,1,0,0:0:0:0:
444,356,221973,5,0,0:0:0:0:
401,361,222048,1,0,0:0:0:0:
358,366,222124,1,0,0:0:0:0:
315,372,222200,1,0,0:0:0:0:
272,377,222276,2,0,L|81:351,1,173.250005287171
42,275,222579,2,0,P|31:202|50:177,1,105
140,129,222806,1,0,0:0:0:0:
140,129,222882,2,0,L|260:140,1,105
470,8,223185,5,0,0:0:0:0:
380,38,223336,1,0,0:0:0:0:
500,96,223488,1,0,0:0:0:0:
412,130,223639,1,0,0:0:0:0:
478,340,223791,6,0,P|513:281|458:202,1,140
302,221,224094,5,0,0:0:0:0:
329,311,224245,1,0,0:0:0:0:
209,218,224397,1,0,0:0:0:0:
181,127,224548,1,0,0:0:0:0:
391,0,224700,6,0,L|385:124,1,105
84,344,225003,5,0,0:0:0:0:
67,322,225306,2,0,L|218:318,1,140
405,335,225609,6,0,L|473:347,1,70
358,211,225811,2,0,L|429:164,1,70
234,159,226013,2,0,L|267:97,1,70
117,248,226215,6,0,P|32:166|79:67,1,210
159,39,226594,1,0,0:0:0:0:
159,39,226670,1,0,0:0:0:0:
275,261,226821,2,0,L|258:316,2,52.5
388,141,227124,2,0,L|506:123,1,105
163,163,227427,1,0,0:0:0:0:
135,154,227503,6,0,L|110:89,4,52.5
42,200,227882,2,0,L|19:246,5,52.5
230,109,228336,2,0,L|252:53,3,52.5
168,274,228639,5,0,0:0:0:0:
168,274,228715,1,0,0:0:0:0:
168,274,228791,1,0,0:0:0:0:
168,274,228867,1,0,0:0:0:0:
168,274,228942,1,0,0:0:0:0:
168,274,229018,1,0,0:0:0:0:
196,297,229094,5,0,0:0:0:0:
226,298,229169,1,0,0:0:0:0:
252,282,229245,1,0,0:0:0:0:
264,253,229321,1,0,0:0:0:0:
256,223,229397,1,0,0:0:0:0:
232,204,229472,1,0,0:0:0:0:
208,176,229548,5,0,0:0:0:0:
192,140,229623,1,0,0:0:0:0:
199,102,229699,1,0,0:0:0:0:
225,73,229775,1,0,0:0:0:0:
261,50,229851,5,0,0:0:0:0:
423,94,230003,1,0,0:0:0:0:
305,204,230154,1,0,0:0:0:0:
144,84,230306,5,0,0:0:0:0:
441,130,230457,1,0,0:0:0:0:
261,347,230609,1,0,0:0:0:0:
19,160,230760,5,0,0:0:0:0:
421,120,230912,1,0,0:0:0:0:
120,51,231064,5,0,0:0:0:0:
462,126,231215,1,0,0:0:0:0:
193,362,231367,1,0,0:0:0:0:
110,7,231518,5,0,0:0:0:0:
489,168,231670,1,0,0:0:0:0:
122,376,231821,1,0,0:0:0:0:
195,0,231973,5,0,0:0:0:0:
494,316,232124,1,0,0:0:0:0:
51,384,232276,5,0,0:0:0:0:
41,332,232351,1,0,0:0:0:0:
32,280,232427,1,0,0:0:0:0:
262,345,232579,1,0,0:0:0:0:
177,93,232730,5,0,0:0:0:0:
177,93,232806,1,0,0:0:0:0:
177,93,232882,1,0,0:0:0:0:
125,245,233033,1,0,0:0:0:0:
401,321,233185,5,0,0:0:0:0:
401,321,233260,1,0,0:0:0:0:
401,321,233336,1,0,0:0:0:0:
401,321,233412,1,0,0:0:0:0:
401,321,233488,5,0,0:0:0:0:
401,321,234397,1,0,0:0:0:0:
488,218,234548,6,0,L|270:206,1,210
445,30,235154,1,0,0:0:0:0:
450,48,235230,1,0,0:0:0:0:
456,67,235306,2,0,L|452:124,1,52.5
324,29,235457,1,0,0:0:0:0:
74,112,235609,1,0,0:0:0:0:
215,144,235760,6,0,P|212:249|214:355,1,210
93,384,236215,1,0,0:0:0:0:
35,198,236367,1,0,0:0:0:0:
130,266,236518,1,0,0:0:0:0:
389,167,236670,1,0,0:0:0:0:
335,365,236821,1,0,0:0:0:0:
274,229,236973,6,0,P|256:150|339:42,1,210
359,39,237351,1,0,0:0:0:0:
395,45,237427,1,0,0:0:0:0:
156,125,237579,1,0,0:0:0:0:
120,117,237654,1,0,0:0:0:0:
84,105,237730,2,0,L|30:30,2,52.5
191,303,238033,1,0,0:0:0:0:
373,261,238185,5,0,0:0:0:0:
367,281,238488,5,0,0:0:0:0:
361,301,238791,5,0,0:0:0:0:
356,321,239094,5,0,0:0:0:0:
476,202,239397,6,0,L|238:213,1,210
35,91,239851,2,0,L|16:9,1,52.5
162,117,240003,1,0,0:0:0:0:
162,117,240079,1,0,0:0:0:0:
162,117,240154,2,0,L|182:50,1,52.5
0,260,240306,1,0,0:0:0:0:
229,187,240457,1,0,0:0:0:0:
119,316,240609,6,0,L|354:301,1,210
479,107,241064,1,0,0:0:0:0:
465,282,241215,1,0,0:0:0:0:
470,307,241291,1,0,0:0:0:0:
475,332,241367,1,0,0:0:0:0:
278,203,241518,1,0,0:0:0:0:
329,51,241670,1,0,0:0:0:0:
109,155,241821,6,0,B|112:222|112:222|145:289|145:289|148:372,1,210
211,129,242276,2,0,B|210:51|210:51|175:86,1,105
13,265,242579,2,0,L|5:181,2,52.5
248,357,242882,1,0,0:0:0:0:
503,241,243033,5,0,0:0:0:0:
443,250,243336,5,0,0:0:0:0:
381,257,243639,5,0,0:0:0:0:
319,267,243942,5,0,0:0:0:0:
409,27,244094,2,0,P|469:29|460:156,1,210
292,127,244548,6,0,L|220:117,3,52.5
174,203,244851,2,0,L|252:214,1,52.5
155,71,245003,2,0,L|70:58,1,52.5
26,155,245154,2,0,L|105:166,1,52.5
83,274,245306,6,0,L|96:338,3,52.5
188,378,245609,2,0,L|204:297,1,52.5
283,284,245760,2,0,L|302:356,1,52.5
379,384,245912,2,0,L|391:324,1,52.5
473,273,246064,2,0,L|491:341,1,52.5
387,227,246215,6,0,L|403:158,3,52.5
464,109,246518,2,0,L|447:33,1,52.5
339,85,246670,2,0,L|346:33,1,52.5
215,88,246821,5,0,0:0:0:0:
105,64,246973,1,0,0:0:0:0:
30,149,247124,1,0,0:0:0:0:
277,164,247276,5,0,0:0:0:0:
407,125,247427,1,0,0:0:0:0:
497,227,247579,1,0,0:0:0:0:
205,259,247730,5,0,0:0:0:0:
52,216,247882,1,0,0:0:0:0:
187,111,248033,5,0,0:0:0:0:
359,195,248185,1,0,0:0:0:0:
283,364,248336,1,0,0:0:0:0:
108,291,248488,1,0,0:0:0:0:
243,234,248639,5,0,0:0:0:0:
482,218,248791,1,0,0:0:0:0:
341,69,248942,1,0,0:0:0:0:
367,306,249094,1,0,0:0:0:0:
120,296,249245,6,0,P|103:245|110:191,1,105
152,126,249473,1,0,0:0:0:0:
152,126,249548,1,0,0:0:0:0:
76,18,249700,1,0,0:0:0:0:
76,18,249776,1,0,0:0:0:0:
76,18,249851,1,0,0:0:0:0:
252,34,250003,6,0,P|332:31|386:94,1,157.5
445,174,250306,2,0,P|346:240|352:302,1,157.5
249,346,250609,6,0,L|207:314,4,52.5
59,191,251215,1,0,0:0:0:0:
