osu file format v14

[General]
AudioFilename: [SDVX] macaron NOFX.mp3
AudioLeadIn: 0
PreviewTime: 73253
Countdown: 0
SampleSet: Soft
StackLeniency: 0.7
Mode: 3
LetterboxInBreaks: 0
SpecialStyle: 0
WidescreenStoryboard: 1

[Editor]
DistanceSpacing: 1.2
BeatDivisor: 4
GridSize: 4
TimelineZoom: 1.6

[Metadata]
Title:macaron
TitleUnicode:macaron
Artist:colate
ArtistUnicode:colate
Creator:-[BURGERKILL]-
Version:ADVANCED Lv.12
Source:SOUND VOLTEX III GRAVITY WAR
Tags:sdvx 3 original song contest bakabakemono
BeatmapID:665717
BeatmapSetID:296077

[Difficulty]
HPDrainRate:7
CircleSize:4
OverallDifficulty:8
ApproachRate:5
SliderMultiplier:1.4
SliderTickRate:1

[Events]
//Background and Video events
0,0,"BG.jpg",0,0
//Break Periods
//Storyboard Layer 0 (Background)
//Storyboard Layer 1 (Fail)
//Storyboard Layer 2 (Pass)
//Storyboard Layer 3 (Foreground)
//Storyboard Sound Samples

[TimingPoints]
610,324.324324324324,4,2,0,34,1,0
73285,-100,4,2,0,34,0,1
94015,-100,4,2,0,34,0,0

[HitObjects]
64,192,610,5,0,0:0:0:0:
448,192,610,1,0,0:0:0:0:
192,192,772,1,0,0:0:0:0:
320,192,934,1,0,0:0:0:0:
64,192,1096,1,0,0:0:0:0:
448,192,1096,128,0,1582:0:0:0:0:
192,192,1420,1,0,0:0:0:0:
64,192,1582,1,0,0:0:0:0:
448,192,1745,1,0,0:0:0:0:
192,192,1745,128,0,2069:0:0:0:0:
64,192,2069,1,0,0:0:0:0:
320,192,2231,1,0,0:0:0:0:
448,192,2555,1,0,0:0:0:0:
192,192,2555,128,0,2880:0:0:0:0:
320,192,2718,1,0,0:0:0:0:
64,192,2880,128,0,3204:0:0:0:0:
448,192,2880,1,0,0:0:0:0:
320,192,3042,1,0,0:0:0:0:
448,192,3204,128,0,3691:0:0:0:0:
192,192,3204,1,0,0:0:0:0:
320,192,3366,1,0,0:0:0:0:
64,192,3528,1,0,0:0:0:0:
192,192,3691,1,0,0:0:0:0:
320,192,3691,128,0,4177:0:0:0:0:
448,192,4015,1,0,0:0:0:0:
192,192,4177,1,0,0:0:0:0:
64,192,4339,128,0,4826:0:0:0:0:
320,192,4339,1,0,0:0:0:0:
448,192,4664,1,0,0:0:0:0:
320,192,4745,1,0,0:0:0:0:
192,192,4826,1,0,0:0:0:0:
320,192,4907,1,0,0:0:0:0:
192,192,4988,1,0,0:0:0:0:
64,192,5069,1,0,0:0:0:0:
448,192,5150,128,0,5312:0:0:0:0:
320,192,5312,128,0,5474:0:0:0:0:
192,192,5474,128,0,5637:0:0:0:0:
64,192,5637,128,0,5799:0:0:0:0:
448,192,5799,128,0,6285:0:0:0:0:
192,192,5799,1,0,0:0:0:0:
320,192,5961,1,0,0:0:0:0:
64,192,6123,1,0,0:0:0:0:
320,192,6285,128,0,6772:0:0:0:0:
192,192,6285,1,0,0:0:0:0:
448,192,6609,1,0,0:0:0:0:
64,192,6772,1,0,0:0:0:0:
192,192,6934,128,0,7420:0:0:0:0:
448,192,6934,1,0,0:0:0:0:
64,192,7258,1,0,0:0:0:0:
448,192,7420,1,0,0:0:0:0:
64,192,7745,128,0,8069:0:0:0:0:
448,192,7745,1,0,0:0:0:0:
192,192,7907,1,0,0:0:0:0:
320,192,8069,128,0,8393:0:0:0:0:
448,192,8069,1,0,0:0:0:0:
64,192,8231,1,0,0:0:0:0:
448,192,8393,128,0,8718:0:0:0:0:
64,192,8718,128,0,9042:0:0:0:0:
192,192,8718,1,0,0:0:0:0:
448,192,9042,128,0,9204:0:0:0:0:
320,192,9204,128,0,9366:0:0:0:0:
192,192,9366,128,0,9528:0:0:0:0:
64,192,9528,1,0,0:0:0:0:
448,192,9528,1,0,0:0:0:0:
64,192,9853,1,0,0:0:0:0:
448,192,9853,1,0,0:0:0:0:
64,192,10177,1,0,0:0:0:0:
448,192,10177,1,0,0:0:0:0:
192,192,10339,1,0,0:0:0:0:
320,192,10339,1,0,0:0:0:0:
64,192,10664,1,0,0:0:0:0:
320,192,10664,1,0,0:0:0:0:
448,192,10664,1,0,0:0:0:0:
64,192,10988,128,0,11637:0:0:0:0:
448,192,10988,1,0,0:0:0:0:
448,192,11637,128,0,11799:0:0:0:0:
320,192,11799,128,0,11961:0:0:0:0:
192,192,11961,128,0,12123:0:0:0:0:
64,192,12123,1,0,0:0:0:0:
448,192,12123,128,0,13096:0:0:0:0:
64,192,13096,128,0,13258:0:0:0:0:
192,192,13258,128,0,13420:0:0:0:0:
320,192,13420,128,0,13582:0:0:0:0:
448,192,13582,1,0,0:0:0:0:
64,192,13582,128,0,14231:0:0:0:0:
192,192,14231,128,0,14393:0:0:0:0:
448,192,14393,128,0,14555:0:0:0:0:
320,192,14555,128,0,14718:0:0:0:0:
64,192,14718,1,0,0:0:0:0:
192,192,14718,128,0,15853:0:0:0:0:
64,192,15853,1,0,0:0:0:0:
448,192,15853,1,0,0:0:0:0:
320,192,16177,128,0,16664:0:0:0:0:
64,192,16177,1,0,0:0:0:0:
192,192,16664,128,0,17150:0:0:0:0:
448,192,16664,1,0,0:0:0:0:
64,192,17150,128,0,18123:0:0:0:0:
320,192,17150,1,0,0:0:0:0:
320,192,18123,1,0,0:0:0:0:
448,192,18123,1,0,0:0:0:0:
448,192,18609,1,0,0:0:0:0:
192,192,18609,1,0,0:0:0:0:
64,192,18772,128,0,19258:0:0:0:0:
320,192,18772,1,0,0:0:0:0:
320,192,19258,128,0,19745:0:0:0:0:
448,192,19258,1,0,0:0:0:0:
448,192,19745,128,0,20718:0:0:0:0:
64,192,19745,1,0,0:0:0:0:
320,192,20069,1,0,0:0:0:0:
192,192,20231,1,0,0:0:0:0:
64,192,20393,1,0,0:0:0:0:
192,192,20555,1,0,0:0:0:0:
320,192,20718,1,0,0:0:0:0:
192,192,20880,1,0,0:0:0:0:
448,192,21042,1,0,0:0:0:0:
320,192,21204,1,0,0:0:0:0:
64,192,21204,1,0,0:0:0:0:
192,192,21366,1,0,0:0:0:0:
64,192,21528,1,0,0:0:0:0:
192,192,21691,1,0,0:0:0:0:
64,192,21853,1,0,0:0:0:0:
192,192,22015,1,0,0:0:0:0:
320,192,22177,1,0,0:0:0:0:
448,192,22339,1,0,0:0:0:0:
320,192,22501,1,0,0:0:0:0:
192,192,22664,1,0,0:0:0:0:
320,192,22745,1,0,0:0:0:0:
448,192,22826,1,0,0:0:0:0:
64,192,22907,1,0,0:0:0:0:
448,192,23069,1,0,0:0:0:0:
320,192,23150,1,0,0:0:0:0:
64,192,23312,1,0,0:0:0:0:
320,192,23474,1,0,0:0:0:0:
192,192,23637,1,0,0:0:0:0:
448,192,23799,1,0,0:0:0:0:
320,192,23961,1,0,0:0:0:0:
64,192,23961,1,0,0:0:0:0:
192,192,24123,1,0,0:0:0:0:
448,192,24285,1,0,0:0:0:0:
192,192,24447,1,0,0:0:0:0:
448,192,24609,1,0,0:0:0:0:
320,192,24772,1,0,0:0:0:0:
192,192,24934,1,0,0:0:0:0:
64,192,25096,1,0,0:0:0:0:
448,192,25258,1,0,0:0:0:0:
320,192,25339,1,0,0:0:0:0:
192,192,25420,1,0,0:0:0:0:
64,192,25501,1,0,0:0:0:0:
320,192,25664,1,0,0:0:0:0:
192,192,25745,1,0,0:0:0:0:
448,192,25907,1,0,0:0:0:0:
320,192,26069,1,0,0:0:0:0:
64,192,26231,1,0,0:0:0:0:
192,192,26393,1,0,0:0:0:0:
320,192,26555,1,0,0:0:0:0:
448,192,26555,1,0,0:0:0:0:
64,192,26718,1,0,0:0:0:0:
448,192,26880,1,0,0:0:0:0:
64,192,27042,1,0,0:0:0:0:
448,192,27204,1,0,0:0:0:0:
192,192,27366,1,0,0:0:0:0:
64,192,27447,1,0,0:0:0:0:
448,192,27609,1,0,0:0:0:0:
320,192,27691,1,0,0:0:0:0:
192,192,27853,1,0,0:0:0:0:
64,192,27934,1,0,0:0:0:0:
320,192,28015,1,0,0:0:0:0:
192,192,28096,1,0,0:0:0:0:
448,192,28258,1,0,0:0:0:0:
320,192,28339,1,0,0:0:0:0:
192,192,28501,1,0,0:0:0:0:
448,192,28664,1,0,0:0:0:0:
64,192,28826,1,0,0:0:0:0:
320,192,28988,1,0,0:0:0:0:
192,192,29150,128,0,29474:0:0:0:0:
448,192,29150,128,0,29637:0:0:0:0:
64,192,29474,128,0,30123:0:0:0:0:
320,192,29637,128,0,29961:0:0:0:0:
192,192,29961,128,0,30123:0:0:0:0:
448,192,30123,128,0,30447:0:0:0:0:
64,192,30447,1,0,0:0:0:0:
192,192,30447,1,0,0:0:0:0:
448,192,30934,1,0,0:0:0:0:
192,192,30934,1,0,0:0:0:0:
320,192,31015,1,0,0:0:0:0:
192,192,31096,1,0,0:0:0:0:
448,192,31096,1,0,0:0:0:0:
320,192,31258,1,0,0:0:0:0:
64,192,31258,1,0,0:0:0:0:
64,192,31582,1,0,0:0:0:0:
320,192,31582,1,0,0:0:0:0:
192,192,31745,128,0,32069:0:0:0:0:
448,192,31745,128,0,32069:0:0:0:0:
320,192,32069,1,0,0:0:0:0:
64,192,32069,1,0,0:0:0:0:
192,192,32393,128,0,32555:0:0:0:0:
448,192,32555,1,0,0:0:0:0:
320,192,32718,1,0,0:0:0:0:
64,192,32718,1,0,0:0:0:0:
448,192,32880,128,0,33042:0:0:0:0:
192,192,33042,1,0,0:0:0:0:
64,192,33204,1,0,0:0:0:0:
192,192,33366,1,0,0:0:0:0:
448,192,33366,1,0,0:0:0:0:
448,192,33528,1,0,0:0:0:0:
320,192,33691,1,0,0:0:0:0:
192,192,33853,1,0,0:0:0:0:
448,192,34015,1,0,0:0:0:0:
64,192,34015,128,0,34339:0:0:0:0:
320,192,34339,1,0,0:0:0:0:
64,192,34582,1,0,0:0:0:0:
192,192,34664,1,0,0:0:0:0:
448,192,34664,1,0,0:0:0:0:
320,192,34826,1,0,0:0:0:0:
64,192,34988,1,0,0:0:0:0:
192,192,35150,1,0,0:0:0:0:
320,192,35231,1,0,0:0:0:0:
448,192,35312,1,0,0:0:0:0:
64,192,35393,1,0,0:0:0:0:
192,192,35474,1,0,0:0:0:0:
448,192,35474,1,0,0:0:0:0:
192,192,35799,1,0,0:0:0:0:
448,192,35799,1,0,0:0:0:0:
320,192,36123,1,0,0:0:0:0:
64,192,36123,1,0,0:0:0:0:
64,192,36447,1,0,0:0:0:0:
448,192,36447,1,0,0:0:0:0:
192,192,36609,1,0,0:0:0:0:
320,192,36609,1,0,0:0:0:0:
64,192,36934,128,0,37258:0:0:0:0:
448,192,36934,128,0,37258:0:0:0:0:
192,192,37258,1,0,0:0:0:0:
320,192,37258,1,0,0:0:0:0:
