osu file format v12

[General]
AudioFilename: Great Escape.mp3
AudioLeadIn: 1828
PreviewTime: 52167
Countdown: 0
SampleSet: Soft
StackLeniency: 0.7
Mode: 0
LetterboxInBreaks: 0
WidescreenStoryboard: 1

[Editor]
DistanceSpacing: 0.6
BeatDivisor: 4
GridSize: 4

[Metadata]
Title:great escape (TV Size)
TitleUnicode:great escape (TV Size)
Artist:cinema staff
ArtistUnicode:cinema staff
Creator:UnitedWeSin
Version:Insane
Source:Shingeki no Kyojin
Tags:attack on titan ending Seiji Kameda Souhei Mishima 進撃の巨人 jonathanlfj EmPao uws
BeatmapID:287269
BeatmapSetID:110220

[Difficulty]
HPDrainRate:7
CircleSize:4
OverallDifficulty:8
ApproachRate:9
SliderMultiplier:1.9
SliderTickRate:1

[Events]
//Background and Video events
0,0,"bg.jpg",0,0
Video,40,"video.avi"
//Break Periods
2,12577,13733
//Storyboard Layer 0 (Background)
//Storyboard Layer 1 (Fail)
//Storyboard Layer 2 (Pass)
//Storyboard Layer 3 (Foreground)
//Storyboard Sound Samples
//Background Colour Transformations
3,100,163,162,255

[TimingPoints]
164,326.086956521739,4,2,1,60,1,0
1446,326.086956521739,4,1,1,40,1,1
1527,-100,4,1,1,40,0,0
11888,326.086956521739,4,2,2,40,1,0
11888,-200,4,2,2,40,0,0
12377,-200,4,2,1,20,0,0
14333,-200,4,2,2,40,0,0
14487,326.086956521739,4,2,2,50,1,0
14487,-125,4,2,2,50,0,0
19052,-125,4,2,1,50,0,0
19704,-125,4,2,2,50,0,0
24269,-125,4,2,1,40,0,0
24595,-125,4,2,2,45,0,0
24758,-125,4,2,2,50,0,0
24921,-100,4,2,2,60,0,0
40393,326.086956521739,4,2,2,60,1,0
47093,326.086956521739,4,2,2,60,1,0
52310,-90.9090909090909,4,2,2,70,0,1
62663,-90.9090909090909,4,2,2,70,0,0
62755,326.086956521739,4,2,2,70,1,1
62755,-90.9090909090909,4,2,2,70,0,1
70418,-100,4,2,2,60,0,1
70571,326.086956521739,4,2,2,60,1,0
71549,-200,4,2,2,60,0,0
72527,-100,4,2,2,60,0,0
73505,-200,4,2,2,60,0,0
74321,-100,4,2,2,60,0,0
78723,326.086956521739,4,2,2,70,1,1
78804,-100,4,2,2,70,0,0
82666,326.086956521739,4,2,2,40,1,0
85057,-200,4,2,2,70,0,0
85600,-200,4,2,2,30,0,0

[Colours]
Combo1 : 177,197,184
Combo2 : 177,151,139
Combo3 : 190,126,177

[HitObjects]
256,324,164,5,2,0:0:0:0:
388,192,490,1,0,0:0:0:0:
124,192,816,1,2,0:0:0:0:
256,60,1142,1,0,0:0:0:0:
84,376,1446,6,0,B|44:360|36:316|36:316|36:240,1,142.5,4|0,0:0|0:0,0:0:0:0:
40,204,1772,2,0,L|88:160,3,47.5
156,252,2098,2,0,L|128:312,3,47.5
208,376,2424,1,0,0:0:0:0:
253,358,2505,1,0,0:0:0:0:
281,319,2587,1,0,0:0:0:0:
292,270,2668,1,0,0:0:0:0:
279,224,2750,6,0,P|264:166|293:88,1,142.5,4|0,0:0|0:0,0:0:0:0:
376,164,3076,2,0,L|400:206,3,47.5
456,88,3402,2,0,L|444:16,3,47.5
344,24,3728,1,0,0:0:0:0:
296,24,3810,1,0,0:0:0:0:
248,24,3891,1,0,0:0:0:0:
200,24,3973,1,0,0:0:0:0:
164,60,4054,6,0,B|119:74|101:116|101:116|72:68,1,142.5,4|0,0:0|0:0,0:0:0:0:
0,148,4380,2,0,L|28:196,3,47.5
128,224,4706,2,0,L|113:274,3,47.5
40,345,5032,1,0,0:0:0:0:
80,370,5114,1,0,0:0:0:0:
127,376,5195,1,0,0:0:0:0:
168,356,5277,1,0,0:0:0:0:
204,323,5359,6,0,P|242:270|329:258,1,142.5,4|0,0:0|0:0,0:0:0:0:
396,308,5685,2,0,P|408:277|412:254,3,47.5
500,184,6011,6,0,L|512:232,1,47.5
404,117,6174,2,0,L|415:163,1,47.5
468,20,6337,2,0,L|479:66,1,47.5
336,4,6500,2,0,L|348:51,1,47.5
288,152,6663,6,0,P|227:201|168:196,1,142.5,4|0,0:0|0:0,0:0:0:0:
184,72,6989,2,0,L|212:124,3,47.5
144,268,7315,2,0,L|121:226,3,47.5
268,244,7641,1,0,0:0:0:0:
288,288,7723,1,0,0:0:0:0:
276,336,7804,1,0,0:0:0:0:
244,368,7886,1,0,0:0:0:0:
200,380,7967,6,0,B|269:370|269:370|344:384,1,142.5,4|0,0:0|0:0,0:0:0:0:
480,364,8293,2,0,L|480:316,3,47.5
376,292,8619,2,0,L|376:232,3,47.5
480,216,8945,1,0,0:0:0:0:
480,168,9027,1,0,0:0:0:0:
480,120,9109,1,0,0:0:0:0:
480,72,9190,1,0,0:0:0:0:
504,32,9272,6,0,B|440:56|440:56|388:0|320:20,1,190,4|0,0:0|0:0,0:0:0:0:
256,128,9761,1,0,0:0:0:0:
256,128,9842,1,0,0:0:0:0:
256,128,9924,2,0,P|208:109|181:69,1,95,2|0,0:0|0:0,0:0:0:0:
88,24,10168,1,0,0:0:0:0:
88,24,10250,2,0,L|56:116,1,95,2|0,0:0|0:0,0:0:0:0:
68,220,10494,5,0,0:0:0:0:
68,220,10576,2,0,B|119:242|119:242|146:289,1,95,4|0,0:0|0:0,0:0:0:0:
216,356,10820,1,0,0:0:0:0:
216,356,10902,2,0,L|248:300,3,47.5,2|0|0|0,0:0|0:0|0:0|0:0,0:0:0:0:
296,200,11228,6,0,L|324:148,1,47.5
440,108,11391,2,0,L|417:149,1,47.5
280,184,11554,2,0,L|320:141,1,47.5
452,128,11717,2,0,L|419:162,1,47.5
324,272,11888,6,0,B|274:301|242:237|186:269,1,142.5,4|2,0:0|0:0,0:0:0:0:
256,116,14333,5,0,0:0:0:0:
192,296,14487,2,0,P|152:272|132:244,1,76,4|0,0:0|0:0,0:0:0:0:
172,60,14813,2,0,P|176:92|164:136,1,76,8|0,0:0|0:0,0:0:0:0:
32,144,15139,1,2,0:0:0:0:
32,144,15302,2,0,P|13:117|4:72,1,76,2|0,0:0|0:0,0:0:0:0:
136,248,15628,2,0,P|136:288|120:324,1,76,8|0,0:0|0:0,0:0:0:0:
208,192,15954,5,2,0:0:0:0:
208,192,16117,2,0,B|276:168|308:224|372:196,1,152,8|2,0:0|0:0,0:0:0:0:
432,168,16606,1,2,0:0:0:0:
476,304,16769,2,0,P|443:271|427:235,1,76,8|0,0:0|0:0,0:0:0:0:
320,48,17095,6,0,P|332:92|328:132,1,76,4|0,0:0|0:0,0:0:0:0:
172,212,17421,2,0,P|240:188|324:216,1,152,8|2,0:0|0:0,0:0:0:0:
248,288,17910,1,2,0:0:0:0:
188,104,18073,1,0,0:0:0:0:
172,212,18237,1,8,0:0:0:0:
204,200,18563,5,2,0:0:0:0:
208,292,18726,2,0,P|184:328|144:352,1,76,8|0,0:0|0:0,0:0:0:0:
24,192,19052,5,2,0:0:0:0:
208,96,19296,1,2,0:0:0:0:
208,96,19378,1,2,0:0:0:0:
104,44,19541,1,2,0:0:0:0:
204,200,19704,6,0,P|248:192|280:168,1,76,4|0,0:0|0:0,0:0:0:0:
360,64,20030,2,0,L|336:140,1,76,8|0,0:0|0:0,0:0:0:0:
352,284,20356,1,2,0:0:0:0:
352,284,20519,2,0,P|336:240|340:208,1,76,2|0,0:0|0:0,0:0:0:0:
504,220,20845,2,0,L|412:236,1,76,8|0,0:0|0:0,0:0:0:0:
292,356,21171,5,2,0:0:0:0:
292,356,21334,2,0,P|248:328|148:336,1,152,8|2,0:0|0:0,0:0:0:0:
80,368,21823,1,2,0:0:0:0:
76,216,21986,2,0,P|60:256|60:292,1,76,8|0,0:0|0:0,0:0:0:0:
176,188,22313,6,0,B|163:175|163:175|178:170|178:170|169:168|169:168|165:109|103:68,1,152,4|8,0:0|0:0,0:0:0:0:
28,140,22802,1,0,0:0:0:0:
208,116,22965,2,0,P|242:90|260:60,1,76,2|2,0:0|0:0,0:0:0:0:
368,24,23291,1,0,0:0:0:0:
385,227,23454,2,0,L|369:147,1,76,8|0,0:0|0:0,0:0:0:0:
308,272,23780,5,2,0:0:0:0:
456,188,23943,1,8,0:0:0:0:
296,132,24106,1,4,0:0:0:0:
400,84,24269,6,0,L|412:48,3,38,2|0|0|0,0:0|0:0|0:0|0:0,0:0:0:0:
480,92,24595,6,0,L|468:132,1,38
364,212,24758,2,0,L|376:176,1,38,0|0,0:0|0:0,0:0:0:0:
440,300,24921,6,0,B|395:332|395:332|339:335,1,95,4|0,0:0|0:0,0:0:0:0:
216,248,25247,2,0,P|232:296|224:348,1,95,8|0,0:0|0:0,0:0:0:0:
108,188,25573,1,2,0:0:0:0:
108,188,25736,2,0,P|132:144|172:112,1,95,2|0,0:0|0:0,0:0:0:0:
76,288,26063,2,0,L|-24:284,1,95,8|0,0:0|0:0,0:0:0:0:
32,132,26389,5,2,0:0:0:0:
200,204,26552,2,0,P|248:200|288:176,1,95,8|0,0:0|0:0,0:0:0:0:
248,80,26878,1,2,0:0:0:0:
288,280,27041,1,2,0:0:0:0:
376,120,27204,2,0,P|388:172|380:224,1,95,8|0,0:0|0:0,0:0:0:0:
200,384,27530,6,0,P|188:332|196:280,1,95,4|0,0:0|0:0,0:0:0:0:
284,160,27856,2,0,P|232:180|192:180,1,95,8|0,0:0|0:0,0:0:0:0:
120,24,28182,1,2,0:0:0:0:
120,24,28345,2,0,P|112:80|120:120,1,95,2|0,0:0|0:0,0:0:0:0:
104,300,28671,2,0,L|68:204,1,95,8|0,0:0|0:0,0:0:0:0:
20,360,28997,5,2,0:0:0:0:
192,280,29160,2,0,P|248:272|288:284,1,95,8|0,0:0|0:0,0:0:0:0:
384,340,29486,1,2,0:0:0:0:
216,168,29650,1,2,0:0:0:0:
384,232,29813,1,8,0:0:0:0:
240,352,29976,1,0,0:0:0:0:
288,200,30139,6,0,B|305:155|305:155|352:116,1,95,4|0,0:0|0:0,0:0:0:0:
500,240,30465,2,0,L|488:340,1,95,8|0,0:0|0:0,0:0:0:0:
444,164,30791,1,2,0:0:0:0:
444,164,30954,2,0,P|456:104|484:64,1,95,2|0,0:0|0:0,0:0:0:0:
384,304,31280,2,0,P|336:312|288:300,1,95,8|0,0:0|0:0,0:0:0:0:
120,184,31606,5,2,0:0:0:0:
200,384,31769,1,8,0:0:0:0:
72,320,31932,1,0,0:0:0:0:
232,216,32095,2,0,P|249:163|244:104,1,95,2|2,0:0|0:0,0:0:0:0:
156,64,32421,1,8,0:0:0:0:
336,196,32584,1,0,0:0:0:0:
143,278,32747,6,0,P|179:308|224:324,1,95,4|0,0:0|0:0,0:0:0:0:
372,144,33073,1,8,0:0:0:0:
372,144,33236,2,0,L|396:240,1,95,0|2,0:0|0:0,0:0:0:0:
396,44,33563,1,2,0:0:0:0:
492,172,33726,1,8,0:0:0:0:
280,224,33889,6,0,P|216:252|164:376,1,190,4|2,0:0|0:0,0:0:0:0:
288,344,34378,1,8,0:0:0:0:
104,232,34541,1,2,0:0:0:0:
236,132,34704,5,8,0:0:0:0:
163,355,34867,1,4,0:0:0:0:
466,341,35193,6,0,P|377:370|288:344,1,190,4|2,0:0|0:0,0:0:0:0:
256,164,35682,1,8,0:0:0:0:
140,348,35845,2,0,P|234:314|290:232,1,190,4|2,0:0|0:0,0:0:0:0:
332,60,36334,1,8,0:0:0:0:
416,272,36497,6,0,P|333:215|300:122,1,190,4|2,0:0|0:0,0:0:0:0:
176,12,36986,1,8,0:0:0:0:
200,248,37150,2,0,P|243:157|224:60,1,190,4|2,0:0|0:0,0:0:0:0:
52,124,37639,1,8,0:0:0:0:
112,320,37802,6,0,B|169:348|169:348|226:345|226:345|296:369,1,190,4|0,0:0|0:0,0:0:0:0:
444,332,38291,2,0,L|340:296,1,95,8|2,0:0|0:0,0:0:0:0:
220,192,38617,2,0,L|309:223,1,95,8|2,0:0|0:0,0:0:0:0:
476,148,38943,2,0,P|449:188|407:208,1,95,8|2,0:0|0:0,0:0:0:0:
256,32,39269,2,0,P|304:32|344:56,1,95,8|2,0:0|0:0,0:0:0:0:
312,300,39595,2,0,L|248:228,1,95,8|2,0:0|0:0,0:0:0:0:
116,72,39921,5,0,3:0:0:0:
76,312,40084,1,0,3:0:0:0:
0,168,40247,1,8,0:0:0:0:
188,220,40393,6,0,L|376:268,1,190,4|2,0:0|0:0,0:0:0:0:
236,104,40882,1,8,0:0:0:0:
164,332,41045,2,0,P|93:254|95:162,1,190,4|2,0:0|0:0,0:0:0:0:
240,116,41534,1,8,0:0:0:0:
372,268,41697,6,0,B|414:178|414:178|404:80,1,190,4|2,0:0|0:0,0:0:0:0:
244,128,42186,1,8,0:0:0:0:
164,332,42349,2,0,P|71:320|9:251,1,190,4|2,0:0|0:0,0:0:0:0:
248,140,42838,1,8,0:0:0:0:
348,316,43001,6,0,P|395:307|465:186,1,190,4|8,0:0|0:0,0:0:0:0:
260,236,43490,2,0,L|248:336,1,95,2|0,0:0|0:0,0:0:0:0:
256,348,43735,1,0,0:0:0:0:
264,364,43816,1,8,0:0:0:0:
444,268,43979,5,4,0:0:0:0:
475,318,44306,6,0,B|392:257|392:257|352:180,1,190,4|2,0:0|0:0,0:0:0:0:
293,44,44795,1,8,0:0:0:0:
175,123,44958,2,0,B|248:168|248:168|352:180,1,190,4|2,0:0|0:0,0:0:0:0:
494,181,45447,1,8,0:0:0:0:
304,250,45610,6,0,B|254:259|226:294|226:294|193:336|136:331,1,190,4|2,0:0|0:0,0:0:0:0:
20,272,46099,1,8,0:0:0:0:
136,156,46262,2,0,P|153:202|152:260,1,95,4|0,0:0|0:0,0:0:0:0:
0,160,46588,2,0,P|0:104|15:66,1,95
140,16,46914,1,4,0:0:0:0:
264,368,47256,5,2,0:0:0:0:
264,368,47419,2,0,P|316:376|364:360,1,95,8|2,0:0|0:0,0:0:0:0:
376,200,47745,2,0,P|330:226|303:269,1,95,8|2,0:0|0:0,0:0:0:0:
440,368,48071,2,0,P|485:341|512:298,1,95,8|2,0:0|0:0,0:0:0:0:
476,36,48397,2,0,L|460:152,1,95,8|2,0:0|0:0,0:0:0:0:
248,192,48723,2,0,L|172:124,1,95,8|2,0:0|0:0,0:0:0:0:
64,28,49049,5,0,3:0:0:0:
160,208,49212,1,0,3:0:0:0:
256,28,49375,1,8,0:0:0:0:
352,208,49538,6,0,P|433:198|501:114,1,190,4|2,0:0|0:0,0:0:0:0:
256,28,50027,1,8,0:0:0:0:
160,208,50190,2,0,P|78:198|10:114,1,190,4|2,0:0|0:0,0:0:0:0:
256,28,50679,1,8,0:0:0:0:
256,200,50843,6,0,B|256:296|256:296|296:348|344:352,1,190,4|2,0:0|0:0,0:0:0:0:
452,196,51332,1,8,0:0:0:0:
368,236,51495,1,2,0:0:0:0:
448,292,51658,5,0,0:0:0:0:
368,136,51821,1,2,0:0:0:0:
324,104,52310,6,0,B|270:92|240:54|240:54|204:9|142:14,1,209.000006378174,4|8,0:0|0:0,0:0:0:0:
108,200,52799,1,0,0:0:0:0:
108,200,52962,2,0,P|145:155|164:102,1,104.500003189087,2|0,0:0|0:0,0:0:0:0:
80,348,53288,1,8,0:0:0:0:
0,256,53451,1,0,0:0:0:0:
192,256,53614,6,0,P|249:254|303:280,1,104.500003189087,2|0,0:0|0:0,0:0:0:0:
464,376,53940,2,0,P|408:357|367:314,1,104.500003189087,8|0,0:0|0:0,0:0:0:0:
344,136,54266,2,0,P|380:181|391:239,1,104.500003189087,2|2,0:0|0:0,0:0:0:0:
216,124,54593,2,0,P|227:73|258:31,1,104.500003189087,8|0,0:0|0:0,0:0:0:0:
192,256,54919,6,0,P|100:244|28:148,1,209.000006378174,4|8,0:0|0:0,0:0:0:0:
164,16,55408,1,0,0:0:0:0:
300,192,55571,2,0,P|356:209|412:200,1,104.500003189087,2|2,0:0|0:0,0:0:0:0:
300,24,55897,2,0,P|265:66|253:115,1,104.500003189087,8|0,0:0|0:0,0:0:0:0:
328,368,56223,6,0,B|328:312|328:312|308:264,1,104.500003189087,2|0,0:0|0:0,0:0:0:0:
112,328,56549,2,0,L|216:348,1,104.500003189087,8|0,0:0|0:0,0:0:0:0:
252,328,56794,1,0,0:0:0:0:
252,328,56875,1,2,0:0:0:0:
352,220,57038,1,2,0:0:0:0:
484,276,57201,2,0,P|491:224|474:162,1,104.500003189087,8|0,0:0|0:0,0:0:0:0:
320,312,57527,6,0,B|376:360|439:336|439:336|472:372|508:380,1,209.000006378174,4|8,0:0|0:0,0:0:0:0:
396,248,58016,1,0,0:0:0:0:
396,248,58179,2,0,P|351:218|293:213,1,104.500003189087,2|2,0:0|0:0,0:0:0:0:
152,124,58506,2,0,P|204:116|251:81,1,104.500003189087,8|0,0:0|0:0,0:0:0:0:
384,24,58832,6,0,L|404:128,1,104.500003189087,2|0,0:0|0:0,0:0:0:0:
320,300,59158,2,0,P|264:284|216:288,1,104.500003189087,8|0,0:0|0:0,0:0:0:0:
24,360,59484,2,0,P|64:324|88:272,1,104.500003189087,2|2,0:0|0:0,0:0:0:0:
120,48,59810,2,0,P|80:84|56:136,1,104.500003189087,8|0,0:0|0:0,0:0:0:0:
256,364,60136,6,0,P|344:324|396:220,1,209.000006378174,4|8,0:0|0:0,0:0:0:0:
392,92,60625,1,0,0:0:0:0:
264,112,60788,2,0,P|261:60|279:11,1,104.500003189087,2|2,0:0|0:0,0:0:0:0:
272,232,61114,2,0,P|228:260|176:266,1,104.500003189087,8|0,0:0|0:0,0:0:0:0:
0,76,61440,6,0,P|56:50|98:53,1,104.500003189087,2|0,0:0|0:0,0:0:0:0:
300,196,61766,2,0,P|236:195|200:176,1,104.500003189087,8|0,0:0|0:0,0:0:0:0:
272,72,62092,1,2,0:0:0:0:
176,272,62256,1,0,0:0:0:0:
176,272,62337,1,0,0:0:0:0:
176,272,62419,1,8,0:0:0:0:
144,116,62582,1,0,3:0:0:0:
256,264,62755,6,0,B|295:279|330:267|330:267|372:253|410:282,1,156.750004783631,4|2,0:0|0:0,0:0:0:0:
472,340,63081,2,0,P|493:292|480:236,1,104.500003189087,8|0,0:0|0:0,0:0:0:0:
376,88,63407,2,0,P|317:73|221:99,1,156.750004783631,0|2,0:0|0:0,0:0:0:0:
171,167,63733,2,0,P|143:127|143:73,1,104.500003189087,8|0,0:0|0:0,0:0:0:0:
88,288,64059,6,0,L|28:184,1,104.500003189087,4|0,0:0|0:0,0:0:0:0:
216,360,64385,2,0,P|255:329|272:279,1,104.500003189087,8|0,0:0|0:0,0:0:0:0:
224,56,64711,2,0,P|210:104|226:154,1,104.500003189087,2|0,0:0|0:0,0:0:0:0:
432,232,65037,2,0,P|401:192|351:175,1,104.500003189087,8|0,0:0|0:0,0:0:0:0:
128,372,65363,6,0,L|164:200,1,156.750004783631,4|2,0:0|0:0,0:0:0:0:
176,140,65689,2,0,L|196:32,1,104.500003189087,8|0,0:0|0:0,0:0:0:0:
420,64,66015,2,0,P|440:132|408:208,1,156.750004783631,2|2,0:0|0:0,0:0:0:0:
324,248,66341,2,0,L|216:288,1,104.500003189087,8|0,0:0|0:0,0:0:0:0:
40,83,66668,6,0,P|93:37|176:35,1,156.750004783631,4|2,0:0|0:0,0:0:0:0:
248,96,66994,2,0,L|328:178,1,104.500003189087,8|0,0:0|0:0,0:0:0:0:
376,340,67320,2,0,B|302:363|302:315|222:339,1,156.750004783631,2|2,0:0|0:0,0:0:0:0:
152,376,67646,2,0,P|128:324|132:276,1,104.500003189087,8|0,0:0|0:0,0:0:0:0:
340,248,67972,6,0,L|352:132,1,104.500003189087,4|0,0:0|0:0,0:0:0:0:
216,48,68298,2,0,L|226:151,1,104.500003189087,8|0,0:0|0:0,0:0:0:0:
456,280,68624,2,0,P|480:208|476:128,1,156.750004783631,2|2,0:0|0:0,0:0:0:0:
444,56,68950,2,0,P|400:31|344:32,1,104.500003189087,8|0,0:0|0:0,0:0:0:0:
144,232,69276,6,0,P|96:208|69:165,1,104.500003189087,4|0,0:0|0:0,0:0:0:0:
212,20,69602,2,0,L|224:124,1,104.500003189087,8|0,0:0|0:0,0:0:0:0:
248,360,69928,2,0,B|287:345|322:357|322:357|364:371|402:342,1,156.750004783631,2|2,0:0|0:0,0:0:0:0:
428,272,70255,1,8,0:0:0:0:
356,40,70418,5,2,0:0:0:0:
228,48,70571,2,0,P|176:140|184:232,1,190,4|8,0:0|0:0,0:0:0:0:
312,296,71060,2,0,P|364:204|356:112,1,190,4|8,0:0|0:0,0:0:0:0:
104,124,71549,6,0,P|99:229|136:304,1,190,4|0,0:0|0:0,0:0:0:0:
288,208,72364,5,0,0:0:0:0:
392,336,72527,2,0,B|436:288|436:288|472:160,1,190,4|8,0:0|0:0,0:0:0:0:
300,24,73016,2,0,B|276:84|276:84|288:216,1,190,4|8,0:0|0:0,0:0:0:0:
392,336,73505,6,0,P|424:302|334:265,1,190,4|0,0:0|0:0,0:0:0:0:
188,152,74321,5,0,0:0:0:0:
148,332,74484,2,0,L|36:348,1,95,8|2,0:0|0:0,0:0:0:0:
232,96,74810,5,2,0:0:0:0:
316,236,74973,2,0,L|410:222,1,95,8|2,0:0|0:0,0:0:0:0:
160,80,75299,5,2,0:0:0:0:
96,240,75462,2,0,L|1:253,1,95,8|0,0:0|0:0,0:0:0:0:
208,24,75788,5,2,0:0:0:0:
348,104,75951,1,2,0:0:0:0:
188,152,76114,1,8,0:0:0:0:
288,32,76277,1,2,0:0:0:0:
280,204,76440,6,0,L|280:312,1,95,4|2,0:0|0:0,0:0:0:0:
104,312,76766,1,8,0:0:0:0:
216,184,76929,2,0,L|320:160,1,95,4|2,0:0|0:0,0:0:0:0:
444,224,77255,1,8,0:0:0:0:
288,32,77418,1,4,0:0:0:0:
256,192,77500,12,8,78397,0:0:0:0:
160,308,78723,6,0,B|144:248|144:248|164:164,1,142.5,4|0,0:0|0:0,0:0:0:0:
184,92,79049,2,0,L|204:24,3,47.5,8|0|0|0,0:0|0:0|0:0|0:0,0:0:0:0:
280,168,79375,2,0,L|264:236,3,47.5,8|0|0|0,0:0|0:0|0:0|0:0,0:0:0:0:
309,303,79701,1,8,0:0:0:0:
352,324,79782,1,0,0:0:0:0:
400,326,79864,1,0,0:0:0:0:
442,302,79945,1,0,0:0:0:0:
469,263,80027,6,0,P|475:186|431:125,1,142.5,4|0,0:0|0:0,0:0:0:0:
356,108,80353,2,0,P|352:140|360:168,3,47.5,8|0|0|0,0:0|0:0|0:0|0:0,0:0:0:0:
232,244,80679,2,0,P|236:212|228:184,3,47.5,8|0|0|0,0:0|0:0|0:0|0:0,0:0:0:0:
148,116,81005,1,8,0:0:0:0:
112,148,81087,1,0,0:0:0:0:
76,180,81168,1,0,0:0:0:0:
40,212,81250,1,0,0:0:0:0:
8,240,81331,6,0,B|12:296|12:296|68:320|76:364,1,142.5,4|0,0:0|0:0,0:0:0:0:
188,364,81657,2,0,L|252:368,3,47.5,8|0|0|0,0:0|0:0|0:0|0:0,0:0:0:0:
324,296,81983,2,0,L|388:300,3,47.5,8|0|0|0,0:0|0:0|0:0|0:0,0:0:0:0:
480,352,82309,2,0,L|488:292,1,47.5,8|0,0:0|0:0,0:0:0:0:
436,212,82473,2,0,L|444:152,1,47.5
364,44,82636,5,4,0:0:0:0:
256,208,82883,1,8,0:0:0:0:
148,44,83100,1,2,0:0:0:0:
364,144,83318,5,8,0:0:0:0:
148,144,83535,1,2,0:0:0:0:
256,328,83752,1,8,0:0:0:0:
256,60,83970,5,2,0:0:0:0:
368,244,84187,1,2,0:0:0:0:
144,244,84405,1,8,0:0:0:0:
256,60,84622,5,8,0:0:0:0:
256,328,84839,1,2,0:0:0:0:
256,60,85057,2,0,B|288:116|224:164|256:220,1,158.333333333333,4|0,0:0|0:0,0:0:0:0:
