osu file format v12

[General]
AudioFilename: Great Escape.mp3
AudioLeadIn: 1828
PreviewTime: 52167
Countdown: 0
SampleSet: Soft
StackLeniency: 0.7
Mode: 0
LetterboxInBreaks: 0
WidescreenStoryboard: 0

[Editor]
DistanceSpacing: 1
BeatDivisor: 3
GridSize: 4

[Metadata]
Title:great escape (TV Size)
TitleUnicode:great escape (TV Size)
Artist:cinema staff
ArtistUnicode:cinema staff
Creator:UnitedWeSin
Version:Easy
Source:Shingeki no Kyojin
Tags:attack on titan ending Seiji Kameda Souhei Mishima 進撃の巨人 jonathanlfj EmPao uws
BeatmapID:289089
BeatmapSetID:110220

[Difficulty]
HPDrainRate:2
CircleSize:3
OverallDifficulty:2
ApproachRate:3
SliderMultiplier:0.8
SliderTickRate:1

[Events]
//Background and Video events
0,0,"bg.jpg",0,0
Video,40,"video.avi"
//Break Periods
2,12080,13047
//Storyboard Layer 0 (Background)
//Storyboard Layer 1 (Fail)
//Storyboard Layer 2 (Pass)
//Storyboard Layer 3 (Foreground)
//Storyboard Sound Samples
//Background Colour Transformations
3,100,163,162,255

[TimingPoints]
164,326.086956521739,4,2,1,60,1,0
1446,326.086956521739,4,1,1,40,1,1
1527,-100,4,1,1,40,0,0
11888,326.086956521739,4,2,2,40,1,0
11888,-100,4,2,2,40,0,0
14487,326.086956521739,4,2,2,50,1,0
19052,-100,4,2,1,50,0,0
19704,-100,4,2,2,50,0,0
24269,-100,4,2,1,50,0,0
24921,-100,4,2,2,60,0,0
40393,326.086956521739,4,2,2,60,1,0
47093,326.086956521739,4,2,2,60,1,0
52310,-100,4,2,2,70,0,1
62663,-100,4,2,2,70,0,0
62755,326.086956521739,4,2,2,70,1,1
62755,-100,4,2,2,70,0,1
70571,326.086956521739,4,2,2,60,1,0
78723,326.086956521739,4,2,2,70,1,1
78804,-100,4,2,2,70,0,0
82666,326.086956521739,4,1,1,40,1,0
85057,-100,4,2,2,70,0,0

[Colours]
Combo1 : 177,197,184
Combo2 : 177,151,139
Combo3 : 190,126,177

[HitObjects]
192,128,164,2,0,B|192:88|192:88|216:56,1,80,2|0,0:0|0:0,0:0:0:0:
296,56,816,2,0,B|320:88|320:88|320:128,1,80,2|0,0:0|0:0,0:0:0:0:
256,176,1446,6,0,B|232:232|260:251|284:272|260:336,1,160,4|0,0:0|0:0,0:0:0:0:
104,376,2750,2,0,P|44:328|36:240,1,160,4|0,0:0|0:0,0:0:0:0:
124,116,4054,2,0,B|164:180|164:180|148:264,2,160,4|0|4,0:0|0:0|0:0,0:0:0:0:
256,24,6011,1,0,0:0:0:0:
340,160,6663,6,0,B|384:196|448:168|448:168|476:212,1,160,4|0,0:0|0:0,0:0:0:0:
372,332,7967,2,0,P|300:321|217:267,1,160,4|0,0:0|0:0,0:0:0:0:
140,140,9272,1,4,0:0:0:0:
12,232,9924,2,0,P|8:268|13:311,2,80,2|2|4,0:0|0:0|0:0,0:0:0:0:
72,84,11228,1,0,0:0:0:0:
216,152,11880,5,4,0:0:0:0:
232,144,14487,6,0,L|396:156,1,160,4|2,0:0|0:0,0:0:0:0:
496,276,15791,2,0,P|458:339|374:369,1,160,0|2,0:0|0:0,0:0:0:0:
236,300,17095,2,0,P|154:287|90:323,1,160,4|2,0:0|0:0,0:0:0:0:
8,236,18237,2,0,B|14:175|14:175|51:114,1,120,8|8,0:0|0:0,0:0:0:0:
104,72,19052,1,2,0:0:0:0:
232,168,19704,6,0,P|288:108|304:24,1,160,4|2,0:0|0:0,0:0:0:0:
440,128,21008,2,0,L|468:300,1,160,0|2,0:0|0:0,0:0:0:0:
332,372,22313,2,0,P|269:356|212:276,1,160,4|2,0:0|0:0,0:0:0:0:
236,164,23454,2,0,B|218:105|218:105|170:56,1,120,8|8,0:0|0:0,0:0:0:0:
96,52,24269,1,2,0:0:0:0:
8,188,24921,6,0,P|86:221|157:206,1,160,4|2,0:0|0:0,0:0:0:0:
288,120,26226,2,0,L|412:224,1,160,0|2,0:0|0:0,0:0:0:0:
472,276,27204,1,8,0:0:0:0:
440,352,27530,6,0,B|376:372|324:332|324:332|272:352,1,160,4|2,0:0|0:0,0:0:0:0:
132,364,28834,2,0,P|80:298|72:216,1,160,0|2,0:0|0:0,0:0:0:0:
100,148,29813,1,8,0:0:0:0:
180,164,30139,6,0,B|235:156|235:156|280:138|280:138|336:130,1,160,4|2,0:0|0:0,0:0:0:0:
484,188,31443,2,0,P|512:236|528:276,2,80,0|8|2,0:0|0:0|0:0,0:0:0:0:
420,140,32421,1,8,0:0:0:0:
408,220,32747,6,0,P|368:280|248:328,1,200,4|2,0:0|0:0,0:0:0:0:
184,288,33889,2,0,L|168:204,1,80,4|2,0:0|0:0,0:0:0:0:
164,168,34378,2,0,B|171:108|171:108|220:64,1,120,8|4,0:0|0:0,0:0:0:0:
292,92,35193,6,0,P|384:104|448:72,2,160,4|4|4,0:0|0:0|0:0,0:0:0:0:
148,24,37150,1,4,0:0:0:0:
80,168,37802,6,0,L|56:296,1,120,4|8,0:0|0:0,0:0:0:0:
104,352,38617,2,0,L|184:360,1,80,8|8,0:0|0:0,0:0:0:0:
224,292,39269,2,0,L|304:300,1,80,8|8,0:0|0:0,0:0:0:0:
368,348,39921,2,0,L|452:356,1,80,0|8,3:0|0:0,0:0:0:0:
476,332,40393,6,0,P|492:252|468:168,2,160,4|4|4,0:0|0:0|0:0,0:0:0:0:
332,256,42349,1,4,0:0:0:0:
204,356,43001,2,0,P|163:342|133:313,1,80,4|8,0:0|0:0,0:0:0:0:
120,280,43490,2,0,L|124:148,1,120,2|4,0:0|0:0,0:0:0:0:
180,104,44306,6,0,B|260:112|260:112|332:80,2,160,4|4|4,0:0|0:0|0:0,0:0:0:0:
112,60,45936,1,2,0:0:0:0:
40,96,46262,2,0,P|8:160|20:264,1,160,4|4,0:0|0:0,0:0:0:0:
108,328,47419,5,8,0:0:0:0:
168,276,47745,2,0,P|210:256|250:256,1,80,8|8,0:0|0:0,0:0:0:0:
312,296,48397,2,0,P|344:294|387:275,1,80,8|8,0:0|0:0,0:0:0:0:
444,220,49049,2,0,L|464:120,1,80,0|8,3:0|0:0,0:0:0:0:
464,100,49538,6,0,P|404:64|304:84,1,160,4|4,0:0|0:0,0:0:0:0:
236,212,50843,2,0,P|149:223|89:187,1,160,4|2,0:0|0:0,0:0:0:0:
256,76,52310,6,0,B|323:123|323:123|361:208,1,160,4|2,0:0|0:0,0:0:0:0:
296,344,53614,2,0,P|333:366|377:363,2,80,2|8|2,0:0|0:0|0:0,0:0:0:0:
244,284,54593,1,8,0:0:0:0:
164,296,54919,2,0,P|84:304|8:256,2,160,4|2|2,0:0|0:0|0:0,0:0:0:0:
124,140,56875,1,2,0:0:0:0:
236,24,57527,6,0,P|279:91|271:181,1,160,4|2,0:0|0:0,0:0:0:0:
220,320,58832,2,0,P|264:336|301:329,2,80,2|8|2,0:0|0:0|0:0,0:0:0:0:
176,252,59810,1,8,0:0:0:0:
192,172,60136,2,0,P|148:106|79:65,1,160,4|2,0:0|0:0,0:0:0:0:
32,224,61440,2,0,P|75:289|144:330,1,160,2|2,0:0|0:0,0:0:0:0:
220,300,62419,1,8,0:0:0:0:
292,340,62755,6,0,B|340:360|340:360|456:320,1,160,4|2,0:0|0:0,0:0:0:0:
404,168,64059,2,0,L|324:196,2,80,4|8|2,0:0|0:0|0:0,0:0:0:0:
452,104,65037,1,8,0:0:0:0:
408,36,65363,2,0,B|360:16|360:16|244:56,1,160,4|2,0:0|0:0,0:0:0:0:
212,204,66668,2,0,P|155:187|96:105,1,160,4|2,0:0|0:0,0:0:0:0:
256,132,67972,6,0,B|290:161|296:200|296:200|290:246|256:280,2,160,4|2|4,0:0|0:0|0:0,0:0:0:0:
112,64,69928,2,0,L|72:144,1,80,2|8,0:0|0:0,0:0:0:0:
92,212,70571,6,0,L|36:324,2,120,4|4|4,0:0|0:0|0:0,0:0:0:0:
328,180,72527,2,0,L|381:72,2,120,4|4|4,0:0|0:0|0:0,0:0:0:0:
256,192,74484,12,4,77418,0:0:0:0:
232,76,78723,6,0,B|216:129|216:129|215:177|215:177|199:232,1,160,4|8,0:0|0:0,0:0:0:0:
280,368,80027,2,0,P|356:352|408:288,1,160,4|8,0:0|0:0,0:0:0:0:
312,160,81331,2,0,P|256:104|252:16,2,160,4|8|4,0:0|0:0|0:0,0:0:0:0:
256,192,82829,12,4,85057,0:0:0:0:
