osu file format v14

[General]
AudioFilename: Fairytale.mp3
AudioLeadIn: 500
PreviewTime: 202839
Countdown: 0
SampleSet: Soft
StackLeniency: 0.7
Mode: 0
LetterboxInBreaks: 0
WidescreenStoryboard: 0

[Editor]
Bookmarks: 1189,41705,80674,100468,101705,121499,128921,143767,154901,179643,198200,202530,204385,243973,263767,283560,293845,304131
DistanceSpacing: 2
BeatDivisor: 4
GridSize: 4
TimelineZoom: 2.1

[Metadata]
Title:Fairytale,
TitleUnicode:Fairytale,
Artist:cillia
ArtistUnicode:シリア
Creator:moph
Version:Promise
Source:
Tags:kyaami vocaloid vocaloid4 buzzG VY1V4 cover
BeatmapID:759192
BeatmapSetID:311463

[Difficulty]
HPDrainRate:6.5
CircleSize:4.2
OverallDifficulty:8.5
ApproachRate:9.4
SliderMultiplier:1.8
SliderTickRate:1

[Events]
//Background and Video events
0,0,"bg.jpg",0,0
//Break Periods
//Storyboard Layer 0 (Background)
//Storyboard Layer 1 (Fail)
//Storyboard Layer 2 (Pass)
//Storyboard Layer 3 (Foreground)
//Storyboard Sound Samples

[TimingPoints]
262,309.278350515464,4,2,1,40,1,0
1189,-166.666666666667,4,2,1,40,0,0
8844,-166.666666666667,4,2,1,20,0,0
8921,-166.666666666667,4,2,1,40,0,0
15648,-166.666666666667,4,2,1,20,0,0
15725,-166.666666666667,4,2,1,40,0,0
23689,-166.666666666667,4,2,1,20,0,0
23767,-166.666666666667,4,2,1,40,0,0
26164,-166.666666666667,4,2,1,20,0,0
26241,-166.666666666667,4,2,1,40,0,0
30107,-166.666666666667,4,2,1,20,0,0
30262,-166.666666666667,4,2,1,40,0,0
33586,-166.666666666667,4,2,1,20,0,0
33664,-166.666666666667,4,2,1,40,0,0
36060,-166.666666666667,4,2,1,20,0,0
36138,-166.666666666667,4,2,1,40,0,0
38612,-166.666666666667,4,2,1,5,0,0
39849,-200,4,2,1,40,0,0
39926,-200,4,2,1,5,0,0
41705,-200,4,2,1,10,0,0
42014,-200,4,2,1,40,0,0
42246,-200,4,2,1,20,0,0
42323,-133.333333333333,4,2,1,40,0,0
42710,-133.333333333333,4,2,1,20,0,0
42787,-100,4,2,1,40,0,0
43174,-100,4,2,1,20,0,0
43251,-133.333333333333,4,2,1,40,0,0
43483,-133.333333333333,4,2,1,20,0,0
43560,-100,4,2,1,85,0,1
44102,-100,4,2,1,20,0,1
44179,-100,4,2,1,85,0,1
46576,-100,4,2,1,20,0,1
46653,-100,4,2,1,85,0,1
50287,-100,4,2,1,20,0,1
50365,-100,4,2,1,85,0,1
51524,-100,4,2,1,20,0,1
51602,-100,4,2,1,85,0,1
58329,-100,4,2,1,20,0,1
58406,-100,4,2,1,85,0,1
58638,-100,4,2,1,20,0,1
58715,-100,4,2,1,85,0,1
59102,-100,4,2,1,20,0,1
59179,-100,4,2,1,85,0,1
59566,-100,4,2,1,20,0,1
59643,-100,4,2,1,85,0,1
62117,-100,4,2,1,70,0,0
63354,-100,4,2,1,85,0,1
63586,-100,4,2,1,20,0,1
63664,-100,4,2,1,85,0,1
63896,-100,4,2,1,20,0,1
63973,-100,4,2,1,85,0,1
66370,-100,4,2,1,20,0,1
66447,-100,4,2,1,85,0,1
70081,-100,4,2,1,20,0,1
70158,-100,4,2,1,85,0,1
78122,-100,4,2,1,20,0,1
78200,-100,4,2,1,85,0,1
80674,-100,4,2,1,85,0,0
85313,-125,4,2,1,70,0,0
90571,-100,4,2,1,70,0,0
100468,-166.666666666667,4,2,1,70,0,0
101241,-166.666666666667,4,2,1,20,0,0
101318,-166.666666666667,4,2,1,70,0,0
101705,-125,4,2,1,70,0,0
103174,-125,4,2,1,20,0,0
103251,-125,4,2,1,70,0,0
104102,-125,4,2,1,20,0,0
104179,-125,4,2,1,70,0,0
109050,-125,4,2,1,20,0,0
109127,-125,4,2,1,70,0,0
113999,-125,4,2,1,20,0,0
114076,-125,4,2,1,70,0,0
117710,-125,4,2,1,20,0,0
117787,-125,4,2,1,70,0,0
119256,-125,4,2,1,20,0,0
119334,-125,4,2,1,70,0,0
120339,-125,4,2,1,20,0,0
120416,-125,4,2,1,70,0,0
121499,309.278350515464,6,2,1,40,1,0
121499,-166.666666666667,6,2,1,40,0,0
143612,-166.666666666667,6,2,1,60,0,0
143767,-125,6,2,1,60,0,0
143999,-125,6,2,1,20,0,0
144076,-125,6,2,1,60,0,0
151421,-125,6,2,1,20,0,0
151499,-125,6,2,1,60,0,0
152349,-125,6,2,1,20,0,0
152426,-125,6,2,1,60,0,0
154282,-125,6,2,1,50,0,0
154591,-125,6,2,1,60,0,0
154901,309.278350515464,4,2,1,85,1,0
159849,-100,4,2,1,85,0,1
160081,-100,4,2,1,20,0,1
160158,-100,4,2,1,85,0,1
160545,-100,4,2,1,20,0,1
160622,-100,4,2,1,85,0,1
162555,-100,4,2,1,20,0,1
162632,-100,4,2,1,85,0,1
163019,-100,4,2,1,20,0,1
163096,-100,4,2,1,85,0,1
165029,-100,4,2,1,20,0,1
165107,-100,4,2,1,85,0,1
165493,-100,4,2,1,20,0,1
165571,-100,4,2,1,85,0,1
167504,-100,4,2,1,20,0,1
167581,-100,4,2,1,85,0,1
167968,-100,4,2,1,20,0,1
168045,-100,4,2,1,85,0,1
169282,-100,4,2,1,85,0,1
169978,-100,4,2,1,20,0,1
170055,-100,4,2,1,85,0,1
170442,-100,4,2,1,20,0,1
170519,-100,4,2,1,85,0,1
179643,-100,4,2,1,85,0,0
180184,-100,4,2,1,20,0,0
180261,-100,4,2,1,85,0,0
189772,-100,4,2,1,20,0,0
189849,-100,4,2,1,70,0,0
191318,-100,4,2,1,20,0,0
191395,-100,4,2,1,70,0,0
193792,-100,4,2,1,20,0,0
193870,-100,4,2,1,70,0,0
197890,-133.333333333333,4,2,1,70,0,0
198199,-133.333333333333,4,2,1,5,0,0
199437,-133.333333333333,4,2,1,20,0,0
200674,-133.333333333333,4,2,1,40,0,0
201911,-133.333333333333,4,2,1,50,0,0
202839,-200,4,2,1,40,0,0
203071,-200,4,2,1,20,0,0
203148,-133.333333333333,4,2,1,40,0,0
203535,-133.333333333333,4,2,1,20,0,0
203612,-100,4,2,1,40,0,0
203998,-100,4,2,1,20,0,0
204076,-133.333333333333,4,2,1,40,0,0
204308,-133.333333333333,4,2,1,20,0,0
204385,-100,4,2,1,85,0,1
204926,-100,4,2,1,20,0,1
205004,-100,4,2,1,85,0,1
207401,-100,4,2,1,20,0,1
207478,-100,4,2,1,85,0,1
208638,-100,4,2,1,20,0,1
208715,-100,4,2,1,85,0,1
217916,-100,4,2,1,20,0,1
217993,-100,4,2,1,85,0,1
219462,-100,4,2,1,20,0,1
219540,-100,4,2,1,85,0,1
220081,-100,4,2,1,20,0,1
220158,-100,4,2,1,85,0,1
220390,-100,4,2,1,20,0,1
220468,-100,4,2,1,85,0,1
222942,-100,4,2,1,70,0,0
224179,-100,4,2,1,85,0,1
224411,-100,4,2,1,20,0,1
224488,-100,4,2,1,85,0,1
231524,-100,4,2,1,20,0,1
231602,-100,4,2,1,85,0,1
236473,-100,4,2,1,20,0,1
236550,-100,4,2,1,85,0,1
242736,-160,4,2,1,40,0,0
243818,-100,4,2,1,70,0,0
244514,-100,4,2,1,20,0,0
244591,-100,4,2,1,70,0,0
246370,-100,4,2,1,20,0,0
246447,-100,4,2,1,70,0,0
248225,-100,4,2,1,20,0,0
248303,-100,4,2,1,70,0,0
249153,-100,4,2,1,20,0,0
249230,-100,4,2,1,70,0,0
249462,-100,4,2,1,20,0,0
249540,-100,4,2,1,70,0,0
256885,-100,4,2,1,20,0,0
256962,-100,4,2,1,70,0,0
258741,-100,4,2,1,20,0,0
258818,-100,4,2,1,70,0,0
260596,-100,4,2,1,20,0,0
260674,-100,4,2,1,70,0,0
263225,-100,4,2,1,20,0,0
263303,-100,4,2,1,85,0,0
283560,857.142857142857,4,2,1,70,1,0
283560,-119.047619047619,4,2,1,70,0,0
283667,-59.5238095238095,4,2,1,20,0,0
293845,-100,4,2,1,5,0,0
293952,-100,4,2,1,20,0,0
295560,-100,4,2,1,30,0,0
297274,-100,4,2,1,40,0,0
298988,-100,4,2,1,50,0,0
300702,-100,4,2,1,60,0,0
302417,-100,4,2,1,70,0,0
304131,-100,4,2,1,5,0,0

[Colours]
Combo1 : 88,157,190
Combo2 : 80,160,160
Combo3 : 168,166,151
Combo4 : 157,145,166

[HitObjects]
336,144,1189,6,0,L|404:132,1,53.9999983520508,0|0,0:0|0:0,0:0:0:0:
308,232,1499,2,0,L|192:256,1,107.999996704102,2|0,0:0|0:0,0:0:0:0:
100,320,1963,1,0,0:0:0:0:
100,320,2117,2,0,P|104:280|92:244,1,53.9999983520508,0|0,0:0|0:0,0:0:0:0:
44,136,2426,2,0,B|120:160|120:160|212:132,1,161.999995056153,2|0,0:0|0:0,0:0:0:0:
284,68,3045,2,0,P|332:52|392:72,1,107.999996704102,2|2,0:0|0:0,0:0:0:0:
385,67,3664,1,0,0:0:0:0:
368,284,3973,6,0,B|352:228|352:228|368:160,1,107.999996704102,2|0,0:0|0:0,0:0:0:0:
256,240,4437,1,0,0:0:0:0:
256,240,4591,2,0,L|236:308,1,53.9999983520508,0|0,0:0|0:0,0:0:0:0:
128,344,4901,2,0,P|136:268|100:180,1,161.999995056153,2|0,0:0|0:0,0:0:0:0:
20,108,5519,2,0,L|128:88,1,107.999996704102,2|2,0:0|0:0,0:0:0:0:
126,88,6138,1,0,0:0:0:0:
224,132,6292,1,0,0:0:0:0:
324,88,6447,6,0,P|380:100|440:84,1,107.999996704102,2|0,0:0|0:0,0:0:0:0:
344,192,6911,2,0,L|393:213,1,53.9999983520508,0|0,0:0|0:0,0:0:0:0:
440,320,7220,1,0,0:0:0:0:
440,320,7375,2,0,P|352:296|276:320,1,161.999995056153,2|0,0:0|0:0,0:0:0:0:
180,336,7993,2,0,P|128:348|64:328,1,107.999996704102,2|2,0:0|0:0,0:0:0:0:
68,120,8612,2,0,P|120:108|168:120,1,80.9999975280763,0|0,0:0|0:0,0:0:0:0:
168,120,8921,6,0,L|296:104,1,107.999996704102,2|0,0:0|0:0,0:0:0:0:
360,176,9385,1,0,0:0:0:0:
360,176,9540,2,0,L|428:168,1,53.9999983520508,0|0,0:0|0:0,0:0:0:0:
275,106,9849,2,0,P|252:160|284:256,1,161.999995056153,2|0,0:0|0:0,0:0:0:0:
372,316,10468,2,0,B|424:304|424:304|492:324,1,107.999996704102,2|2,0:0|0:0,0:0:0:0:
272,360,11086,1,0,0:0:0:0:
272,360,11241,1,0,0:0:0:0:
272,360,11396,6,0,L|164:324,1,107.999996704102,2|0,0:0|0:0,0:0:0:0:
136,232,11859,1,0,0:0:0:0:
136,232,12014,2,0,L|68:212,1,53.9999983520508,0|0,0:0|0:0,0:0:0:0:
36,84,12323,2,0,P|88:40|184:48,1,161.999995056153,2|0,0:0|0:0,0:0:0:0:
280,80,12942,2,0,P|332:96|392:72,2,107.999996704102,2|2|0,0:0|0:0|0:0,0:0:0:0:
296,176,13870,6,0,L|328:288,1,107.999996704102,2|0,0:0|0:0,0:0:0:0:
432,304,14334,1,0,0:0:0:0:
432,304,14488,2,0,L|412:240,1,53.9999983520508,0|0,0:0|0:0,0:0:0:0:
296,176,14798,2,0,P|252:160|148:220,1,161.999995056153,2|0,0:0|0:0,0:0:0:0:
188,320,15416,2,0,L|88:316,1,80.9999975280763,2|0,0:0|0:0,0:0:0:0:
92,328,15725,2,0,L|38:325,1,53.9999983520508,2|0,0:0|0:0,0:0:0:0:
48,144,16189,1,0,0:0:0:0:
48,144,16344,6,0,L|168:148,1,107.999996704102,2|0,0:0|0:0,0:0:0:0:
264,128,16808,2,0,P|284:80|252:16,1,107.999996704102,0|0,0:0|0:0,0:0:0:0:
156,147,17272,2,0,P|133:212|161:300,1,161.999995056153,2|0,0:0|0:0,0:0:0:0:
264,324,17890,2,0,L|384:304,1,107.999996704102,2|2,0:0|0:0,0:0:0:0:
456,156,18509,1,0,0:0:0:0:
456,156,18818,6,0,L|349:173,1,107.999996704102,2|0,0:0|0:0,0:0:0:0:
224,112,19282,1,0,0:0:0:0:
224,112,19437,2,0,L|160:92,1,53.9999983520508,0|0,0:0|0:0,0:0:0:0:
68,120,19746,2,0,P|40:200|80:272,1,161.999995056153,2|0,0:0|0:0,0:0:0:0:
196,324,20365,2,0,L|80:388,1,107.999996704102,2|2,0:0|0:0,0:0:0:0:
188,216,20983,1,0,0:0:0:0:
304,256,21292,6,0,P|320:308|308:376,1,107.999996704102,2|0,0:0|0:0,0:0:0:0:
314,360,21911,1,0,0:0:0:0:
90,324,22220,2,0,B|142:336|142:336|210:320,1,107.999996704102,0|0,0:0|0:0,0:0:0:0:
388,272,22839,1,2,0:0:0:0:
128,228,23457,2,0,L|40:220,1,80.9999975280763,0|0,0:0|0:0,0:0:0:0:
32,216,23767,6,0,P|16:172|36:112,1,107.999996704102,2|0,0:0|0:0,0:0:0:0:
228,184,24385,1,0,0:0:0:0:
228,184,24694,2,0,P|240:232|220:288,1,107.999996704102,0|0,0:0|0:0,0:0:0:0:
100,340,25158,2,0,L|168:344,1,53.9999983520508,0|2,0:0|0:0,0:0:0:0:
472,332,25932,2,0,L|374:324,1,80.9999975280763,0|0,0:0|0:0,0:0:0:0:
372,324,26241,6,0,P|336:268|348:212,1,107.999996704102,2|0,0:0|0:0,0:0:0:0:
480,96,26859,2,0,P|449:155|395:172,1,107.999996704102,0|0,0:0|0:0,0:0:0:0:
224,116,27478,2,0,P|290:112|332:151,1,107.999996704102,0|0,0:0|0:0,0:0:0:0:
224,276,28097,2,0,B|144:300|144:300|52:272,1,161.999995056153,0|0,0:0|0:0,0:0:0:0:
24,180,28715,6,0,P|12:124|32:68,1,107.999996704102,2|0,0:0|0:0,0:0:0:0:
26,76,29334,1,0,0:0:0:0:
252,52,29643,2,0,P|284:128|256:208,1,161.999995056153,0|0,0:0|0:0,0:0:0:0:
261,200,30262,1,2,0:0:0:0:
261,200,31035,1,0,0:0:0:0:
261,200,31189,6,0,L|136:224,1,107.999996704102,2|0,0:0|0:0,0:0:0:0:
60,272,31653,2,0,P|48:224|64:164,1,107.999996704102,0|0,0:0|0:0,0:0:0:0:
128,80,32117,2,0,B|176:48|248:72|220:92|296:120|352:72,1,215.999993408203,2|0,0:0|0:0,0:0:0:0:
334,84,33354,2,0,P|342:132|330:172,1,80.9999975280763,0|0,0:0|0:0,0:0:0:0:
328,177,33664,6,0,L|352:293,1,107.999996704102,2|0,0:0|0:0,0:0:0:0:
440,328,34127,2,0,P|452:280|428:220,1,107.999996704102,0|0,0:0|0:0,0:0:0:0:
349,282,34591,2,0,B|301:314|229:290|257:270|181:242|125:290,1,215.999993408203,2|0,0:0|0:0,0:0:0:0:
142,277,35829,2,0,P|128:226|135:180,1,80.9999975280763,0|0,0:0|0:0,0:0:0:0:
138,184,36138,6,0,B|246:180,1,107.999996704102,2|0,0:0|0:0,0:0:0:0:
424,72,36756,1,0,0:0:0:0:
424,72,37066,2,0,B|316:76,1,107.999996704102,2|0,0:0|0:0,0:0:0:0:
316,268,37684,2,0,P|372:280|428:268,2,107.999996704102,0|0|0,0:0|0:0|0:0,0:0:0:0:
256,192,38612,12,0,39694,0:0:0:0:
256,192,39849,5,0,0:0:0:0:
256,192,39926,12,0,41705,0:0:0:0:
240,240,42014,6,0,P|236:284|252:316,1,67.5,0|0,0:0|0:0,0:0:0:0:
380,336,42323,6,0,B|415:294|376:245|376:245|348:268|301:265,1,168.750006437302,0|0,0:0|0:0,0:0:0:0:
332,180,42787,6,0,B|288:204|268:168|272:120|316:96|356:108|372:148|372:184|408:168|436:176|460:172,1,225,0|0,0:0|0:0,0:0:0:0:
444,88,43251,6,0,P|448:48|424:84,1,101.250003862381,0|0,0:0|0:0,0:0:0:0:
208,104,43560,6,0,P|200:148|216:212,1,90,4|0,0:0|0:0,0:0:0:0:
324,264,43870,2,0,B|392:248|392:248|468:268,1,135,8|0,0:0|0:0,0:0:0:0:
472,272,44179,1,0,0:0:0:0:
264,328,44334,1,0,0:0:0:0:
324,144,44488,1,8,0:0:0:0:
412,340,44643,1,0,0:0:0:0:
192,368,44798,6,0,P|180:320|200:272,1,90,2|0,0:0|0:0,0:0:0:0:
395,101,45107,2,0,P|407:149|387:197,1,90,10|0,0:0|0:0,0:0:0:0:
216,144,45416,1,2,0:0:0:0:
352,28,45571,1,0,0:0:0:0:
488,144,45725,1,10,0:0:0:0:
352,260,45880,1,0,0:0:0:0:
272,72,46035,6,0,P|232:52|176:64,1,90,4|0,0:0|0:0,0:0:0:0:
48,172,46344,2,0,B|64:236|64:236|52:312,1,135,8|0,0:0|0:0,0:0:0:0:
48,320,46653,2,0,L|144:304,1,90,0|0,0:0|0:0,0:0:0:0:
256,204,46963,1,8,0:0:0:0:
316,344,47117,1,0,0:0:0:0:
464,304,47272,6,0,P|472:260|460:208,1,90,2|0,0:0|0:0,0:0:0:0:
255,116,47581,2,0,P|247:160|255:203,1,90,10|0,0:0|0:0,0:0:0:0:
388,84,47890,1,2,0:0:0:0:
220,24,48045,1,0,0:0:0:0:
96,156,48200,2,0,L|8:204,1,90,10|0,0:0|0:0,0:0:0:0:
204,356,48509,6,0,P|212:304|204:260,1,90,4|0,0:0|0:0,0:0:0:0:
168,104,48818,1,8,0:0:0:0:
104,308,48973,1,0,0:0:0:0:
284,240,49127,2,0,L|388:280,1,90,0|0,0:0|0:0,0:0:0:0:
488,368,49437,1,8,0:0:0:0:
312,340,49591,1,0,0:0:0:0:
500,208,49746,6,0,P|512:264|500:304,1,90,2|0,0:0|0:0,0:0:0:0:
316,164,50055,2,0,P|300:100|328:20,1,135,10|0,0:0|0:0,0:0:0:0:
328,24,50365,1,2,0:0:0:0:
408,260,50519,1,0,0:0:0:0:
236,176,50674,1,10,0:0:0:0:
481,104,50829,1,0,0:0:0:0:
494,102,50906,1,0,0:0:0:0:
508,100,50983,6,0,P|519:147|500:208,1,90,4|0,0:0|0:0,0:0:0:0:
376,332,51292,2,0,B|312:308|312:308|236:336,1,135,8|0,0:0|0:0,0:0:0:0:
232,340,51602,2,0,P|220:288|240:232,1,90,0|0,0:0|0:0,0:0:0:0:
388,168,51911,1,8,0:0:0:0:
472,332,52066,1,0,0:0:0:0:
324,232,52220,5,2,0:0:0:0:
420,80,52375,1,0,0:0:0:0:
408,260,52530,1,10,0:0:0:0:
227,253,52684,1,0,0:0:0:0:
476,200,52839,1,2,0:0:0:0:
336,316,52993,1,0,0:0:0:0:
296,140,53148,5,10,0:0:0:0:
280,132,53225,1,0,0:0:0:0:
264,124,53303,1,0,0:0:0:0:
248,116,53380,1,0,0:0:0:0:
232,108,53457,2,0,L|136:140,1,90,4|0,0:0|0:0,0:0:0:0:
68,292,53767,1,8,0:0:0:0:
226,339,53921,2,0,P|236:295|226:251,1,90,0|0,0:0|0:0,0:0:0:0:
146,136,54231,1,0,0:0:0:0:
68,292,54385,2,0,P|108:304|156:292,1,90,8|0,0:0|0:0,0:0:0:0:
296,240,54694,6,0,P|336:228|384:240,1,90,2|0,0:0|0:0,0:0:0:0:
488,352,55004,1,10,0:0:0:0:
336,316,55158,1,0,0:0:0:0:
472,184,55313,2,0,P|484:232|471:281,1,90,2|0,0:0|0:0,0:0:0:0:
254,309,55622,1,10,0:0:0:0:
246,303,55700,1,0,0:0:0:0:
239,297,55777,1,0,0:0:0:0:
231,291,55854,1,0,0:0:0:0:
224,284,55932,6,0,P|213:238|229:190,1,90,4|0,0:0|0:0,0:0:0:0:
336,92,56241,1,8,0:0:0:0:
296,240,56396,1,0,0:0:0:0:
184,136,56550,2,0,P|228:124|280:144,1,90,0|0,0:0|0:0,0:0:0:0:
472,184,56859,2,0,P|428:196|376:176,1,90,8|0,0:0|0:0,0:0:0:0:
228,44,57169,5,2,0:0:0:0:
228,44,57323,1,0,0:0:0:0:
125,245,57478,1,10,0:0:0:0:
114,250,57555,1,0,0:0:0:0:
104,255,57633,1,0,0:0:0:0:
94,260,57710,1,0,0:0:0:0:
83,265,57787,1,2,0:0:0:0:
56,240,57865,1,0,0:0:0:0:
44,208,57942,1,0,0:0:0:0:
52,172,58019,1,0,0:0:0:0:
72,144,58097,2,0,B|180:176,1,90,10|0,0:0|0:0,0:0:0:0:
314,124,58406,6,0,P|336:196|304:272,1,135,14|0,0:0|0:0,0:0:0:0:
308,268,58715,1,2,0:0:0:0:
120,336,58870,2,0,B|192:304|192:304|252:332,1,135,10|0,0:0|0:0,0:0:0:0:
264,340,59179,1,2,0:0:0:0:
77,271,59334,2,0,P|55:199|87:123,1,135,2|0,0:0|0:0,0:0:0:0:
83,127,59643,5,14,0:0:0:0:
230,50,59798,1,0,0:0:0:0:
224,200,59952,1,0,0:0:0:0:
371,123,60107,1,8,0:0:0:0:
148,156,60262,2,0,P|136:196|156:260,1,90,0|0,0:0|0:0,0:0:0:0:
248,344,60571,1,2,0:0:0:0:
264,340,60648,1,0,0:0:0:0:
280,336,60725,1,0,0:0:0:0:
296,332,60803,1,0,0:0:0:0:
312,328,60880,5,14,0:0:0:0:
264,132,61035,1,0,0:0:0:0:
172,288,61189,1,2,0:0:0:0:
380,272,61344,1,8,0:0:0:0:
464,108,61499,2,0,P|422:92|378:101,1,90,2|0,0:0|0:0,0:0:0:0:
260,260,61808,2,0,L|316:244,1,45,2|0,0:0|0:0,0:0:0:0:
420,332,61963,1,2,0:0:0:0:
436,328,62040,1,0,0:0:0:0:
452,324,62117,6,0,P|468:272|448:220,1,90,14|0,0:0|0:0,0:0:0:0:
352,112,62426,1,2,0:0:0:0:
188,196,62581,2,0,P|156:124|188:24,1,180,10|0,0:0|0:0,0:0:0:0:
188,44,62968,1,0,0:0:0:0:
192,56,63045,1,10,0:0:0:0:
116,312,63200,1,0,0:0:0:0:
120,324,63277,1,0,0:0:0:0:
124,336,63354,6,0,B|192:312|192:312|264:344,1,135,4|0,0:0|0:0,0:0:0:0:
264,352,63664,2,0,P|288:308|272:220,1,135,8|0,0:0|0:0,0:0:0:0:
260,216,63973,1,0,0:0:0:0:
116,312,64127,1,0,0:0:0:0:
68,172,64282,2,0,P|112:160|164:176,1,90,8|0,0:0|0:0,0:0:0:0:
204,280,64591,5,2,0:0:0:0:
32,284,64746,1,0,0:0:0:0:
20,112,64901,1,10,0:0:0:0:
192,108,65056,1,0,0:0:0:0:
112,240,65210,1,2,0:0:0:0:
104,68,65365,1,0,0:0:0:0:
272,144,65519,1,10,0:0:0:0:
284,148,65597,1,0,0:0:0:0:
296,152,65674,1,0,0:0:0:0:
308,156,65751,1,0,0:0:0:0:
320,160,65829,6,0,P|332:120|316:52,1,90,4|0,0:0|0:0,0:0:0:0:
120,216,66138,2,0,P|104:288|132:364,1,135,8|0,0:0|0:0,0:0:0:0:
132,356,66447,2,0,L|228:320,1,90,0|0,0:0|0:0,0:0:0:0:
364,240,66756,1,8,0:0:0:0:
196,216,66911,1,0,0:0:0:0:
320,336,67066,5,2,0:0:0:0:
292,163,67220,1,0,0:0:0:0:
460,188,67375,2,0,P|472:240|464:280,1,90,10|0,0:0|0:0,0:0:0:0:
200,116,67684,2,0,P|239:79|277:66,1,90,2|0,0:0|0:0,0:0:0:0:
320,336,67993,1,8,0:0:0:0:
316,344,68071,1,0,0:0:0:0:
312,352,68148,1,0,0:0:0:0:
308,360,68225,1,0,0:0:0:0:
304,368,68303,6,0,P|252:352|222:325,1,90,4|0,0:0|0:0,0:0:0:0:
172,216,68612,2,0,L|72:204,1,90,8|0,0:0|0:0,0:0:0:0:
72,212,68844,1,0,0:0:0:0:
60,220,68921,2,0,P|44:160|60:120,1,90,0|0,0:0|0:0,0:0:0:0:
284,78,69231,2,0,P|300:138|284:178,1,90,8|0,0:0|0:0,0:0:0:0:
148,292,69540,5,2,0:0:0:0:
212,128,69694,1,0,0:0:0:0:
348,244,69849,2,0,L|484:296,1,135,10|0,0:0|0:0,0:0:0:0:
492,300,70158,1,2,0:0:0:0:
332,336,70313,1,0,0:0:0:0:
493,212,70468,2,0,P|501:264|485:312,1,90,10|0,0:0|0:0,0:0:0:0:
260,284,70777,6,0,P|252:232|268:184,1,90,4|0,0:0|0:0,0:0:0:0:
404,84,71086,1,8,0:0:0:0:
348,244,71241,1,0,0:0:0:0:
212,128,71396,2,0,P|168:120|108:140,1,90
28,260,71705,1,8,0:0:0:0:
184,316,71859,6,0,B|228:324|264:284|264:284|288:328|336:336,1,180
420,288,72323,2,0,P|432:244|412:192,1,90,10|0,0:0|0:0,0:0:0:0:
112,272,72633,2,0,P|100:316|120:368,1,90,2|0,0:0|0:0,0:0:0:0:
292,168,72942,1,10,0:0:0:0:
300,156,73019,1,0,0:0:0:0:
308,144,73097,1,0,0:0:0:0:
316,132,73174,1,0,0:0:0:0:
324,120,73251,6,0,L|284:32,1,90,6|0,0:0|0:0,0:0:0:0:
112,76,73560,1,8,0:0:0:0:
176,244,73715,1,0,0:0:0:0:
356,216,73870,2,0,L|404:136,1,90,0|0,0:0|0:0,0:0:0:0:
224,108,74179,1,8,0:0:0:0:
280,280,74334,1,0,0:0:0:0:
452,332,74488,6,0,P|464:288|440:228,1,90,2|0,0:0|0:0,0:0:0:0:
176,244,74798,2,0,P|164:288|188:348,1,90,10|0,0:0|0:0,0:0:0:0:
364,312,75107,1,2,0:0:0:0:
402,138,75262,1,0,0:0:0:0:
224,108,75416,1,10,0:0:0:0:
212,112,75493,1,0,0:0:0:0:
200,116,75571,1,0,0:0:0:0:
188,120,75648,1,0,0:0:0:0:
176,124,75725,6,0,L|192:32,1,90,4|0,0:0|0:0,0:0:0:0:
296,228,76035,2,0,L|280:320,1,90,8|0,0:0|0:0,0:0:0:0:
176,244,76344,1,0,0:0:0:0:
304,136,76499,1,0,0:0:0:0:
364,312,76653,1,8,0:0:0:0:
484,220,76808,1,0,0:0:0:0:
440,32,76963,6,0,L|384:212,1,180,2|10,0:0|0:0,0:0:0:0:
386,203,77426,1,0,0:0:0:0:
450,336,77581,2,0,L|350:308,1,90,2|0,0:0|0:0,0:0:0:0:
236,324,77890,2,0,P|164:344|88:300,1,135,10|0,0:0|0:0,0:0:0:0:
100,304,78200,5,2,0:0:0:0:
76,160,78354,1,0,0:0:0:0:
224,192,78509,1,10,0:0:0:0:
136,224,78664,1,8,0:0:0:0:
232,104,78818,1,2,0:0:0:0:
296,256,78973,1,0,0:0:0:0:
152,136,79127,1,10,0:0:0:0:
304,152,79282,1,0,0:0:0:0:
136,224,79437,5,2,0:0:0:0:
168,40,79591,1,2,0:0:0:0:
168,40,79669,1,2,0:0:0:0:
168,40,79746,1,10,0:0:0:0:
320,64,79901,1,2,0:0:0:0:
224,192,80055,1,10,0:0:0:0:
320,324,80210,1,10,0:0:0:0:
474,276,80365,1,10,0:0:0:0:
474,114,80519,1,10,0:0:0:0:
320,64,80674,5,6,0:0:0:0:
224,192,81911,5,2,0:0:0:0:
320,324,83148,5,8,0:0:0:0:
474,276,84385,5,2,0:0:0:0:
474,114,84849,1,0,0:0:0:0:
320,64,85004,1,8,0:0:0:0:
476,88,85158,1,0,0:0:0:0:
312,88,85313,2,0,P|304:128|312:160,1,72,8|0,0:0|0:0,0:0:0:0:
384,248,85622,6,0,L|296:264,1,72,4|0,0:0|0:0,0:0:0:0:
224,336,85932,1,0,0:0:0:0:
148,252,86086,1,0,0:0:0:0:
40,288,86241,2,0,P|32:252|44:204,1,72,8|0,0:0|0:0,0:0:0:0:
120,136,86550,1,0,0:0:0:0:
120,136,86705,1,0,0:0:0:0:
232,160,86859,6,0,L|312:180,2,72,0|0|0,0:0|0:0|0:0,0:0:0:0:
204,48,87323,1,0,0:0:0:0:
32,96,87478,2,0,P|24:136|32:176,1,72,8|0,0:0|0:0,0:0:0:0:
144,322,87787,2,0,P|152:282|144:242,1,72,0|0,0:0|0:0,0:0:0:0:
120,136,88097,6,0,L|208:108,1,72,2|0,0:0|0:0,0:0:0:0:
304,128,88406,1,0,0:0:0:0:
304,128,88560,1,0,0:0:0:0:
408,83,88715,2,0,P|416:119|408:163,1,72,8|0,0:0|0:0,0:0:0:0:
336,232,89024,2,0,L|408:280,1,72,0|0,0:0|0:0,0:0:0:0:
264,376,89334,6,0,P|256:340|264:296,1,72,0|0,0:0|0:0,0:0:0:0:
416,172,89643,1,0,0:0:0:0:
352,328,89798,1,0,0:0:0:0:
240,196,89952,1,8,0:0:0:0:
308,36,90107,1,8,0:0:0:0:
336,232,90262,1,8,0:0:0:0:
160,232,90416,1,8,0:0:0:0:
148,228,90493,1,0,0:0:0:0:
136,224,90571,6,0,P|124:176|136:136,1,90,4|0,0:0|0:0,0:0:0:0:
316,132,90880,1,8,0:0:0:0:
256,308,91035,1,0,0:0:0:0:
440,364,91189,2,0,P|448:320|428:268,1,90,0|0,0:0|0:0,0:0:0:0:
77,277,91499,2,0,P|63:320|72:364,1,90,8|0,0:0|0:0,0:0:0:0:
256,308,91808,5,2,0:0:0:0:
316,132,91963,1,0,0:0:0:0:
136,168,92117,1,10,0:0:0:0:
256,308,92272,1,0,0:0:0:0:
400,168,92426,2,0,P|408:136|392:76,1,90,2|0,0:0|0:0,0:0:0:0:
131,81,92736,2,0,P|123:113|139:173,1,90,10|0,0:0|0:0,0:0:0:0:
252,192,93045,5,4,0:0:0:0:
131,81,93200,1,0,0:0:0:0:
36,220,93354,2,0,P|28:268|44:320,1,90,8|0,0:0|0:0,0:0:0:0:
204,324,93664,2,0,L|316:292,1,90,0|0,0:0|0:0,0:0:0:0:
476,220,93973,2,0,P|484:268|468:320,1,90,8|0,0:0|0:0,0:0:0:0:
464,316,94205,1,0,0:0:0:0:
456,324,94282,5,2,0:0:0:0:
344,176,94437,1,0,0:0:0:0:
512,144,94591,1,10,0:0:0:0:
400,16,94746,1,0,0:0:0:0:
260,124,94901,2,0,P|248:167|256:210,1,90,2|0,0:0|0:0,0:0:0:0:
420,164,95210,1,10,0:0:0:0:
292,36,95365,1,0,0:0:0:0:
280,32,95442,1,0,0:0:0:0:
268,28,95519,6,0,P|224:32|176:64,1,90,4|0,0:0|0:0,0:0:0:0:
48,172,95829,2,0,L|72:280,1,90,8|0,0:0|0:0,0:0:0:0:
240,240,96138,1,0,0:0:0:0:
136,128,96292,1,0,0:0:0:0:
24,340,96447,2,0,P|72:352|120:336,1,90,8|0,0:0|0:0,0:0:0:0:
304,172,96756,5,2,0:0:0:0:
144,216,96911,1,0,0:0:0:0:
304,172,97066,1,10,0:0:0:0:
360,328,97221,1,0,0:0:0:0:
236,128,97375,2,0,P|224:168|244:228,1,90,2|0,0:0|0:0,0:0:0:0:
480,336,97684,2,0,P|492:296|472:236,1,90,10|0,0:0|0:0,0:0:0:0:
376,108,97993,5,0,0:0:0:0:
376,108,98148,1,0,0:0:0:0:
292,256,98303,2,0,P|340:252|388:204,1,90,8|0,0:0|0:0,0:0:0:0:
252,48,98612,2,0,P|204:52|156:100,1,90,0|0,0:0|0:0,0:0:0:0:
148,208,98921,1,8,0:0:0:0:
148,208,99076,1,0,0:0:0:0:
292,256,99231,5,2,0:0:0:0:
236,128,99385,1,0,0:0:0:0:
212,344,99540,1,10,0:0:0:0:
412,260,99694,1,0,0:0:0:0:
444,48,99849,2,0,P|400:36|352:48,1,90,2|0,0:0|0:0,0:0:0:0:
348,56,100081,1,0,0:0:0:0:
340,64,100158,2,0,L|288:56,1,45,10|0,0:0|0:0,0:0:0:0:
236,128,100313,2,0,L|185:121,1,45,0|0,0:0|0:0,0:0:0:0:
67,196,100468,6,2,B|129:209|129:209|172:192|172:192|228:200,1,161.999995056153,14|0,0:0|0:1,0:0:0:0:
224,200,101086,6,0,P|243:235|245:264,1,53.9999983520508,10|0,0:0|0:0,0:0:0:0:
133,368,101318,6,0,P|153:331|177:315,1,53.9999983520508,10|0,0:0|0:0,0:0:0:0:
316,348,101550,1,10,0:0:0:0:
320,360,101627,1,0,0:0:0:0:
324,372,101705,6,0,P|273:369|243:345,1,72,4|0,0:0|0:0,0:0:0:0:
312,204,102014,1,8,0:0:0:0:
448,296,102169,2,0,P|424:328|376:348,1,72,0|0,0:0|0:0,0:0:0:0:
284,280,102478,1,0,0:0:0:0:
280,132,102633,2,0,P|308:124|352:136,1,72,8|0,0:0|0:0,0:0:0:0:
476,208,102942,6,0,B|460:152|460:152|472:72,1,108,0|0,0:0|0:0,0:0:0:0:
476,88,103251,2,0,L|364:40,1,108,8|0,0:0|0:0,0:0:0:0:
356,40,103560,1,0,0:0:0:0:
312,128,103715,1,0,0:0:0:0:
200,128,103870,2,0,L|88:80,1,108,8|0,0:0|0:0,0:0:0:0:
80,76,104179,5,0,0:0:0:0:
8,196,104334,1,0,0:0:0:0:
128,260,104488,1,8,0:0:0:0:
24,356,104643,2,0,P|20:320|32:276,1,72,0|0,0:0|0:0,0:0:0:0:
104,168,104952,1,0,0:0:0:0:
232,220,105107,2,0,L|324:260,1,72,8|0,0:0|0:0,0:0:0:0:
416,336,105416,5,0,0:0:0:0:
280,336,105571,1,0,0:0:0:0:
312,168,105725,2,0,L|400:204,1,72,8|0,0:0|0:0,0:0:0:0:
416,336,106035,1,0,0:0:0:0:
232,220,106189,1,0,0:0:0:0:
388,108,106344,2,0,L|476:144,1,72,8|0,0:0|0:0,0:0:0:0:
464,148,106576,1,0,0:0:0:0:
472,160,106653,6,0,P|484:208|472:252,1,72,4|0,0:0|0:0,0:0:0:0:
344,268,106963,1,8,0:0:0:0:
232,220,107117,1,0,0:0:0:0:
100,292,107272,2,0,P|92:328|100:364,1,72,0|0,0:0|0:0,0:0:0:0:
280,368,107581,2,0,P|288:332|280:296,1,72,8|0,0:0|0:0,0:0:0:0:
200,132,107890,5,0,0:0:0:0:
200,132,108045,1,0,0:0:0:0:
72,180,108200,2,0,P|64:132|76:88,1,72,8|0,0:0|0:0,0:0:0:0:
172,8,108509,1,0,0:0:0:0:
200,132,108664,1,0,0:0:0:0:
324,64,108818,2,0,B|436:52,1,108,8|0,0:0|0:0,0:0:0:0:
448,60,109127,6,0,P|456:102|440:156,1,72,0|0,0:0|0:0,0:0:0:0:
336,216,109437,1,8,0:0:0:0:
472,264,109591,1,0,0:0:0:0:
368,364,109746,2,0,P|328:368|288:356,1,72,0|0,0:0|0:0,0:0:0:0:
144,284,110055,2,0,P|109:276|73:280,1,72,8|0,0:0|0:0,0:0:0:0:
208,352,110365,5,0,0:0:0:0:
208,208,110519,1,0,0:0:0:0:
64,208,110674,1,8,0:0:0:0:
56,352,110829,1,0,0:0:0:0:
256,280,110983,1,0,0:0:0:0:
136,104,111138,1,8,0:0:0:0:
140,96,111215,1,0,0:0:0:0:
144,88,111292,1,8,0:0:0:0:
328,40,111447,1,8,0:0:0:0:
324,48,111524,1,8,0:0:0:0:
320,56,111602,6,0,L|408:80,1,72,4|0,0:0|0:0,0:0:0:0:
448,208,111911,1,8,0:0:0:0:
344,308,112066,2,0,P|340:264|352:216,1,72,0|0,0:0|0:0,0:0:0:0:
452,336,112375,1,0,0:0:0:0:
256,280,112530,2,0,L|168:320,1,72,8|0,0:0|0:0,0:0:0:0:
48,340,112839,6,0,P|44:300|56:260,1,72,0|0,0:0|0:0,0:0:0:0:
172,220,113148,1,8,0:0:0:0:
60,152,113303,1,0,0:0:0:0:
184,28,113457,2,0,P|192:68|184:112,1,72,0|0,0:0|0:0,0:0:0:0:
172,220,113767,2,0,B|284:184,1,108,8|0,0:0|0:0,0:0:0:0:
296,180,114076,5,0,0:0:0:0:
344,308,114231,1,0,0:0:0:0:
484,344,114385,2,0,P|488:308|480:260,1,72,8|0,0:0|0:0,0:0:0:0:
436,136,114694,1,0,0:0:0:0:
360,232,114849,1,0,0:0:0:0:
260,108,115004,2,0,P|292:100|336:112,1,72,8|0,0:0|0:0,0:0:0:0:
344,308,115313,6,0,P|312:316|268:304,1,72,0|0,0:0|0:0,0:0:0:0:
184,224,115622,2,0,L|100:256,1,72,8|0,0:0|0:0,0:0:0:0:
44,348,115932,1,0,0:0:0:0:
204,300,116086,1,0,0:0:0:0:
88,168,116241,1,8,0:0:0:0:
260,108,116396,1,0,0:0:0:0:
268,116,116473,1,0,0:0:0:0:
276,124,116550,6,0,P|284:160|276:200,1,72,4|0,0:0|0:0,0:0:0:0:
124,344,116859,2,0,P|116:308|124:268,1,72,8|0,0:0|0:0,0:0:0:0:
200,152,117169,1,0,0:0:0:0:
292,272,117323,1,0,0:0:0:0:
372,152,117478,2,0,P|428:136|488:152,1,108,8|0,0:0|0:0,0:0:0:0:
492,160,117787,5,0,0:0:0:0:
368,236,117942,1,0,0:0:0:0:
276,124,118097,1,8,0:0:0:0:
400,48,118251,1,0,0:0:0:0:
464,252,118406,2,0,P|472:296|452:344,1,72,0|0,0:0|0:0,0:0:0:0:
208,312,118715,2,0,P|200:268|220:220,1,72,8|0,0:0|0:0,0:0:0:0:
392,320,119024,6,0,L|288:352,1,108,8|0,0:0|0:0,0:0:0:0:
272,360,119334,1,8,0:0:0:0:
116,336,119488,1,0,0:0:0:0:
136,176,119643,1,0,0:0:0:0:
296,196,119797,1,0,0:0:0:0:
72,248,119952,2,0,P|40:168|104:84,1,180,12|0,0:0|0:0,0:0:0:0:
104,84,120416,5,0,0:0:0:0:
248,276,120571,1,8,0:0:0:0:
248,276,120648,1,0,0:0:0:0:
248,276,120725,1,0,0:0:0:0:
383,164,120880,1,10,0:0:0:0:
216,176,121034,1,10,0:0:0:0:
353,268,121189,1,10,0:0:0:0:
291,102,121344,1,10,0:0:0:0:
248,276,121499,6,0,L|236:348,2,53.9999983520508,6|0|0,0:0|0:0|0:0,0:0:0:0:
248,276,121962,1,0,0:0:0:0:
128,279,122117,2,0,L|136:332,1,53.9999983520508
68,200,122426,2,0,P|64:168|72:132,2,53.9999983520508,2|0|0,0:0|0:0|0:0,0:0:0:0:
68,200,122890,1,0,0:0:0:0:
180,200,123045,2,0,P|184:168|176:132,1,53.9999983520508,0|0,0:0|0:0,0:0:0:0:
124,48,123354,6,0,L|60:32,2,53.9999983520508,2|0|0,0:0|0:0|0:0,0:0:0:0:
124,48,123818,1,0,0:0:0:0:
232,48,123973,2,0,L|296:32,1,53.9999983520508,0|0,0:0|0:0,0:0:0:0:
392,48,124282,2,0,P|396:80|392:108,2,53.9999983520508,2|0|0,0:0|0:0|0:0,0:0:0:0:
392,48,124746,1,0,0:0:0:0:
301,122,124901,2,0,P|297:149|300:176,1,53.9999983520508,0|0,0:0|0:0,0:0:0:0:
392,232,125210,5,2,0:0:0:0:
392,232,125364,1,0,0:0:0:0:
416,336,125519,2,0,P|388:340|356:332,1,53.9999983520508,0|0,0:0|0:0,0:0:0:0:
276,272,125828,2,0,P|249:267|223:272,1,53.9999983520508,0|0,0:0|0:0,0:0:0:0:
136,340,126138,1,2,0:0:0:0:
136,340,126292,1,0,0:0:0:0:
40,288,126447,2,0,P|36:260|48:220,1,53.9999983520508,0|0,0:0|0:0,0:0:0:0:
148,228,126756,2,0,P|152:201|148:174,1,53.9999983520508,0|0,0:0|0:0,0:0:0:0:
48,120,127066,5,2,0:0:0:0:
48,120,127220,1,0,0:0:0:0:
140,64,127375,2,0,L|196:52,1,53.9999983520508,0|0,0:0|0:0,0:0:0:0:
264,132,127684,2,0,L|320:120,1,53.9999983520508,0|0,0:0|0:0,0:0:0:0:
420,96,127993,1,2,0:0:0:0:
444,200,128148,1,2,0:0:0:0:
444,200,128225,1,2,0:0:0:0:
444,200,128303,1,2,0:0:0:0:
340,220,128457,1,2,0:0:0:0:
356,328,128612,2,0,L|303:339,1,53.9999983520508,2|0,0:0|0:0,0:0:0:0:
196,316,128921,6,0,L|168:188,1,107.999996704102,4|0,0:0|0:0,0:0:0:0:
140,56,129540,1,0,0:0:0:0:
140,56,129849,2,0,P|200:84|308:64,1,161.999995056153,0|2,0:0|0:0,0:0:0:0:
432,48,130468,2,0,L|460:116,1,53.9999983520508,2|0,0:0|0:0,0:0:0:0:
476,208,130777,6,0,B|444:216|396:196|396:196|416:236|468:244,1,161.999995056153,2|0,0:0|0:0,0:0:0:0:
400,336,131395,2,0,L|352:296,1,53.9999983520508,0|2,0:0|0:0,0:0:0:0:
264,332,131705,2,0,P|184:304|112:348,1,161.999995056153,2|2,0:0|0:0,0:0:0:0:
24,272,132323,2,0,L|80:248,1,53.9999983520508,2|0,0:0|0:0,0:0:0:0:
164,208,132633,6,0,P|220:192|160:192,1,161.999995056153,6|0,0:0|0:0,0:0:0:0:
132,72,133251,2,0,P|162:61|192:60,1,53.9999983520508,0|0,0:0|0:0,0:0:0:0:
276,120,133560,2,0,L|444:52,1,161.999995056153,2|2,0:0|0:0,0:0:0:0:
364,176,134179,2,0,P|360:204|376:256,1,53.9999983520508,2|0,0:0|0:0,0:0:0:0:
448,332,134488,6,0,B|464:320|472:296|452:280|452:280|440:304|420:328|384:336|352:332,1,161.999995056153,2|2,0:0|0:0,0:0:0:0:
252,344,135107,2,0,L|180:332,2,53.9999983520508,2|2|2,0:0|0:0|0:0,0:0:0:0:
300,248,135571,1,2,0:0:0:0:
196,224,135725,2,0,L|124:212,1,53.9999983520508,2|0,0:0|0:0,0:0:0:0:
109,320,136035,2,0,L|56:312,1,53.9999983520508,2|0,0:0|0:0,0:0:0:0:
48,204,136344,6,0,L|36:60,1,107.999996704102,6|0,0:0|0:0,0:0:0:0:
256,40,136962,2,0,L|248:128,1,53.9999983520508,2|0,0:0|0:0,0:0:0:0:
176,176,137272,2,0,P|236:208|324:172,1,161.999995056153,2|2,0:0|0:0,0:0:0:0:
264,244,137890,2,0,L|256:332,1,53.9999983520508,2|0,0:0|0:0,0:0:0:0:
436,336,138200,6,0,B|396:296|408:240|408:240|456:192,1,161.999995056153,2|2,0:0|0:0,0:0:0:0:
476,32,138818,2,0,P|484:68|464:124,1,53.9999983520508,0|2,0:0|0:0,0:0:0:0:
316,128,139127,2,0,B|288:80|328:40|328:40|392:68,1,161.999995056153,2|2,0:0|0:0,0:0:0:0:
188,52,139746,2,0,L|108:76,1,53.9999983520508,2|0,0:0|0:0,0:0:0:0:
32,176,140055,6,0,P|100:152|204:204,1,161.999995056153,6|2,0:0|0:0,0:0:0:0:
140,328,140674,2,0,P|136:300|144:264,1,53.9999983520508,2|0,0:0|0:0,0:0:0:0:
280,208,140983,2,0,P|308:288|280:368,1,161.999995056153,2|2,0:0|0:0,0:0:0:0:
428,308,141602,2,0,L|492:288,1,53.9999983520508,2|0,0:0|0:0,0:0:0:0:
432,168,141911,6,0,P|420:116|432:60,2,107.999996704102,2|0|0,0:0|0:0|0:0,0:0:0:0:
312,68,142839,2,0,L|252:52,1,53.9999983520508,2|0,0:0|0:0,0:0:0:0:
136,88,143148,1,0,0:0:0:0:
232,160,143303,1,8,0:0:0:0:
120,204,143457,1,0,0:0:0:0:
216,276,143612,1,0,0:0:0:0:
216,276,143689,1,0,0:0:0:0:
216,276,143767,6,0,L|292:256,1,72,4|0,0:0|0:0,0:0:0:0:
428,320,144076,2,0,L|352:340,1,72,0|0,0:0|0:0,0:0:0:0:
232,160,144385,2,0,P|224:120|232:88,1,72,0|0,0:0|0:0,0:0:0:0:
344,40,144694,2,0,L|464:148,1,144,8|0,0:0|0:0,0:0:0:0:
451,136,145158,1,0,0:0:0:0:
364,252,145313,1,0,0:0:0:0:
296,124,145468,1,0,0:0:0:0:
188,216,145622,6,0,L|112:240,1,72,0|0,0:0|0:0,0:0:0:0:
36,120,145931,2,0,P|32:80|44:40,1,72,0|0,0:0|0:0,0:0:0:0:
191,145,146241,2,0,P|195:185|183:225,1,72,0|0,0:0|0:0,0:0:0:0:
64,352,146550,2,0,L|228:300,1,144,8|0,0:0|0:0,0:0:0:0:
300,204,147014,1,0,0:0:0:0:
428,272,147169,1,0,0:0:0:0:
437,280,147246,1,0,0:0:0:0:
446,289,147323,1,0,0:0:0:0:
455,298,147401,1,0,0:0:0:0:
464,306,147478,6,0,P|484:244|456:152,1,144,2|0,0:0|0:0,0:0:0:0:
376,64,147942,1,0,0:0:0:0:
300,204,148096,2,0,P|292:252|300:284,1,72,0|0,0:0|0:0,0:0:0:0:
467,168,148406,2,0,L|375:132,1,72,8|0,0:0|0:0,0:0:0:0:
268,108,148715,1,0,0:0:0:0:
156,180,148870,1,0,0:0:0:0:
52,100,149024,2,0,P|48:60|56:28,1,72,0|0,0:0|0:0,0:0:0:0:
192,36,149334,6,0,P|196:76|188:108,1,72,0|0,0:0|0:0,0:0:0:0:
76,180,149643,1,0,0:0:0:0:
200,256,149797,1,0,0:0:0:0:
80,356,149952,2,0,P|76:316|84:284,1,72,0|0,0:0|0:0,0:0:0:0:
240,180,150261,1,10,0:0:0:0:
240,336,150416,1,0,0:0:0:0:
112,260,150571,1,2,0:0:0:0:
288,260,150725,1,0,0:0:0:0:
156,180,150880,1,2,0:0:0:0:
152,340,151035,1,8,0:3:0:0:
392,316,151189,6,0,P|404:252|380:192,1,108,0|0,0:0|0:0,0:0:0:0:
384,192,151499,2,0,L|400:112,1,72,0|0,0:0|0:0,0:0:0:0:
323,61,151808,1,0,0:0:0:0:
323,61,151962,1,0,0:0:0:0:
323,61,152117,2,0,P|279:81|211:57,1,108,8|0,0:0|0:0,0:0:0:0:
204,56,152426,1,0,0:0:0:0:
96,116,152581,1,0,0:0:0:0:
204,196,152736,2,0,P|212:240|192:296,1,72,0|0,0:0|0:0,0:0:0:0:
104,336,153045,5,0,0:0:0:0:
0,268,153200,1,0,0:0:0:0:
100,200,153354,1,0,0:0:0:0:
207,266,153509,1,0,0:0:0:0:
320,332,153663,2,0,P|328:292|316:252,1,72,8|0,0:0|0:0,0:0:0:0:
207,266,153973,2,0,P|199:306|211:346,1,72,8|0,0:0|0:0,0:0:0:0:
432,304,154282,5,0,0:0:0:0:
424,276,154359,1,0,0:0:0:0:
424,248,154437,1,8,0:0:0:0:
432,220,154514,1,0,0:0:0:0:
444,192,154591,1,8,0:3:0:0:
452,164,154669,1,8,0:3:0:0:
452,136,154746,1,4,0:3:0:0:
440,108,154823,1,4,0:3:0:0:
424,76,154901,6,0,L|480:96,5,45,12|0|0|0|2|0,0:0|0:0|0:0|0:0|0:0|0:0,0:0:0:0:
304,80,155364,1,12,0:0:0:0:
264,100,155442,1,0,0:0:0:0:
220,112,155519,1,2,0:0:0:0:
176,116,155596,1,0,0:0:0:0:
132,112,155674,1,0,0:0:0:0:
88,100,155751,1,0,0:0:0:0:
48,80,155828,2,0,P|48:112|56:136,1,45,6|0,0:3|0:0,0:0:0:0:
0,216,155983,2,0,P|21:239|44:251,1,45,6|0,0:3|0:0,0:0:0:0:
104,336,156138,5,14,0:0:0:0:
144,320,156215,1,0,0:0:0:0:
188,308,156292,1,0,0:0:0:0:
232,308,156370,1,0,0:0:0:0:
276,316,156447,1,2,0:0:0:0:
320,328,156524,1,0,0:0:0:0:
360,352,156602,2,0,L|348:300,1,45,14|0,0:0|0:0,0:0:0:0:
356,168,156756,2,0,L|348:212,1,45,4|0,0:3|0:0,0:0:0:0:
436,364,156911,1,2,0:0:0:0:
436,364,156988,1,0,0:0:0:0:
436,364,157065,2,0,L|424:316,1,45,6|0,0:3|0:0,0:0:0:0:
432,152,157220,2,0,L|424:200,1,45,6|0,0:3|0:0,0:0:0:0:
512,344,157375,5,14,0:0:0:0:
432,152,157529,1,8,0:0:0:0:
240,192,157684,1,10,0:0:0:0:
408,244,157839,1,12,0:0:0:0:
316,64,157993,1,10,0:3:0:0:
312,272,158148,1,8,0:3:0:0:
496,216,158303,1,10,0:0:0:0:
240,104,158457,1,0,0:0:0:0:
228,100,158535,1,0,0:0:0:0:
216,96,158612,5,14,0:0:0:0:
416,52,158766,1,0,0:0:0:0:
408,244,158921,1,2,0:0:0:0:
240,192,159076,1,12,0:0:0:0:
228,188,159154,1,0,0:0:0:0:
216,184,159230,2,0,L|120:216,1,90,6|0,0:0|0:0,0:0:0:0:
52,352,159540,1,2,0:0:0:0:
88,316,159617,1,0,0:0:0:0:
136,308,159694,1,0,0:0:0:0:
184,316,159772,1,0,0:0:0:0:
220,348,159849,6,0,L|368:336,1,135,12|0,0:0|0:0,0:0:0:0:
376,336,160158,1,0,0:0:0:0:
364,144,160313,2,0,P|316:188|304:260,1,135,12|0,0:0|0:0,0:0:0:0:
312,272,160622,1,0,0:0:0:0:
472,296,160777,1,8,0:3:0:0:
476,248,160854,1,0,0:0:0:0:
480,200,160931,1,0,0:3:0:0:
484,152,161009,1,0,0:3:0:0:
488,104,161086,6,0,L|400:57,1,90,12|0,0:0|0:0,0:0:0:0:
308,192,161395,1,4,0:3:0:0:
408,61,161550,2,0,L|320:13,1,90,12|8,0:0|0:3,0:0:0:0:
144,32,161859,1,8,0:3:0:0:
96,48,161937,1,0,0:0:0:0:
64,84,162014,1,8,0:3:0:0:
52,132,162091,1,0,0:0:0:0:
68,180,162169,1,4,0:3:0:0:
108,208,162246,1,0,0:0:0:0:
156,216,162323,6,0,L|244:104,1,135,12|0,0:0|0:0,0:0:0:0:
252,96,162632,1,0,0:0:0:0:
372,252,162787,2,0,P|324:280|232:240,1,135,12|0,0:0|0:0,0:0:0:0:
236,244,163096,1,0,0:0:0:0:
384,116,163251,1,8,0:3:0:0:
408,156,163328,1,0,0:0:0:0:
436,196,163406,1,8,0:3:0:0:
464,236,163483,1,0,0:0:0:0:
492,276,163560,6,0,L|444:356,1,90,12|4,0:0|0:3,0:0:0:0:
308,192,163870,1,4,0:3:0:0:
440,32,164024,2,0,L|488:112,1,90,12|8,0:0|0:3,0:0:0:0:
308,192,164333,1,8,0:3:0:0:
268,164,164411,1,0,0:0:0:0:
220,164,164488,1,8,0:3:0:0:
176,184,164565,1,0,0:0:0:0:
156,228,164643,1,8,0:3:0:0:
160,276,164720,1,0,0:0:0:0:
188,316,164797,6,0,L|320:340,1,135,12|0,0:0|0:0,0:0:0:0:
316,324,165107,1,4,0:3:0:0:
176,184,165261,2,0,L|44:160,1,135,12|0,0:0|0:0,0:0:0:0:
48,176,165571,1,0,0:3:0:0:
236,244,165725,2,0,P|252:220|256:196,1,45,8|0,0:3|0:0,0:0:0:0:
144,40,165880,2,0,P|128:64|124:88,1,45,8|0,0:3|0:0,0:0:0:0:
160,276,166035,5,12,0:0:0:0:
204,100,166189,1,4,0:3:0:0:
28,152,166344,1,4,0:3:0:0:
160,276,166498,1,12,0:0:0:0:
328,216,166653,1,8,0:3:0:0:
364,248,166730,1,0,0:0:0:0:
388,292,166808,1,8,0:3:0:0:
396,340,166885,1,0,0:0:0:0:
372,384,166962,1,8,0:3:0:0:
364,336,167040,1,0,0:0:0:0:
388,292,167117,1,8,0:3:0:0:
424,260,167194,1,0,0:0:0:0:
472,244,167272,6,0,P|496:180|460:108,1,135,12|0,0:0|0:0,0:0:0:0:
456,108,167581,1,4,0:3:0:0:
288,132,167736,2,0,L|136:92,1,135,12|0,0:0|0:0,0:0:0:0:
140,92,168045,1,4,0:3:0:0:
363,76,168199,1,8,0:0:0:0:
376,124,168277,1,0,0:0:0:0:
392,172,168354,1,8,0:3:0:0:
408,220,168431,1,0,0:0:0:0:
424,268,168509,5,12,0:0:0:0:
240,244,168663,1,0,0:0:0:0:
492,212,168818,1,4,0:3:0:0:
316,332,168973,1,12,0:0:0:0:
272,352,169050,1,0,0:0:0:0:
224,356,169127,1,0,0:0:0:0:
176,348,169205,1,0,0:0:0:0:
139,322,169282,1,8,0:3:0:0:
126,326,169359,1,0,0:0:0:0:
113,330,169437,1,8,0:0:0:0:
100,334,169514,1,8,0:0:0:0:
87,338,169591,1,8,0:0:0:0:
74,342,169669,1,8,0:0:0:0:
61,346,169746,6,0,P|28:284|69:206,1,135,2|0,0:0|0:0,0:0:0:0:
60,212,170055,1,4,0:3:0:0:
112,80,170210,2,0,B|180:96|180:96|260:64,1,135,8|0,0:0|0:0,0:0:0:0:
260,68,170519,2,0,L|356:80,1,90,4|8,0:3|0:0,0:0:0:0:
424,192,170828,1,8,0:3:0:0:
424,192,170906,1,8,0:3:0:0:
424,192,170983,6,0,P|432:124|464:96,1,90,10|0,0:0|0:0,0:0:0:0:
492,304,171292,1,8,0:3:0:0:
348,304,171447,1,8,0:0:0:0:
300,292,171524,1,0,0:0:0:0:
252,296,171602,1,10,0:3:0:0:
208,320,171679,1,0,0:0:0:0:
160,336,171756,1,4,0:3:0:0:
112,332,171833,1,0,0:0:0:0:
76,300,171911,2,0,L|68:248,1,45,8|0,0:0|0:0,0:0:0:0:
228,168,172065,2,0,L|236:220,1,45,0|0,0:0|0:0,0:0:0:0:
144,268,172220,5,10,0:0:0:0:
216,84,172375,1,0,0:0:0:0:
344,228,172529,1,2,0:0:0:0:
128,160,172684,1,8,0:0:0:0:
320,128,172839,1,2,0:0:0:0:
252,296,172993,1,4,0:3:0:0:
448,256,173148,1,10,0:0:0:0:
436,208,173225,1,0,0:0:0:0:
424,160,173303,1,8,0:3:0:0:
412,112,173380,1,8,0:3:0:0:
400,64,173457,5,10,0:0:0:0:
234,212,173612,1,4,0:3:0:0:
448,256,173766,1,6,0:3:0:0:
400,64,173921,1,8,0:0:0:0:
400,64,173998,1,0,0:0:0:0:
400,64,174076,2,0,L|324:44,1,45,10|0,0:3|0:0,0:0:0:0:
172,72,174230,2,0,L|248:92,1,45,6|0,0:3|0:0,0:0:0:0:
234,212,174385,1,10,0:0:0:0:
258,256,174462,1,0,0:0:0:0:
262,304,174540,1,0,0:0:0:0:
242,348,174617,1,0,0:0:0:0:
202,376,174694,6,0,L|92:292,1,135,12|0,0:0|0:0,0:0:0:0:
68,272,175004,1,4,0:3:0:0:
232,136,175158,1,8,0:0:0:0:
312,340,175313,1,0,0:0:0:0:
452,204,175468,1,4,0:3:0:0:
336,164,175622,2,0,P|332:216|348:264,1,90,8|8,0:0|0:3,0:0:0:0:
356,256,175854,1,8,0:3:0:0:
368,260,175931,5,12,0:0:0:0:
432,84,176086,1,4,0:3:0:0:
212,220,176241,1,4,0:3:0:0:
436,336,176395,1,8,0:0:0:0:
432,84,176550,1,8,0:0:0:0:
396,56,176627,1,0,0:0:0:0:
352,44,176705,1,4,0:3:0:0:
308,44,176782,1,0,0:0:0:0:
264,56,176859,2,0,L|200:44,1,45,0|0,0:0|0:0,0:0:0:0:
48,112,177014,2,0,L|92:120,1,45,0|0,0:0|0:0,0:0:0:0:
192,220,177169,5,12,0:0:0:0:
280,364,177323,1,0,0:0:0:0:
280,160,177478,1,6,0:3:0:0:
192,312,177632,1,6,0:3:0:0:
368,308,177787,1,8,0:0:0:0:
192,220,177942,1,8,0:3:0:0:
364,216,178096,1,10,0:0:0:0:
280,68,178251,1,0,0:0:0:0:
280,68,178328,1,0,0:0:0:0:
280,68,178406,5,12,0:0:0:0:
456,160,178560,1,4,0:3:0:0:
368,16,178715,1,6,0:3:0:0:
280,160,178870,1,8,0:0:0:0:
368,308,179024,1,6,0:3:0:0:
508,244,179179,1,8,0:0:0:0:
364,216,179333,1,10,0:3:0:0:
256,336,179488,1,8,0:3:0:0:
244,340,179565,1,8,0:3:0:0:
232,344,179643,6,0,L|144:328,1,90,4|0,0:0|0:0,0:0:0:0:
40,200,179952,2,0,L|180:228,1,135,8|0,0:0|0:0,0:0:0:0:
188,232,180261,2,0,P|200:184|180:132,1,90,0|0,0:0|0:0,0:0:0:0:
112,52,180571,1,8,0:0:0:0:
112,52,180725,1,0,0:0:0:0:
40,200,180880,6,0,P|28:248|48:300,1,90,0|0,0:0|0:0,0:0:0:0:
184,336,181189,2,0,B|228:324|228:324|280:340,1,90,8|0,0:0|0:0,0:0:0:0:
460,328,181498,2,0,B|416:340|416:340|364:324,1,90,0|0,0:0|0:0,0:0:0:0:
272,236,181808,2,0,P|264:188|284:140,1,90,8|0,0:0|0:0,0:0:0:0:
404,64,182117,5,0,0:0:0:0:
404,64,182272,1,0,0:0:0:0:
440,212,182426,2,0,L|344:196,1,90,8|0,0:0|0:0,0:0:0:0:
248,84,182736,1,0,0:0:0:0:
132,180,182890,1,0,0:0:0:0:
272,236,183045,2,0,P|280:284|268:340,1,90,8|0,0:0|0:0,0:0:0:0:
28,224,183354,6,0,P|20:176|32:120,1,90,0|0,0:0|0:0,0:0:0:0:
140,48,183663,1,8,0:0:0:0:
224,164,183818,1,0,0:0:0:0:
364,124,183973,2,0,P|408:116|464:140,1,90,0|0,0:0|0:0,0:0:0:0:
420,280,184282,2,0,B|400:228|400:228|404:160,1,90,8|0,0:0|0:0,0:0:0:0:
420,40,184591,5,4,0:0:0:0:
476,212,184746,1,0,0:0:0:0:
300,168,184901,2,0,P|288:120|308:72,1,90,8|0,0:0|0:0,0:0:0:0:
472,132,185210,1,0,0:0:0:0:
332,240,185364,1,0,0:0:0:0:
492,324,185519,2,0,P|500:276|488:232,1,90,8|0,0:0|0:0,0:0:0:0:
364,124,185828,5,0,0:0:0:0:
264,288,185983,1,0,0:0:0:0:
400,196,186138,1,8,0:0:0:0:
240,212,186292,1,0,0:0:0:0:
336,326,186447,2,0,P|344:278|328:234,1,90,0|0,0:0|0:0,0:0:0:0:
280,68,186756,2,0,L|184:80,1,90,8|0,0:0|0:0,0:0:0:0:
52,152,187065,6,0,P|44:200|60:244,1,90,0|0,0:0|0:0,0:0:0:0:
128,336,187375,1,10,0:0:0:0:
264,268,187529,1,0,0:0:0:0:
128,192,187684,1,2,0:0:0:0:
140,348,187839,1,0,0:0:0:0:
140,204,187993,1,10,0:0:0:0:
280,276,188148,1,0,0:0:0:0:
152,360,188303,5,0,0:0:0:0:
240,168,188457,1,0,0:0:0:0:
364,324,188612,1,10,0:0:0:0:
172,276,188766,1,0,0:0:0:0:
356,204,188921,1,10,0:0:0:0:
256,368,189076,1,0,0:0:0:0:
256,368,189153,1,0,0:0:0:0:
256,368,189230,1,10,0:0:0:0:
72,260,189385,1,0,0:0:0:0:
192,92,189540,6,0,P|228:80|316:124,1,135,4|0,0:0|0:0,0:0:0:0:
324,132,189849,2,0,L|412:108,1,90,8|0,0:0|0:0,0:0:0:0:
128,44,190158,2,0,P|116:96|136:148,1,90,0|0,0:0|0:0,0:0:0:0:
248,172,190468,1,8,0:0:0:0:
284,48,190622,1,0,0:0:0:0:
416,96,190777,6,0,P|425:139|413:182,1,90,0|0,0:0|0:0,0:0:0:0:
272,272,191086,2,0,L|372:348,1,90,8|0,0:0|0:0,0:0:0:0:
472,316,191395,1,0,0:0:0:0:
340,228,191550,1,0,0:0:0:0:
196,320,191705,2,0,P|184:268|200:224,1,90,8|0,0:0|0:0,0:0:0:0:
413,182,192014,6,0,P|425:234|409:278,1,90,0|0,0:0|0:0,0:0:0:0:
333,133,192323,2,0,L|447:80,1,90,8|0,0:0|0:0,0:0:0:0:
340,228,192632,1,0,0:0:0:0:
249,102,192787,1,0,0:0:0:0:
156,248,192942,2,0,P|208:236|252:260,1,90,8|0,0:0|0:0,0:0:0:0:
496,324,193251,6,0,P|444:336|400:312,1,90,0|0,0:0|0:0,0:0:0:0:
340,228,193560,2,0,B|332:128,1,90,8|0,0:0|0:0,0:0:0:0:
416,48,193870,2,0,L|309:57,1,90,0|0,0:0|0:0,0:0:0:0:
72,128,194179,2,0,L|179:119,1,90,8|0,0:0|0:0,0:0:0:0:
264,144,194488,5,0,0:0:0:0:
156,20,194643,1,0,0:0:0:0:
72,128,194797,2,0,P|60:180|72:228,1,90,8|0,0:0|0:0,0:0:0:0:
168,332,195107,1,0,0:0:0:0:
256,220,195261,1,0,0:0:0:0:
380,296,195416,2,0,B|424:288|424:288|488:304,1,90,8|0,0:0|0:0,0:0:0:0:
364,200,195725,6,0,P|356:148|372:100,1,90,0|0,0:0|0:0,0:0:0:0:
496,60,196035,1,8,0:0:0:0:
452,216,196189,1,0,0:0:0:0:
300,72,196344,1,0,0:0:0:0:
256,220,196498,1,0,0:0:0:0:
252,232,196576,1,0,0:0:0:0:
248,244,196653,1,8,0:0:0:0:
132,224,196808,1,0,0:0:0:0:
280,144,196962,5,10,0:0:0:0:
280,324,197117,1,0,0:0:0:0:
444,256,197271,1,2,0:0:0:0:
276,232,197426,2,0,L|184:268,1,90,8|2,0:0|0:0,0:0:0:0:
360,292,197736,1,0,0:0:0:0:
280,144,197890,6,0,B|132:196,1,135.000005149842,10|0,0:0|0:0,0:0:0:0:
256,192,198277,12,0,202529,0:0:0:0:
96,272,202839,6,0,P|92:308|100:344,1,67.5000025749208,0|0,0:0|0:0,0:0:0:0:
268,304,203148,6,0,B|240:284|224:252|224:252|176:281|187:338|228:359,1,168.750006437302,0|0,0:0|0:0,0:0:0:0:
424,316,203612,6,0,B|472:344|472:344|512:336|532:276|500:224|432:236,1,225,0|0,0:0|0:0,0:0:0:0:
328,188,204076,6,0,P|320:224|332:188,1,101.250003862381,0|0,0:0|0:0,0:0:0:0:
368,96,204385,6,0,P|320:88|260:104,1,90,4|0,0:0|0:0,0:0:0:0:
88,208,204694,2,0,B|152:228|152:228|236:200,1,135,8|0,0:0|0:0,0:0:0:0:
232,200,205004,1,0,0:0:0:0:
156,104,205159,1,0,0:0:0:0:
48,296,205313,1,8,0:0:0:0:
284,284,205468,1,0,0:0:0:0:
368,96,205622,6,0,P|320:88|264:104,1,90,2|0,0:0|0:0,0:0:0:0:
156,260,205931,1,10,0:0:0:0:
324,172,206086,1,0,0:0:0:0:
84,56,206241,2,0,P|72:110|88:154,1,90,2|0,0:0|0:0,0:0:0:0:
360,332,206550,2,0,P|372:278|356:234,1,90,10|0,0:0|0:0,0:0:0:0:
156,180,206859,5,4,0:0:0:0:
288,368,207014,1,0,0:0:0:0:
486,244,207169,2,0,B|423:271|423:271|350:240,1,135,8|0,0:0|0:0,0:0:0:0:
336,228,207478,2,0,P|324:184|336:136,1,90,0|0,0:0|0:0,0:0:0:0:
484,68,207787,2,0,L|368:36,1,90,8|0,0:0|0:0,0:0:0:0:
228,180,208096,5,2,0:0:0:0:
408,180,208251,1,0,0:0:0:0:
224,44,208406,2,0,B|112:72|112:72|168:100,1,135,10|0,0:0|0:0,0:0:0:0:
152,96,208715,1,2,0:0:0:0:
333,141,208870,1,0,0:0:0:0:
304,308,209024,1,10,0:0:0:0:
120,264,209179,1,0,0:0:0:0:
108,272,209256,1,0,0:0:0:0:
96,280,209333,6,0,L|0:276,1,90,4|0,0:0|0:0,0:0:0:0:
216,308,209643,2,0,P|224:252|208:208,1,90,8|0,0:0|0:0,0:0:0:0:
72,192,209952,1,0,0:0:0:0:
144,352,210107,1,0,0:0:0:0:
296,196,210261,1,8,0:0:0:0:
368,356,210416,1,0,0:0:0:0:
476,232,210571,6,0,B|432:220|432:220|360:240,1,90,2|0,0:0|0:0,0:0:0:0:
208,108,210880,2,0,B|252:120|252:120|324:100,1,90,10|0,0:0|0:0,0:0:0:0:
184,24,211189,1,2,0:0:0:0:
88,192,211344,1,0,0:0:0:0:
280,196,211498,1,10,0:0:0:0:
184,360,211653,1,0,0:0:0:0:
184,360,211730,1,0,0:0:0:0:
184,360,211808,6,0,P|128:368|80:348,1,90,4|0,0:0|0:0,0:0:0:0:
40,108,212117,2,0,P|96:100|144:120,1,90,8|0,0:0|0:0,0:0:0:0:
232,280,212426,1,0,0:0:0:0:
88,192,212581,1,0,0:0:0:0:
172,40,212736,1,8,0:0:0:0:
316,128,212891,1,0,0:0:0:0:
464,40,213045,6,0,P|420:28|364:48,1,90,2|0,0:0|0:0,0:0:0:0:
272,196,213354,2,0,P|316:208|372:188,1,90,10|0,0:0|0:0,0:0:0:0:
276,24,213663,1,0,0:0:0:0:
188,184,213818,1,2,0:0:0:0:
320,292,213973,1,10,0:0:0:0:
332,296,214050,1,0,0:0:0:0:
344,300,214127,1,0,0:0:0:0:
356,304,214205,1,0,0:0:0:0:
368,308,214282,6,0,L|452:256,1,90,4|0,0:0|0:0,0:0:0:0:
356,124,214591,1,8,0:0:0:0:
196,152,214746,2,0,P|184:200|200:248,1,90,0|0,0:0|0:0,0:0:0:0:
296,364,215055,1,0,0:0:0:0:
360,216,215210,2,0,L|256:188,1,90,8|0,0:0|0:0,0:0:0:0:
116,320,215519,6,0,L|220:340,1,90,2|0,0:0|0:0,0:0:0:0:
436,264,215828,2,0,P|448:216|432:168,1,90,10|0,0:0|0:0,0:0:0:0:
276,100,216138,1,2,0:0:0:0:
240,268,216292,1,0,0:0:0:0:
96,168,216447,1,10,0:0:0:0:
84,168,216524,1,0,0:0:0:0:
72,168,216602,1,0,0:0:0:0:
60,168,216679,1,0,0:0:0:0:
48,168,216756,6,0,P|37:124|49:81,1,90,4|0,0:0|0:0,0:0:0:0:
200,116,217065,1,8,0:0:0:0:
104,248,217220,1,0,0:0:0:0:
228,352,217375,2,0,P|264:348|312:312,1,90,0|0,0:0|0:0,0:0:0:0:
328,156,217684,2,0,L|388:292,1,135,8|0,0:0|0:0,0:0:0:0:
392,296,217993,5,2,0:0:0:0:
436,140,218148,1,0,0:0:0:0:
280,92,218303,1,10,0:0:0:0:
236,248,218458,1,0,0:0:0:0:
116,200,218612,1,2,0:0:0:0:
104,194,218689,1,0,0:0:0:0:
92,190,218766,1,0,0:0:0:0:
80,186,218844,1,0,0:0:0:0:
68,182,218921,1,10,0:0:0:0:
40,202,218998,1,0,0:0:0:0:
28,238,219076,1,0,0:0:0:0:
32,274,219153,1,0,0:0:0:0:
52,306,219230,6,0,B|104:298|104:298|136:318|136:318|208:310,1,135,12|0,0:0|0:0,0:0:0:0:
196,312,219540,1,0,0:0:0:0:
368,336,219694,2,0,P|268:286|324:236,1,225,8|0,0:0|0:0,0:0:0:0:
340,240,220158,2,0,B|404:268|404:268|468:240,1,135,8|0,0:0|0:0,0:0:0:0:
480,236,220468,5,12,0:0:0:0:
416,128,220622,2,0,P|404:80|420:32,1,90
292,136,220931,1,8,0:0:0:0:
292,136,221086,2,0,P|256:100|244:52,1,90
104,100,221395,1,8,0:0:0:0:
116,104,221473,1,0,0:0:0:0:
128,108,221550,1,0,0:0:0:0:
140,112,221627,1,0,0:0:0:0:
152,116,221705,6,0,P|168:172|136:224,1,90,12|0,0:0|0:0,0:0:0:0:
24,296,222014,1,0,0:0:0:0:
142,146,222169,1,8,0:0:0:0:
217,329,222323,1,4,0:0:0:0:
38,188,222478,1,0,0:0:0:0:
230,206,222632,1,8,0:0:0:0:
117,360,222787,1,0,0:0:0:0:
116,368,222864,1,0,0:0:0:0:
116,376,222942,5,12,0:0:0:0:
252,196,223096,1,0,0:0:0:0:
20,176,223251,1,0,0:0:0:0:
236,344,223406,1,8,0:0:0:0:
144,124,223560,1,4,0:0:0:0:
4,304,223715,1,0,0:0:0:0:
277,278,223870,1,8,0:0:0:0:
289,282,223947,1,0,0:0:0:0:
301,286,224024,1,0,0:0:0:0:
313,290,224102,1,0,0:0:0:0:
325,294,224179,6,0,P|357:222|333:154,1,135,4|0,0:0|0:0,0:0:0:0:
333,154,224488,1,8,0:0:0:0:
172,80,224643,1,0,0:0:0:0:
88,252,224797,2,0,P|132:268|192:236,1,90,0|0,0:0|0:0,0:0:0:0:
376,88,225107,2,0,P|332:72|272:104,1,90,8|0,0:0|0:0,0:0:0:0:
277,278,225416,5,2,0:0:0:0:
420,168,225571,1,0,0:0:0:0:
240,160,225725,1,10,0:0:0:0:
376,276,225880,1,0,0:0:0:0:
204,332,226035,1,2,0:0:0:0:
324,200,226189,1,0,0:0:0:0:
148,152,226344,1,10,0:0:0:0:
284,32,226498,1,0,0:0:0:0:
284,32,226576,1,0,0:0:0:0:
284,32,226653,6,0,P|240:20|192:32,1,90,4|0,0:0|0:0,0:0:0:0:
1,249,226962,2,0,P|45:261|93:249,1,90,8|0,0:0|0:0,0:0:0:0:
240,160,227272,1,0,0:0:0:0:
304,328,227426,1,0,0:0:0:0:
420,192,227581,2,0,P|428:140|416:100,1,90,8|0,0:0|0:0,0:0:0:0:
93,104,227890,6,0,P|83:148|92:192,1,90,2|0,0:0|0:0,0:0:0:0:
376,276,228199,2,0,L|468:300,1,90,10|0,0:0|0:0,0:0:0:0:
136,276,228509,2,0,L|48:298,1,90,2|0,0:0|0:0,0:0:0:0:
16,120,228818,1,10,0:0:0:0:
204,120,228973,1,0,0:0:0:0:
204,120,229050,1,0,0:0:0:0:
204,120,229127,5,4,0:0:0:0:
388,120,229282,1,0,0:0:0:0:
305,283,229437,1,8,0:0:0:0:
464,204,229591,1,0,0:0:0:0:
296,180,229746,1,0,0:0:0:0:
416,304,229901,1,0,0:0:0:0:
212,308,230055,1,8,0:0:0:0:
368,208,230210,1,0,0:0:0:0:
472,372,230364,6,0,P|416:388|356:364,1,90,2|0,0:0|0:0,0:0:0:0:
209,189,230674,2,0,P|265:173|325:197,1,90,10|0,0:0|0:0,0:0:0:0:
276,368,230983,1,2,0:0:0:0:
120,244,231138,1,0,0:0:0:0:
300,80,231292,2,0,L|284:252,1,135,10|0,0:0|0:0,0:0:0:0:
284,240,231602,5,4,0:0:0:0:
184,88,231756,1,0,0:0:0:0:
384,32,231911,2,0,P|396:84|376:132,1,90,8|0,0:0|0:0,0:0:0:0:
208,284,232220,2,0,P|196:232|216:184,1,90
364,200,232529,1,8,0:0:0:0:
464,344,232684,2,0,B|384:312|384:312|264:356,1,180,0|0,0:0|0:0,0:0:0:0:
176,184,233148,6,0,L|296:212,1,90,10|0,0:0|0:0,0:0:0:0:
444,244,233457,2,0,P|452:184|440:152,1,90,2|0,0:0|0:0,0:0:0:0:
296,104,233766,1,10,0:0:0:0:
284,100,233844,1,0,0:0:0:0:
272,96,233921,1,0,0:0:0:0:
260,92,233998,1,0,0:0:0:0:
248,88,234076,6,0,P|300:72|348:112,1,90,4|0,0:0|0:0,0:0:0:0:
328,288,234385,1,8,0:0:0:0:
176,184,234540,1,0,0:0:0:0:
267,30,234694,2,0,P|315:54|331:90,1,90,0|0,0:0|0:0,0:0:0:0:
224,308,235004,1,8,0:0:0:0:
340,196,235158,1,0,0:0:0:0:
472,368,235313,6,0,P|432:380|388:364,1,90,2|0,0:0|0:0,0:0:0:0:
388,120,235622,2,0,P|428:108|472:124,1,90,10|0,0:0|0:0,0:0:0:0:
396,264,235931,1,2,0:0:0:0:
236,204,236086,1,0,0:0:0:0:
76,144,236241,2,0,P|60:208|92:292,1,135,10|0,0:0|0:0,0:0:0:0:
68,296,236550,6,0,P|112:284|160:304,1,90,4|0,0:0|0:0,0:0:0:0:
436,340,236859,2,0,P|392:352|344:332,1,90,8|0,0:0|0:0,0:0:0:0:
172,140,237169,2,0,B|164:96|164:96|180:16,1,90,0|0,0:0|0:0,0:0:0:0:
352,249,237478,2,0,B|360:293|360:293|344:373,1,90,8|0,0:0|0:0,0:0:0:0:
232,332,237787,5,2,0:0:0:0:
448,260,237942,1,0,0:0:0:0:
240,256,238096,1,10,0:0:0:0:
456,184,238251,1,0,0:0:0:0:
248,176,238406,2,0,P|236:128|260:76,1,90,2|0,0:0|0:0,0:0:0:0:
456,98,238715,2,0,P|468:146|444:198,1,90,10|0,0:0|0:0,0:0:0:0:
240,256,239024,5,4,0:0:0:0:
160,96,239178,1,0,0:0:0:0:
308,132,239333,2,0,L|412:140,1,90,8|0,0:0|0:0,0:0:0:0:
264,48,239643,1,0,0:0:0:0:
368,220,239797,1,0,0:0:0:0:
205,170,239952,2,0,L|97:182,1,90,8|0,0:0|0:0,0:0:0:0:
164,332,240261,5,0,0:0:0:0:
328,296,240416,1,0,0:0:0:0:
152,244,240571,1,8,0:0:0:0:
272,364,240725,1,0,0:0:0:0:
316,204,240880,1,0,0:0:0:0:
410,329,241035,1,0,0:0:0:0:
240,268,241189,1,8,0:0:0:0:
384,148,241344,1,0,0:0:0:0:
492,364,241498,5,8,0:0:0:0:
456,100,241653,1,0,0:0:0:0:
410,329,241808,1,8,0:0:0:0:
376,56,241962,1,0,0:0:0:0:
328,296,242117,1,8,0:0:0:0:
296,20,242272,1,0,0:0:0:0:
240,268,242426,1,8,0:0:0:0:
384,148,242581,1,0,0:0:0:0:
384,148,242658,1,0,0:0:0:0:
384,148,242736,6,0,P|404:200|388:264,1,112.5
384,340,243199,2,0,B|332:316|332:316|280:340,1,112.5
240,268,243663,1,0,0:0:0:0:
176,320,243818,1,0,0:0:0:0:
164,316,243895,1,0,0:0:0:0:
152,312,243973,6,0,P|140:264|152:224,1,90,4|0,0:0|0:0,0:0:0:0:
264,160,244282,2,0,L|112:128,1,135,8|0,0:0|0:0,0:0:0:0:
116,128,244591,1,0,0:0:0:0:
232,44,244746,1,0,0:0:0:0:
348,116,244901,2,0,P|356:160|344:216,1,90,8|0,0:0|0:0,0:0:0:0:
268,304,245210,5,0,0:0:0:0:
388,336,245364,1,0,0:0:0:0:
188,348,245519,2,0,P|180:304|192:248,1,90,8|0,0:0|0:0,0:0:0:0:
220,100,245828,1,0,0:0:0:0:
220,100,245983,1,0,0:0:0:0:
348,204,246138,2,0,B|416:232|416:232|476:208,1,135,8|0,0:0|0:0,0:0:0:0:
492,200,246447,5,0,0:0:0:0:
428,72,246602,1,0,0:0:0:0:
284,72,246756,2,0,P|272:128|292:176,1,90,8|0,0:0|0:0,0:0:0:0:
304,272,247065,1,0,0:0:0:0:
359,121,247220,1,0,0:0:0:0:
200,148,247375,2,0,P|156:160|96:140,1,90,8|0,0:0|0:0,0:0:0:0:
204,28,247684,5,0,0:0:0:0:
280,158,247839,1,0,0:0:0:0:
232,304,247993,2,0,B|296:240|376:312,1,135,8|0,0:0|0:0,0:0:0:0:
372,308,248303,1,0,0:0:0:0:
432,172,248457,1,0,0:0:0:0:
304,272,248612,1,8,0:0:0:0:
440,348,248766,1,0,0:0:0:0:
492,104,248921,6,0,P|440:80|364:108,1,135,4|0,0:0|0:0,0:0:0:0:
344,96,249230,2,0,P|282:71|221:94,1,135,8|0,0:0|0:0,0:0:0:0:
204,108,249540,1,0,0:0:0:0:
356,184,249694,1,0,0:0:0:0:
188,228,249849,2,0,P|180:280|192:316,1,90,8|0,0:0|0:0,0:0:0:0:
356,364,250158,5,0,0:0:0:0:
260,268,250313,1,0,0:0:0:0:
120,360,250468,2,0,P|68:368|32:356,1,90,8|0,0:0|0:0,0:0:0:0:
76,224,250777,1,0,0:0:0:0:
191,314,250931,1,0,0:0:0:0:
16,284,251086,2,0,P|-4:240|20:164,1,90,8|0,0:0|0:0,0:0:0:0:
4,180,251318,1,0,0:0:0:0:
16,164,251395,5,0,0:0:0:0:
156,220,251550,1,0,0:0:0:0:
156,84,251705,1,8,0:0:0:0:
272,148,251859,1,0,0:0:0:0:
112,148,252014,1,0,0:0:0:0:
236,224,252169,1,0,0:0:0:0:
240,76,252323,1,8,0:0:0:0:
356,152,252478,1,0,0:0:0:0:
484,192,252632,6,0,P|492:136|472:80,1,90,0|0,0:0|0:0,0:0:0:0:
324,228,252942,2,0,P|316:284|336:340,1,90,8|0,0:0|0:0,0:0:0:0:
456,340,253251,1,0,0:0:0:0:
456,340,253406,1,0,0:0:0:0:
232,316,253560,1,8,0:0:0:0:
220,324,253638,1,0,0:0:0:0:
208,332,253715,1,0,0:0:0:0:
196,340,253792,1,0,0:0:0:0:
184,348,253870,6,0,L|92:324,1,90,4|0,0:0|0:0,0:0:0:0:
32,188,254179,1,8,0:0:0:0:
168,252,254333,1,0,0:0:0:0:
108,112,254488,2,0,L|200:136,1,90,0|0,0:0|0:0,0:0:0:0:
340,180,254797,2,0,P|348:120|316:64,1,90,8|0,0:0|0:0,0:0:0:0:
256,224,255107,5,0,0:0:0:0:
416,240,255261,1,0,0:0:0:0:
264,136,255416,1,8,0:0:0:0:
332,284,255571,1,0,0:0:0:0:
436,152,255725,2,0,L|468:64,1,90,0|0,0:0|0:0,0:0:0:0:
512,220,256035,2,0,L|480:308,1,90,8|0,0:0|0:0,0:0:0:0:
332,372,256344,5,0,0:0:0:0:
256,224,256498,1,0,0:0:0:0:
104,324,256653,2,0,P|160:344|236:320,1,135,8|0,0:0|0:0,0:0:0:0:
248,316,256962,1,0,0:0:0:0:
336,180,257117,1,0,0:0:0:0:
168,176,257272,2,0,P|156:224|176:276,1,90,8|0,0:0|0:0,0:0:0:0:
336,276,257581,5,0,0:0:0:0:
264,132,257736,1,0,0:0:0:0:
420,140,257890,2,0,P|430:183|418:226,1,90,8|0,0:0|0:0,0:0:0:0:
256,224,258199,1,0,0:0:0:0:
344,80,258354,1,0,0:0:0:0:
184,72,258509,2,0,L|32:104,1,135,8|0,0:0|0:0,0:0:0:0:
32,108,258818,6,0,P|24:164|36:208,1,90,4|0,0:0|0:0,0:0:0:0:
48,348,259127,2,0,L|164:312,1,90,8|0,0:0|0:0,0:0:0:0:
256,224,259437,1,0,0:0:0:0:
192,372,259591,1,0,0:0:0:0:
88,248,259746,1,8,0:0:0:0:
216,148,259901,1,0,0:0:0:0:
300,296,260055,6,0,P|256:308|200:288,1,90,0|0,0:0|0:0,0:0:0:0:
364,224,260364,2,0,P|392:292|360:376,1,135,8|0,0:0|0:0,0:0:0:0:
360,364,260674,1,0,0:0:0:0:
256,224,260828,1,0,0:0:0:0:
360,88,260983,2,0,P|404:76|460:96,1,90,8|0,0:0|0:0,0:0:0:0:
450,222,261292,6,0,P|406:234|350:214,1,90,0|0,0:0|0:0,0:0:0:0:
216,148,261602,1,8,0:0:0:0:
148,316,261756,1,0,0:0:0:0:
200,124,261911,1,0,0:0:0:0:
156,332,262065,1,0,0:0:0:0:
60,180,262220,1,8,0:0:0:0:
300,280,262375,1,0,0:0:0:0:
244,48,262529,6,0,P|204:36|144:52,2,90,0|0|8,0:0|0:0|0:0,0:0:0:0:
272,224,262993,2,0,P|200:240|116:204,1,135,0|0,0:0|0:0,0:0:0:0:
128,212,263303,1,0,0:0:0:0:
324,164,263457,1,8,0:0:0:0:
252,356,263612,1,0,0:0:0:0:
448,308,263766,6,0,P|460:260|448:216,1,90,4|0,0:0|0:0,0:0:0:0:
326,77,264076,2,0,P|314:125|326:169,1,90,8|0,0:0|0:0,0:0:0:0:
168,136,264385,2,0,P|125:124|81:135,1,90,0|0,0:0|0:0,0:0:0:0:
145,303,264694,2,0,P|188:315|232:304,1,90,8|0,0:0|0:0,0:0:0:0:
324,164,265004,5,2,0:0:0:0:
324,164,265158,1,0,0:0:0:0:
232,304,265313,1,10,0:0:0:0:
232,304,265468,1,0,0:0:0:0:
403,263,265622,2,0,P|444:252|496:268,1,90,2|0,0:0|0:0,0:0:0:0:
232,304,265931,2,0,P|191:315|139:299,1,90,10|0,0:0|0:0,0:0:0:0:
144,88,266241,6,0,P|185:77|237:93,1,90,0|0,0:0|0:0,0:0:0:0:
324,164,266550,1,8,0:0:0:0:
324,164,266705,1,0,0:0:0:0:
192,220,266859,1,0,0:0:0:0:
192,220,267014,1,0,0:0:0:0:
144,88,267169,1,8,0:0:0:0:
284,32,267323,1,0,0:0:0:0:
324,164,267478,6,0,P|368:176|432:156,1,90,2|0,0:0|0:0,0:0:0:0:
480,40,267787,2,0,P|436:28|372:48,1,90,10|0,0:0|0:0,0:0:0:0:
264,120,268096,1,2,0:0:0:0:
264,120,268251,1,0,0:0:0:0:
456,224,268406,1,10,0:0:0:0:
456,224,268483,1,0,0:0:0:0:
456,224,268560,1,0,0:0:0:0:
456,224,268638,1,0,0:0:0:0:
456,224,268715,6,0,L|448:328,1,90,0|0,0:0|0:0,0:0:0:0:
248,304,269024,2,0,L|256:200,1,90,8|0,0:0|0:0,0:0:0:0:
432,120,269333,1,0,0:0:0:0:
432,120,269488,1,0,0:0:0:0:
304,20,269643,1,8,0:0:0:0:
304,20,269797,1,0,0:0:0:0:
168,128,269952,6,0,P|120:136|60:112,1,90,2|0,0:0|0:0,0:0:0:0:
392,40,270261,2,0,P|440:32|500:56,1,90,10|0,0:0|0:0,0:0:0:0:
344,196,270571,1,2,0:0:0:0:
344,196,270725,1,0,0:0:0:0:
232,72,270880,1,10,0:0:0:0:
232,72,271035,1,0,0:0:0:0:
132,252,271189,6,0,P|120:304|136:352,1,90,0|0,0:0|0:0,0:0:0:0:
392,352,271498,2,0,P|404:300|388:252,1,90,8|0,0:0|0:0,0:0:0:0:
228,296,271808,1,0,0:0:0:0:
228,296,271962,1,0,0:0:0:0:
344,196,272117,1,8,0:0:0:0:
344,196,272272,1,0,0:0:0:0:
176,128,272426,6,0,P|136:116|84:128,1,90,2|0,0:0|0:0,0:0:0:0:
344,196,272736,2,0,P|384:208|436:196,1,90,10|0,0:0|0:0,0:0:0:0:
304,52,273045,1,2,0:0:0:0:
176,128,273199,1,0,0:0:0:0:
344,196,273354,1,10,0:0:0:0:
228,296,273509,1,0,0:0:0:0:
216,300,273586,1,0,0:0:0:0:
204,304,273663,6,0,P|176:272|180:204,1,90,4|0,0:0|0:0,0:0:0:0:
392,120,273973,2,0,P|424:160|424:224,1,90,8|0,0:0|0:0,0:0:0:0:
324,300,274282,1,0,0:0:0:0:
268,136,274437,1,0,0:0:0:0:
324,300,274591,1,8,0:0:0:0:
268,136,274746,1,0,0:0:0:0:
153,221,274901,6,0,P|112:232|68:220,1,90,2|0,0:0|0:0,0:0:0:0:
224,56,275210,2,0,P|265:45|309:57,1,90,10|0,0:0|0:0,0:0:0:0:
372,208,275519,1,2,0:0:0:0:
196,296,275674,1,0,0:0:0:0:
372,208,275828,1,10,0:0:0:0:
196,296,275983,1,0,0:0:0:0:
400,376,276138,6,0,P|412:320|400:280,1,90,0|0,0:0|0:0,0:0:0:0:
228,56,276447,2,0,P|216:112|228:152,1,90,8|0,0:0|0:0,0:0:0:0:
324,300,276756,1,0,0:0:0:0:
412,140,276911,1,0,0:0:0:0:
268,220,277065,1,8,0:0:0:0:
468,228,277220,1,0,0:0:0:0:
223,142,277375,6,0,P|188:132|128:144,1,90,2|0,0:0|0:0,0:0:0:0:
324,300,277684,2,0,P|359:310|419:298,1,90,10|0,0:0|0:0,0:0:0:0:
268,220,277993,1,2,0:0:0:0:
144,336,278148,1,0,0:0:0:0:
223,142,278303,1,10,0:0:0:0:
232,320,278457,1,0,0:0:0:0:
56,212,278612,6,0,P|44:156|64:112,1,90,0|0,0:0|0:0,0:0:0:0:
292,96,278921,2,0,P|304:152|284:196,1,90,8|0,0:0|0:0,0:0:0:0:
156,240,279230,1,0,0:0:0:0:
212,88,279385,1,0,0:0:0:0:
364,144,279540,1,8,0:0:0:0:
308,296,279695,1,0,0:0:0:0:
116,168,279849,6,0,P|160:156|204:176,1,90,2|0,0:0|0:0,0:0:0:0:
388,235,280158,2,0,P|429:252|472:240,1,90,10|0,0:0|0:0,0:0:0:0:
420,84,280468,1,2,0:0:0:0:
284,172,280622,1,0,0:0:0:0:
380,300,280777,1,10,0:0:0:0:
508,216,280931,1,0,0:0:0:0:
336,48,281086,6,0,P|280:32|220:60,1,90,8|0,0:0|0:0,0:0:0:0:
76,140,281395,1,8,0:0:0:0:
240,176,281550,1,0,0:0:0:0:
76,228,281705,1,8,0:0:0:0:
244,276,281859,1,0,0:0:0:0:
156,140,282014,1,8,0:0:0:0:
324,212,282169,1,0,0:0:0:0:
160,228,282323,5,10,0:0:0:0:
316,120,282478,1,0,0:0:0:0:
332,300,282632,1,10,0:0:0:0:
236,84,282787,1,0,0:0:0:0:
412,164,282942,1,10,0:0:0:0:
244,276,283096,1,0,0:0:0:0:
308,32,283251,1,10,0:0:0:0:
496,204,283406,1,0,0:0:0:0:
244,278,283560,6,0,B|220:304|208:340|208:340|164:328|124:356|124:356|120:292|80:264|80:264|136:252|160:216|160:216|120:224|56:184|56:184|68:164|80:136|80:100|32:56|32:56|136:24|240:56|256:168|256:168|272:56|376:24|480:56|480:56|432:100|432:136|444:164|456:184|456:184|392:224|352:216|352:216|376:252|432:264|432:264|392:292|388:356|388:356|348:328|304:340|304:340|292:304|268:276,1,1814.39994462891,4|0,0:0|0:0,0:0:0:0:
256,192,293952,12,0,304131,0:0:0:0:
