osu file format v14

[General]
AudioFilename: FIRSTUTAU.mp3
AudioLeadIn: 710
PreviewTime: 73921
Countdown: 0
SampleSet: Normal
StackLeniency: 0.7
Mode: 0
LetterboxInBreaks: 1
WidescreenStoryboard: 0

[Editor]
Bookmarks: 18970,43921,58601
DistanceSpacing: 1
BeatDivisor: 2
GridSize: 4
TimelineZoom: 1.6

[Metadata]
Title:FIRST
TitleUnicode:FIRST
Artist:cillia
ArtistUnicode:cillia
Creator:sukiNathan
Version:Normal
Source:
Tags:vocaloid handsome deetz toybot utau gothic rock kasane teto niki cover
BeatmapID:721014
BeatmapSetID:323961

[Difficulty]
HPDrainRate:3.5
CircleSize:3
OverallDifficulty:4
ApproachRate:5.5
SliderMultiplier:1.2
SliderTickRate:1

[Events]
//Background and Video events
0,0,"firstbg.jpg",0,0
//Break Periods
2,39383,41849
2,145490,154112
//Storyboard Layer 0 (Background)
//Storyboard Layer 1 (Fail)
//Storyboard Layer 2 (Pass)
//Storyboard Layer 3 (Foreground)
//Storyboard Sound Samples

[TimingPoints]
1290,315.789473684211,4,2,1,45,1,0
44237,-100,4,2,1,75,0,0
64447,-100,4,1,2,65,0,0
74395,-100,4,1,1,75,0,1
94763,-100,4,2,1,75,0,0
114974,-100,4,1,1,65,0,0
124921,-100,4,1,1,75,0,1
145290,-100,4,1,1,65,0,0
155237,-100,4,1,1,65,0,1
175605,-100,4,1,1,65,0,0
184447,-100,4,2,0,5,0,0

[Colours]
Combo1 : 200,2,7
Combo2 : 162,162,162

[HitObjects]
96,84,18974,6,0,L|88:20,2,60,4|0|2,0:1|0:0|0:0,0:0:0:0:
116,140,19447,2,0,P|168:120|232:120,1,120,0|0,0:0|0:0,0:0:0:0:
252,240,20079,2,0,P|200:260|136:260,1,120,0|0,0:0|0:0,0:0:0:0:
88,372,20711,2,0,P|188:360|224:368,1,120,0|0,0:0|0:0,0:0:0:0:
324,348,21342,5,0,0:0:0:0:
380,368,21500,2,0,P|412:373|444:368,2,60,0|0|2,0:0|0:0|0:0,0:0:0:0:
324,348,21974,2,0,P|324:276|344:216,1,120,0|0,0:0|0:0,0:0:0:0:
360,112,22605,2,0,L|484:108,1,120,0|0,0:0|0:0,0:0:0:0:
396,24,23237,2,0,P|316:28|212:88,1,180
112,96,24026,6,0,L|116:24,2,60,4|0|2,0:1|0:0|0:0,0:0:0:0:
84,152,24500,2,0,L|68:228,1,60,0|0,0:0|0:0,0:0:0:0:
112,256,24816,2,0,L|128:332,1,60,0|2,0:0|0:0,0:0:0:0:
176,348,25132,2,0,P|232:332|312:344,1,120,0|0,0:0|0:0,0:0:0:0:
364,240,25763,2,0,L|383:105,1,120,0|0,0:0|0:0,0:0:0:0:
284,48,26395,5,0,0:0:0:0:
224,44,26553,2,0,L|148:36,2,60,0|2|0,0:0|0:0|0:0,0:0:0:0:
228,104,27026,2,0,P|216:164|164:208,1,120,0|0,0:0|0:0,0:0:0:0:
108,304,27658,2,0,P|184:300|228:336,1,120,0|0,0:0|0:0,0:0:0:0:
340,312,28290,2,0,P|384:272|400:156,1,180,0|2,0:0|0:0,0:0:0:0:
364,44,29079,6,0,L|224:44,1,120,4|2,0:1|0:0,0:0:0:0:
188,68,29553,2,0,L|132:100,1,60,0|0,0:0|0:0,0:0:0:0:
96,140,29868,2,0,L|88:220,1,60,0|2,0:0|0:0,0:0:0:0:
76,260,30184,1,0,0:0:0:0:
196,238,30500,1,0,0:0:0:0:
264,336,30816,2,0,P|196:360|136:340,1,120,0|0,0:0|0:0,0:0:0:0:
196,238,31447,5,0,0:0:0:0:
256,224,31605,2,0,P|304:232|328:244,2,60,0|0|2,0:0|0:0|0:0,0:0:0:0:
196,238,32079,2,0,L|64:224,1,120,0|0,0:0|0:0,0:0:0:0:
148,128,32711,2,0,L|280:114,1,120,0|0,0:0|0:0,0:0:0:0:
384,140,33342,2,0,L|408:340,1,180,0|2,0:0|0:0,0:0:0:0:
292,280,34132,6,0,P|204:272|160:284,1,120,4|2,0:1|0:0,0:0:0:0:
116,292,34605,2,0,P|84:308|44:312,1,60,0|0,0:0|0:0,0:0:0:0:
16,264,34921,2,0,P|8:232|12:192,1,60,0|2,0:0|0:0,0:0:0:0:
40,152,35237,6,0,P|109:155|176:148,1,120,0|0,0:0|0:0,0:0:0:0:
228,52,35868,2,0,P|297:48|364:56,1,120,0|0,0:0|0:0,0:0:0:0:
404,160,36500,1,0,0:0:0:0:
432,212,36658,6,0,L|436:348,1,120,0|2,0:0|0:0,0:0:0:0:
376,332,37132,2,0,P|296:320|236:340,1,120,0|0,0:0|0:0,0:0:0:0:
200,336,37605,1,2,0:0:0:0:
44,260,38079,2,0,L|40:192,1,60,0|0,0:0|0:0,0:0:0:0:
80,156,38395,2,0,P|152:132|212:144,1,120,0|0,0:0|0:0,0:0:0:0:
244,168,38868,2,0,L|372:172,1,120,0|4,0:0|1:0,0:0:0:0:
21,204,42974,6,0,L|21:84,1,120,2|2,0:2|0:2,0:0:0:0:
140,68,43605,2,2,L|140:216,1,120,2|2,0:2|0:2,0:0:0:0:
144,248,44079,1,0,0:0:0:0:
148,308,44237,2,0,P|207:291|320:308,1,120,4|8,1:0|0:0,0:0:0:0:
376,340,44868,2,0,L|380:216,1,120,0|8,0:0|0:0,0:0:0:0:
432,112,45500,6,0,L|360:84,1,60,0|0,0:0|1:0,0:0:0:0:
320,68,45816,2,0,P|220:60|168:76,1,120,8|0,0:0|0:0,0:0:0:0:
104,132,46447,1,8,0:0:0:0:
80,248,46763,2,0,L|64:340,1,60,0|0,1:0|1:0,0:0:0:0:
60,368,47079,1,8,0:0:0:0:
120,376,47237,2,0,P|208:376|280:368,1,120,0|0,0:0|0:0,0:0:0:0:
300,360,47711,2,0,L|380:368,1,60,8|0,0:0|0:0,0:0:0:0:
464,284,48184,5,0,1:0:0:0:
464,224,48342,2,0,L|468:72,1,120,8|0,0:0|0:0,0:0:0:0:
356,60,48974,1,8,0:0:0:0:
236,64,49290,6,0,L|168:72,1,60,4|0,1:0|1:0,0:0:0:0:
120,92,49605,1,8,0:0:0:0:
84,140,49763,2,0,P|64:216|72:304,1,120,0|0,0:0|0:0,0:0:0:0:
84,316,50237,1,8,0:0:0:0:
204,320,50553,2,0,L|292:328,1,60,0|0,0:0|1:0,0:0:0:0:
324,332,50868,2,0,L|480:344,1,120,8|0,0:0|0:0,0:0:0:0:
464,224,51500,1,8,0:0:0:0:
456,104,51816,6,0,L|376:92,1,60,0|0,1:0|1:0,0:0:0:0:
340,116,52132,1,8,0:0:0:0:
292,148,52290,2,0,P|220:156|152:136,1,120,0|0,0:0|0:0,0:0:0:0:
124,112,52763,1,8,0:0:0:0:
84,224,53079,2,0,L|68:304,1,60,0|0,0:0|1:0,0:0:0:0:
76,344,53395,2,0,P|160:372|232:360,1,120,8|0,0:0|1:0,0:0:0:0:
252,372,53868,2,0,L|336:368,1,60,0|8,1:0|1:0,0:0:0:0:
412,300,54342,6,0,L|416:148,1,120,4|8,1:0|0:0,0:0:0:0:
400,60,54974,2,0,L|324:60,1,60,0|0,0:0|0:0,0:0:0:0:
280,60,55290,2,0,L|128:60,1,120,8|0,0:0|0:0,0:0:0:0:
100,68,55763,1,0,1:0:0:0:
76,124,55921,2,0,L|68:288,1,120,8|0,0:0|0:0,0:0:0:0:
160,324,56553,1,8,0:0:0:0:
280,332,56868,6,0,L|356:328,1,60,0|0,1:0|1:0,0:0:0:0:
400,324,57184,2,0,P|424:244|408:168,1,120,8|0,0:0|0:0,0:0:0:0:
396,92,57816,2,0,L|244:68,1,120,8|0,0:0|0:0,0:0:0:0:
220,56,58290,1,0,1:0:0:0:
160,60,58447,2,0,B|124:96|124:96|96:192,1,120,8|0,0:0|0:0,0:0:0:0:
96,220,58921,2,0,L|84:312,1,60,0|8,1:0|0:0,0:0:0:0:
204,316,59395,6,0,L|288:332,1,60,4|0,1:0|1:0,0:0:0:0:
320,344,59711,2,0,L|468:368,1,120,8|0,0:0|0:0,0:0:0:0:
452,244,60342,1,8,0:0:0:0:
452,124,60658,6,0,L|448:56,1,60,0|0,0:0|1:0,0:0:0:0:
396,36,60974,2,0,P|316:32|268:48,1,120,8|0,0:0|0:0,0:0:0:0:
308,160,61605,2,0,L|320:312,1,120,8|0,0:0|1:0,0:0:0:0:
324,340,62079,2,0,L|408:340,1,60,0|8,1:0|0:0,0:0:0:0:
412,224,62553,2,0,P|428:144|388:68,1,120,0|8,0:0|0:0,0:0:0:0:
308,160,63184,6,0,L|184:224,1,120,0|8,0:0|0:0,0:0:0:0:
128,312,63816,2,0,L|44:200,1,120,0|0,1:0|1:0,0:0:0:0:
104,104,64447,6,0,P|200:112|236:92,1,120,6|0,0:0|0:0,0:0:0:0:
268,72,64921,2,0,P|304:56|332:48,1,60,2|8,0:0|0:0,0:0:0:0:
384,52,65237,2,0,P|412:61|439:73,1,60,2|8,0:0|0:0,0:0:0:0:
456,132,65553,2,0,L|472:308,1,120,2|0,0:0|0:0,0:0:0:0:
376,328,66184,2,0,P|312:304|200:336,1,180,2|10,0:0|0:0,0:0:0:0:
96,280,66974,6,0,L|80:136,1,120,2|0,0:0|0:0,0:0:0:0:
80,100,67447,2,0,L|96:28,1,60,2|8,0:0|0:0,0:0:0:0:
152,28,67763,2,0,P|184:24|232:32,1,60,2|8,0:0|0:0,0:0:0:0:
264,60,68079,2,0,P|352:80|416:48,1,120,2|0,0:0|0:0,0:0:0:0:
472,148,68711,2,0,P|462:237|504:324,1,180,2|10,0:0|0:0,0:0:0:0:
380,328,69500,2,0,B|332:352|332:352|232:344,1,120,2|0,0:0|0:0,0:0:0:0:
204,340,69974,2,0,L|124:328,1,60,2|8,0:0|0:0,0:0:0:0:
84,320,70290,2,0,P|48:304|8:276,1,60,2|8,0:0|0:0,0:0:0:0:
20,236,70605,6,0,B|20:196|20:196|52:108,1,120,2|0,0:0|0:0,0:0:0:0:
108,116,71079,2,0,P|208:128|256:104,2,120,10|10|10,0:0|0:0|0:0,0:0:0:0:
173,16,72026,2,0,P|234:2|293:20,1,120,2|0,0:0|0:0,0:0:0:0:
400,64,72658,2,0,B|424:108|424:108|430:177,1,120,2|2,0:0|0:0,0:0:0:0:
404,296,73290,2,0,L|464:384,2,90,4|0|0,0:2|0:0|0:0,0:0:0:0:
356,328,73921,2,0,P|300:344|220:332,1,120,0|0,0:0|0:0,0:0:0:0:
196,296,74395,6,0,P|112:276|48:300,1,120,6|0,0:0|0:0,0:0:0:0:
60,228,74868,2,0,L|64:88,1,120,8|2,0:0|0:0,0:0:0:0:
88,52,75342,2,0,L|152:36,1,60,0|8,0:0|0:0,0:0:0:0:
200,60,75658,2,0,B|252:88|252:88|352:80,1,120,4|2,0:0|0:0,0:0:0:0:
420,32,76290,2,0,L|432:196,1,120,2|0,0:0|0:0,0:0:0:0:
436,212,76763,1,8,0:0:0:0:
440,272,76921,6,0,P|364:264|272:292,1,120,6|0,0:0|0:0,0:0:0:0:
276,308,77395,2,0,P|200:320|132:304,1,120,8|2,0:0|0:0,0:0:0:0:
96,312,77868,2,0,P|63:298|36:272,1,60,0|8,0:0|0:0,0:0:0:0:
44,224,78184,5,6,0:0:0:0:
108,124,78500,2,0,P|216:108|280:160,1,180,2|0,0:0|0:0,0:0:0:0:
304,196,79132,1,2,0:0:0:0:
424,196,79447,6,0,B|448:144|448:144|432:72,1,120,6|0,0:0|0:0,0:0:0:0:
392,40,79921,2,0,L|236:28,1,120,8|0,0:0|0:0,0:0:0:0:
220,60,80395,1,0,0:0:0:0:
112,112,80711,2,0,P|108:176|80:244,1,120,2|2,0:0|0:0,0:0:0:0:
48,340,81342,2,0,P|108:372|184:372,1,120,2|2,0:0|0:0,0:0:0:0:
272,340,81974,6,0,P|340:316|364:316,1,60,4|0,0:0|0:0,0:0:0:0:
392,328,82290,2,0,P|420:319|447:305,1,60,0|8,0:0|0:0,0:0:0:0:
488,260,82605,2,0,P|496:199|488:108,1,120,2|0,0:0|0:0,0:0:0:0:
412,60,83237,2,0,P|336:68|272:56,1,120,4|0,0:0|0:0,0:0:0:0:
176,52,83868,2,0,L|104:88,1,60,6|0,0:0|0:0,0:0:0:0:
84,124,84184,2,0,P|76:157|76:220,1,60,0|8,0:0|0:0,0:0:0:0:
68,244,84500,6,0,P|148:240|212:264,1,120,6|0,0:0|0:0,0:0:0:0:
236,284,84974,1,8,0:0:0:0:
288,316,85132,2,0,P|372:324|416:304,1,120,2|0,0:0|0:0,0:0:0:0:
456,208,85763,2,0,L|464:144,1,60,6|0,0:0|0:0,0:0:0:0:
460,88,86079,2,0,P|457:48|452:24,1,60,0|8,0:0|0:0,0:0:0:0:
392,20,86395,2,0,P|332:20|248:40,1,120,2|0,0:0|0:0,0:0:0:0:
240,80,86868,1,8,0:0:0:0:
212,132,87026,6,0,L|204:276,1,120,6|0,0:0|0:0,0:0:0:0:
212,312,87500,1,8,0:0:0:0:
232,368,87658,2,0,P|304:356|352:364,1,120,6|0,0:0|0:0,0:0:0:0:
444,312,88290,6,0,P|460:240|456:176,1,120,6|0,0:0|0:0,0:0:0:0:
460,136,88763,1,8,0:0:0:0:
376,52,89079,2,0,L|384:-12,2,60,2|0|8,0:0|0:0|0:0,0:0:0:0:
328,92,89553,6,0,P|248:72|196:84,1,120,6|0,0:0|0:0,0:0:0:0:
164,112,90026,2,0,P|140:192|144:268,1,120,8|0,0:0|0:0,0:0:0:0:
132,288,90500,2,0,L|180:344,1,60,0|8,0:0|0:0,0:0:0:0:
228,352,90816,6,0,P|284:328|356:340,1,120,2|0,0:0|0:0,0:0:0:0:
448,276,91447,2,0,L|456:144,1,120,2|0,0:0|0:0,0:0:0:0:
452,96,91921,1,8,0:0:0:0:
412,52,92079,2,0,P|324:40|264:60,1,120,6|0,0:0|0:0,0:0:0:0:
248,84,92553,2,0,L|120:100,1,120,8|0,0:0|0:0,0:0:0:0:
68,92,93026,2,0,L|52:28,2,60,0|8|0,0:0|0:0|0:0,0:0:0:0:
20,128,93500,6,0,P|0:200|8:276,1,120,0|8,0:0|0:0,0:0:0:0:
108,300,94132,2,0,L|192:320,3,60,0|8|0|8,0:0|0:0|0:0|0:0,0:0:0:0:
228,308,94763,6,0,P|256:300|360:316,1,120,4|8,1:0|0:0,0:0:0:0:
464,284,95395,1,0,0:0:0:0:
460,164,95711,1,8,0:0:0:0:
388,68,96026,2,0,P|356:64|328:68,1,60,0|0,0:0|1:0,0:0:0:0:
272,92,96342,2,0,P|184:100|140:92,1,120,8|0,0:0|0:0,0:0:0:0:
100,204,96974,1,8,0:0:0:0:
80,324,97290,6,0,L|164:336,1,60,0|0,1:0|1:0,0:0:0:0:
196,312,97605,2,0,P|264:304|324:324,1,120,8|0,0:0|0:0,0:0:0:0:
432,300,98237,1,8,0:0:0:0:
436,180,98553,2,0,L|432:96,1,60,0|0,0:0|1:0,0:0:0:0:
428,60,98868,2,0,L|264:60,1,120,8|0,0:0|0:0,0:0:0:0:
188,68,99500,1,8,0:0:0:0:
68,68,99816,6,0,L|64:127,1,60,4|0,1:0|1:0,0:0:0:0:
64,188,100132,2,0,L|56:332,1,120,8|0,0:0|0:0,0:0:0:0:
172,340,100763,1,8,0:0:0:0:
292,328,101079,2,0,P|364:332|384:340,1,60,0|0,0:0|1:0,0:0:0:0:
412,340,101395,2,0,P|424:260|420:204,1,120,8|0,0:0|0:0,0:0:0:0:
416,100,102026,1,8,0:0:0:0:
312,40,102342,6,0,L|236:48,1,60,0|0,1:0|1:0,0:0:0:0:
192,56,102658,2,0,L|28:72,1,120,8|0,0:0|0:0,0:0:0:0:
40,184,103290,1,8,0:0:0:0:
160,168,103605,2,0,P|194:158|240:156,1,60,0|0,0:0|1:0,0:0:0:0:
276,148,103921,2,0,P|364:172|396:208,1,120,8|0,0:0|1:0,0:0:0:0:
416,240,104395,1,0,1:0:0:0:
420,300,104553,2,0,L|420:372,1,60,8|0,0:0|1:0,0:0:0:0:
360,364,104868,6,0,P|264:352|216:360,1,120,4|8,1:0|0:0,0:0:0:0:
123,372,105500,2,0,P|65:383|5:381,1,120,0|8,0:0|0:0,0:0:0:0:
24,264,106132,2,0,L|32:184,1,60,0|0,0:0|1:0,0:0:0:0:
36,144,106447,2,0,P|116:168|176:156,1,120,8|0,0:0|0:0,0:0:0:0:
228,72,107079,1,8,0:0:0:0:
280,180,107395,6,0,L|284:272,1,60,0|0,1:0|1:0,0:0:0:0:
284,300,107711,2,0,L|436:304,1,120,8|0,0:0|0:0,0:0:0:0:
480,212,108342,1,8,0:0:0:0:
436,104,108658,2,0,P|404:52|400:48,1,60,0|0,0:0|1:0,0:0:0:0:
343,46,108974,2,0,P|279:70|219:70,1,120,8|0,0:0|0:0,0:0:0:0:
112,36,109605,1,8,0:0:0:0:
68,148,109921,6,0,L|64:224,1,60,4|0,1:0|1:0,0:0:0:0:
60,268,110237,2,0,L|192:288,1,120,8|0,0:0|0:0,0:0:0:0:
296,320,110868,1,8,0:0:0:0:
408,276,111184,2,0,L|428:212,1,60,0|0,0:0|1:0,0:0:0:0:
444,160,111500,2,0,P|444:56|436:28,1,120,8|0,0:0|0:0,0:0:0:0:
320,52,112132,1,8,0:0:0:0:
200,60,112447,6,0,L|104:64,1,60,0|0,1:0|1:0,0:0:0:0:
80,68,112763,2,0,P|40:120|48:200,1,120,8|0,0:0|0:0,0:0:0:0:
156,192,113395,1,8,0:0:0:0:
276,204,113711,2,0,L|420:208,1,120,0|8,0:0|0:0,0:0:0:0:
328,308,114342,2,0,L|184:304,1,120,0|8,1:0|1:0,0:0:0:0:
100,360,114974,6,0,P|80:336|56:252,1,120,6|0,0:0|0:0,0:0:0:0:
52,192,115447,2,0,P|72:120|108:72,1,120,2|2,0:0|0:0,0:0:0:0:
144,44,115921,1,8,0:0:0:0:
196,72,116079,2,0,L|292:88,1,60,2|0,0:0|0:0,0:0:0:0:
308,108,116395,1,0,0:0:0:0:
428,108,116711,2,0,P|416:192|448:316,1,180,2|10,0:0|0:0,0:0:0:0:
332,352,117500,6,0,P|272:332|172:332,1,120,2|0,0:0|0:0,0:0:0:0:
164,356,117974,2,0,P|92:364|72:360,1,60,2|8,0:0|0:0,0:0:0:0:
48,348,118290,2,0,P|24:308|16:280,1,60,2|8,0:0|0:0,0:0:0:0:
16,236,118605,2,0,L|24:72,1,120,2|0,0:0|0:0,0:0:0:0:
116,44,119237,2,0,L|156:192,1,120,2|0,0:0|0:0,0:0:0:0:
168,216,119711,1,10,0:0:0:0:
232,316,120026,6,0,P|300:296|392:320,1,120,2|0,0:0|0:0,0:0:0:0:
408,308,120500,1,2,0:0:0:0:
456,200,120816,1,2,0:0:0:0:
448,92,121132,2,0,B|396:72|396:72|296:68,1,120,2|0,0:0|0:0,0:0:0:0:
272,76,121605,1,10,0:0:0:0:
152,64,121921,2,0,B|124:128|124:128|115:177,1,120,10|2,0:0|0:0,0:0:0:0:
104,236,122395,1,8,0:0:0:0:
100,296,122553,6,0,P|164:300|228:316,1,120,2|0,0:0|0:0,0:0:0:0:
328,360,123184,2,0,P|392:360|456:364,1,120,2|2,0:0|0:0,0:0:0:0:
480,248,123816,2,0,P|496:207|504:144,2,90,4|0|0,0:2|0:0|0:0,0:0:0:0:
420,260,124447,2,0,P|360:264|296:248,1,120,0|0,0:0|2:0,0:0:0:0:
252,216,124921,6,0,P|188:184|124:176,1,120,6|0,0:0|0:0,0:0:0:0:
84,192,125395,2,0,P|57:248|60:332,1,120,8|2,0:0|0:0,0:0:0:0:
104,340,125868,2,0,L|184:356,1,60,0|8,0:0|0:0,0:0:0:0:
220,332,126184,2,0,B|268:304|268:304|344:308,1,120,4|2,0:0|0:0,0:0:0:0:
448,336,126816,2,0,P|464:244|460:184,1,120,2|0,0:0|0:0,0:0:0:0:
444,100,127447,2,0,P|388:32|328:52,1,120,6|0,0:0|0:0,0:0:0:0:
312,64,127921,2,0,P|224:60|180:44,1,120,8|2,0:0|0:0,0:0:0:0:
144,16,128395,1,0,0:0:0:0:
44,80,128711,6,0,L|20:236,1,120,6|2,0:0|0:0,0:0:0:0:
24,260,129184,2,0,P|96:244|152:268,1,120,8|0,0:0|0:0,0:0:0:0:
232,336,129816,1,8,0:0:0:0:
292,344,129974,2,0,P|364:344|416:304,1,120,6|0,0:0|0:0,0:0:0:0:
444,272,130447,2,0,B|472:212|472:212|472:120,1,120,8|0,0:0|0:0,0:0:0:0:
468,96,130921,1,0,0:0:0:0:
364,36,131237,6,0,P|280:40|228:32,1,120,2|2,0:0|0:0,0:0:0:0:
124,36,131868,2,0,P|64:30|4:35,1,120,2|2,0:0|0:0,0:0:0:0:
12,152,132500,2,0,L|0:288,1,120,4|0,0:0|0:0,0:0:0:0:
8,332,132974,1,8,0:0:0:0:
64,356,133132,2,0,P|104:344|136:344,1,60,2|0,0:0|0:0,0:0:0:0:
180,348,133447,1,0,0:0:0:0:
288,304,133763,6,0,P|304:243|300:156,1,120,4|0,0:0|0:0,0:0:0:0:
240,84,134395,2,0,P|180:52|116:40,1,120,6|0,0:0|0:0,0:0:0:0:
80,76,134868,1,8,0:0:0:0:
48,128,135026,2,0,L|32:280,1,120,6|0,0:0|0:0,0:0:0:0:
101,350,135658,2,0,L|224:344,1,120,2|0,0:0|0:0,0:0:0:0:
280,328,136132,1,8,0:0:0:0:
336,352,136290,6,0,P|424:360|464:340,1,120,6|0,0:0|0:0,0:0:0:0:
500,236,136921,2,0,P|512:164|504:104,1,120,2|2,0:0|0:0,0:0:0:0:
456,84,137395,1,8,0:0:0:0:
403,55,137553,6,0,B|351:31|351:31|235:35,1,120,6|0,0:0|0:0,0:0:0:0:
180,36,138184,2,0,B|117:33|117:33|65:57,1,120,6|0,0:0|0:0,0:0:0:0:
56,116,138658,1,8,0:0:0:0:
64,176,138816,2,0,L|48:308,1,120,6|0,0:0|0:0,0:0:0:0:
52,356,139290,2,0,P|128:336|188:352,1,120,8|2,0:0|0:0,0:0:0:0:
227,349,139763,1,0,0:0:0:0:
343,337,140079,6,0,B|382:294|382:294|401:180,1,120,6|0,0:0|0:0,0:0:0:0:
423,181,140553,2,0,P|405:101|353:97,1,120,8|0,0:0|0:0,0:0:0:0:
319,108,141026,2,0,L|235:133,1,60,0|8,0:0|0:0,0:0:0:0:
201,124,141342,6,0,L|29:101,1,120,2|0,0:0|0:0,0:0:0:0:
122,221,141974,2,0,L|295:244,1,120,2|0,0:0|0:0,0:0:0:0:
359,256,142605,2,0,P|416:310|366:361,1,120,6|0,0:0|0:0,0:0:0:0:
345,342,143079,2,0,P|286:341|262:346,1,60,8|0,0:0|0:0,0:0:0:0:
234,338,143395,2,0,P|172:335|101:346,1,120,0|8,0:0|0:0,0:0:0:0:
256,192,144026,12,4,145290,1:0:0:0:
96,60,155237,6,0,L|88:196,1,120,6|0,0:0|0:0,0:0:0:0:
80,240,155711,1,8,0:0:0:0:
76,300,155868,2,0,P|156:292|224:320,1,120,2|0,0:0|0:0,0:0:0:0:
304,356,156500,2,0,P|440:352|460:352,1,120,2|0,0:0|0:0,0:0:0:0:
482,334,156974,1,8,0:0:0:0:
464,276,157132,2,0,P|464:192|456:136,1,120,2|0,0:0|0:0,0:0:0:0:
348,116,157763,6,0,P|348:200|356:256,1,120,6|0,0:0|0:0,0:0:0:0:
368,292,158237,1,8,0:0:0:0:
360,352,158395,2,0,L|204:364,1,120,6|0,0:0|0:0,0:0:0:0:
180,364,158868,1,8,0:0:0:0:
120,360,159026,2,0,P|92:288|96:216,1,120,6|0,0:0|0:0,0:0:0:0:
88,184,159500,2,0,B|112:136|112:136|184:88,1,120,8|0,0:0|0:0,0:0:0:0:
276,48,160132,1,8,0:0:0:0:
324,84,160290,6,0,L|404:208,1,120,6|0,0:0|0:0,0:0:0:0:
420,236,160763,2,0,P|432:312|360:328,1,120,8|2,0:0|0:0,0:0:0:0:
344,328,161237,2,0,L|248:304,1,60,0|8,0:0|0:0,0:0:0:0:
228,296,161553,2,0,P|144:276|76:296,1,120,6|2,0:0|0:0,0:0:0:0:
40,184,162184,2,0,L|56:48,1,120,2|2,0:0|0:0,0:0:0:0:
172,52,162816,6,0,P|284:64|324:48,1,120,6|0,0:0|0:0,0:0:0:0:
348,48,163290,1,8,0:0:0:0:
384,96,163447,2,0,P|392:168|412:228,1,120,2|0,0:0|0:0,0:0:0:0:
444,328,164079,2,0,B|384:336|384:336|296:308,1,120,6|0,0:0|0:0,0:0:0:0:
212,284,164711,2,0,L|120:316,1,60,0|8,0:0|0:0,0:0:0:0:
100,324,165026,2,0,P|16:324|-4:316,1,60,0|8,0:0|0:0,0:0:0:0:
4,284,165342,6,0,P|4:188|20:136,1,120,6|0,0:0|0:0,0:0:0:0:
60,64,165974,2,0,L|208:48,1,120,2|0,0:0|0:0,0:0:0:0:
300,52,166605,2,0,L|448:76,1,120,6|0,0:0|0:0,0:0:0:0:
436,128,167079,1,8,0:0:0:0:
428,188,167237,2,0,P|416:264|428:324,1,120,2|0,0:0|0:0,0:0:0:0:
444,360,167711,1,8,0:0:0:0:
384,364,167868,6,0,P|276:352|224:364,1,120,6|0,0:0|0:0,0:0:0:0:
144,356,168500,2,0,P|52:288|48:244,1,120,6|0,0:0|0:0,0:0:0:0:
64,168,169132,2,0,B|100:160|100:160|200:188|200:188|256:176,1,180,6|8,0:0|0:0,0:0:0:0:
340,112,169921,2,0,L|392:76,1,60,0|0,0:0|0:0,0:0:0:0:
440,44,170237,1,8,0:0:0:0:
452,104,170395,6,0,B|464:164|464:164|459:222,1,120,6|0,0:0|0:0,0:0:0:0:
456,284,170868,2,0,P|396:272|292:296,1,120,8|0,0:0|0:0,0:0:0:0:
240,348,171500,1,8,0:0:0:0:
180,348,171658,2,0,L|8:328,1,120,2|0,0:0|0:0,0:0:0:0:
68,212,172290,2,0,L|240:192,1,120,2|0,0:0|0:0,0:0:0:0:
308,192,172921,6,0,P|376:164|316:92,1,180,6|8,0:0|0:0,0:0:0:0:
216,72,173711,2,0,L|132:64,2,60,0|0|8,0:0|0:0|0:0,0:0:0:0:
180,188,174342,2,0,L|172:264,1,60,0|0,0:0|0:0,0:0:0:0:
168,308,174658,2,0,L|336:324,1,120,8|0,0:0|0:0,0:0:0:0:
408,340,175290,1,0,0:0:0:0:
480,244,175605,6,0,P|484:160|468:64,1,180,4|0,0:0|0:0,0:0:0:0:
291,96,176553,1,8,0:0:0:0:
232,104,176711,2,0,P|136:96|88:72,1,120,0|0,0:0|0:0,0:0:0:0:
68,124,177184,1,8,0:0:0:0:
56,184,177342,2,0,L|56:264,1,60,0|8,0:0|0:0,0:0:0:0:
128,340,177816,1,8,0:0:0:0:
244,308,178132,6,0,L|303:302,2,60,12|0|0,0:0|0:0|0:0,0:0:0:0:
236,248,178605,2,0,L|296:243,2,60,12|0|0,0:0|0:0|0:0,0:0:0:0:
228,188,179079,5,4,0:0:0:0:
256,192,179237,12,0,184447,0:0:0:0:
