osu file format v14

[General]
AudioFilename: FIRSTUTAU.mp3
AudioLeadIn: 710
PreviewTime: 73921
Countdown: 0
SampleSet: Soft
StackLeniency: 0.7
Mode: 0
LetterboxInBreaks: 1
WidescreenStoryboard: 0

[Editor]
DistanceSpacing: 0.5
BeatDivisor: 4
GridSize: 4
TimelineZoom: 2.2

[Metadata]
Title:FIRST
TitleUnicode:FIRST
Artist:cillia
ArtistUnicode:cillia
Creator:sukiNathan
Version:LAST
Source:
Tags:vocaloid handsome deetz toybot utau gothic rock kasane teto niki cover
BeatmapID:719902
BeatmapSetID:323961

[Difficulty]
HPDrainRate:6
CircleSize:4
OverallDifficulty:8
ApproachRate:9.2
SliderMultiplier:2
SliderTickRate:1

[Events]
//Background and Video events
0,0,"firstbg.jpg",0,0
//Break Periods
2,39384,42404
2,145490,149772
//Storyboard Layer 0 (Background)
//Storyboard Layer 1 (Fail)
//Storyboard Layer 2 (Pass)
//Storyboard Layer 3 (Foreground)
//Storyboard Sound Samples

[TimingPoints]
1290,315.789473684211,4,2,1,45,1,0
8869,-200,4,2,1,45,0,0
11079,-133.333333333333,4,2,1,45,0,0
11395,-200,4,2,1,45,0,0
12342,-133.333333333333,4,2,1,45,0,0
12816,-200,4,2,1,45,0,0
13605,-133.333333333333,4,2,1,45,0,0
14079,-200,4,2,1,45,0,0
16132,-133.333333333333,4,2,1,45,0,0
16605,-200,4,2,1,45,0,0
17395,-200,4,2,1,45,0,0
18974,-153.846153846154,4,2,1,45,0,0
42974,-133.333333333333,4,1,1,35,0,0
43290,-117.647058823529,4,1,1,35,0,0
43605,-117.647058823529,4,1,1,45,0,0
44237,-111.111111111111,4,2,1,75,0,0
64447,-95.2380952380952,4,1,2,65,0,0
66658,-133.333333333333,4,1,2,65,0,0
66974,-95.2380952380952,4,1,2,65,0,0
69184,-133.333333333333,4,1,2,65,0,0
69500,-95.2380952380952,4,1,2,65,0,0
71711,-133.333333333333,4,1,2,65,0,0
72026,-95.2380952380952,4,1,2,65,0,0
73290,-90.9090909090909,4,1,2,50,0,0
73526,-90.9090909090909,4,1,2,65,0,0
74079,-153.846153846154,4,2,1,65,0,0
74395,-90.9090909090909,4,1,1,75,0,1
92868,-90.9090909090909,4,1,1,75,0,1
94763,-111.111111111111,4,2,1,75,0,0
114974,-95.2380952380952,4,1,1,65,0,0
117184,-133.333333333333,4,1,1,65,0,0
117500,-95.2380952380952,4,1,1,65,0,0
119711,-133.333333333333,4,1,1,65,0,0
120026,-95.2380952380952,4,1,1,65,0,0
124605,-153.846153846154,4,1,1,65,0,0
124921,-90.9090909090909,4,1,1,75,0,1
132500,-90.9090909090909,4,1,1,75,0,1
143395,-90.9090909090909,4,1,1,75,0,1
145290,-90.9090909090909,4,1,1,65,0,0
150342,-111.111111111111,4,1,1,35,0,0
152237,-100,4,1,1,45,0,0
152868,-100,4,1,1,50,0,0
153184,-95.2380952380952,4,1,1,50,0,0
153500,-90.9090909090909,4,1,1,55,0,0
154132,-83.3333333333333,4,1,1,60,0,0
154921,-166.666666666667,4,1,1,65,0,0
155237,-90.9090909090909,4,1,1,65,0,1
173711,-90.9090909090909,4,1,1,65,0,1
175605,-100,4,1,1,65,0,0
179158,-100,4,2,1,30,0,0
184447,-100,4,2,1,5,0,0

[Colours]
Combo1 : 200,2,7
Combo2 : 162,162,162

[HitObjects]
256,192,1290,12,0,6342,0:0:0:0:
136,72,8868,5,2,0:0:0:0:
136,72,9026,2,0,L|132:184,1,100,0|2,0:0|0:0,0:0:0:0:
356,352,10132,5,2,0:0:0:0:
356,352,10290,2,0,L|360:240,1,100,0|2,0:0|0:0,0:0:0:0:
296,8,11079,2,0,P|316:64|272:160,1,150.000005722046,2|0,0:0|0:0,0:0:0:0:
216,71,11553,6,0,P|160:56|104:68,1,100,2|2,0:0|0:0,0:0:0:0:
148,296,12342,6,0,B|131:263|156:236|156:236|144:212|144:212|164:184|156:128,1,150.000005722046,2|0,0:0|0:0,0:0:0:0:
216,71,12816,6,2,B|336:80,1,100
420,220,13605,6,0,P|352:236|328:320,1,150.000005722046,2|0,0:0|0:0,0:0:0:0:
484,263,14079,6,2,P|488:187|472:163,1,100
240,96,15184,5,2,0:0:0:0:
240,96,15342,2,2,L|344:104,1,100,0|2,0:0|0:0,0:0:0:0:
128,264,16132,2,0,L|136:96,1,150.000005722046,2|0,0:0|0:0,0:0:0:0:
48,260,16605,6,2,L|55:160,1,100
288,320,17395,6,0,B|312:316|312:316|360:324|360:324|392:316,1,100,2|0,0:0|0:0,0:0:0:0:
460,236,17868,2,0,L|464:120,1,100,2|2,0:0|0:0,0:0:0:0:
124,152,18658,2,0,L|64:144,1,50,2|0,0:0|0:0,0:0:0:0:
104,252,18974,6,0,L|168:260,1,64.9999970245363,4|0,0:1|0:0,0:0:0:0:
220,168,19290,1,2,0:0:0:0:
220,168,19447,2,0,P|324:144|372:152,1,129.999994049073,0|0,0:0|0:0,0:0:0:0:
244,72,19921,1,2,0:0:0:0:
244,72,20079,2,0,L|160:64,1,64.9999970245363,0|0,0:0|0:0,0:0:0:0:
96,144,20395,2,0,L|20:152,1,64.9999970245363,0|2,0:0|0:0,0:0:0:0:
104,252,20711,2,0,L|88:336,2,64.9999970245363,0|0|0,0:0|0:0|0:0,0:0:0:0:
196,356,21184,1,2,0:0:0:0:
196,356,21342,1,0,0:0:0:0:
196,356,21500,6,0,L|272:348,1,64.9999970245363,0|0,0:0|0:0,0:0:0:0:
344,280,21816,1,2,0:0:0:0:
424,368,21974,2,0,L|448:224,1,129.999994049073,0|0,0:0|0:0,0:0:0:0:
464,128,22447,1,2,0:0:0:0:
464,128,22605,2,0,L|404:96,1,64.9999970245363,0|0,0:0|0:0,0:0:0:0:
336,200,22921,2,0,L|248:216,1,64.9999970245363,0|2,0:0|0:0,0:0:0:0:
216,108,23237,2,0,P|147:95|80:104,1,129.999994049073,0|0,0:0|0:0,0:0:0:0:
248,36,23711,2,0,L|316:52,1,64.9999970245363,2|0,0:0|0:0,0:0:0:0:
144,184,24026,6,0,L|136:264,1,64.9999970245363,4|0,0:1|0:0,0:0:0:0:
60,340,24342,1,2,0:0:0:0:
60,340,24500,2,0,P|136:336|200:364,1,129.999994049073,0|0,0:0|0:0,0:0:0:0:
288,360,24974,1,2,0:0:0:0:
288,360,25132,2,0,P|320:356|352:344,1,64.9999970245363,0|0,0:0|0:0,0:0:0:0:
416,200,25447,2,0,P|403:229|397:263,1,64.9999970245363,0|2,0:0|0:0,0:0:0:0:
474,128,25763,2,0,P|406:112|338:144,1,129.999994049073,0|0,0:0|0:0,0:0:0:0:
292,204,26237,2,0,L|216:196,1,64.9999970245363,2|0,0:0|0:0,0:0:0:0:
112,180,26553,6,0,L|118:244,1,64.9999970245363,0|2,0:0|0:0,0:0:0:0:
184,118,26868,1,0,0:0:0:0:
96,92,27026,2,0,P|124:52|208:32,1,129.999994049073,0|0,0:0|0:0,0:0:0:0:
284,100,27500,1,2,0:0:0:0:
284,100,27658,2,0,L|288:184,1,64.9999970245363,0|0,0:0|0:0,0:0:0:0:
220,271,27974,2,0,P|156:267|136:271,1,64.9999970245363,0|2,0:0|0:0,0:0:0:0:
316,352,28290,2,0,P|384:352|464:340,1,129.999994049073,0|0,0:0|0:0,0:0:0:0:
472,232,28763,2,0,L|464:160,1,64.9999970245363,2|0,0:0|0:0,0:0:0:0:
348,93,29079,5,4,0:1:0:0:
348,93,29237,2,0,L|264:101,1,64.9999970245363,0|2,0:0|0:0,0:0:0:0:
144,188,29553,2,0,L|228:196,1,64.9999970245363
208,24,29868,2,0,L|124:16,1,64.9999970245363,0|2,0:0|0:0,0:0:0:0:
36,84,30184,2,0,L|20:168,1,64.9999970245363,0|0,0:0|0:0,0:0:0:0:
56,272,30500,2,0,L|64:360,1,64.9999970245363,0|2,0:0|0:0,0:0:0:0:
192,344,30816,2,0,P|268:336|344:364,1,129.999994049073,0|0,0:0|0:0,0:0:0:0:
416,276,31290,2,0,L|412:200,1,64.9999970245363,2|0,0:0|0:0,0:0:0:0:
276,120,31605,6,0,L|280:196,1,64.9999970245363,0|0,0:0|0:0,0:0:0:0:
368,136,31921,1,2,0:0:0:0:
388,48,32079,2,0,L|232:36,1,129.999994049073,0|0,0:0|0:0,0:0:0:0:
168,120,32553,1,2,0:0:0:0:
168,120,32711,2,0,L|96:112,1,64.9999970245363,0|0,0:0|0:0,0:0:0:0:
40,220,33026,2,0,L|28:308,1,64.9999970245363,0|2,0:0|0:0,0:0:0:0:
160,380,33342,2,0,L|184:236,1,129.999994049073,0|0,0:0|0:0,0:0:0:0:
168,120,33816,2,0,L|80:104,1,64.9999970245363,2|0,0:0|0:0,0:0:0:0:
296,180,34132,6,0,L|372:196,2,64.9999970245363,4|0|2,0:1|0:0|0:0,0:0:0:0:
312,312,34605,2,0,L|308:380,1,64.9999970245363,0|0,0:0|0:0,0:0:0:0:
424,288,34921,2,0,L|508:308,1,64.9999970245363,0|2,0:0|0:0,0:0:0:0:
448,184,35237,2,0,P|456:128|456:104,1,64.9999970245363,0|0,0:0|0:0,0:0:0:0:
344,24,35553,2,0,P|336:80|336:104,1,64.9999970245363,0|2,0:0|0:0,0:0:0:0:
212,148,35868,2,0,L|64:136,1,129.999994049073,0|0,0:0|0:0,0:0:0:0:
196,60,36342,2,0,P|236:48|280:32,1,64.9999970245363,2|0,0:0|0:0,0:0:0:0:
136,228,36658,6,0,P|96:240|52:256,1,64.9999970245363,0|0,0:0|0:0,0:0:0:0:
144,344,36974,1,2,0:0:0:0:
144,344,37132,2,0,P|200:328|288:352,1,129.999994049073,0|0,0:0|0:0,0:0:0:0:
404,356,37605,1,2,0:0:0:0:
404,356,37763,2,0,P|412:320|412:264,1,64.9999970245363,0|0,0:0|0:0,0:0:0:0:
316,168,38079,2,0,P|333:200|369:243,1,64.9999970245363,0|0,0:0|0:0,0:0:0:0:
500,168,38395,2,0,P|482:135|446:92,1,64.9999970245363,0|0,0:0|0:0,0:0:0:0:
356,36,38711,1,0,0:0:0:0:
200,136,38868,2,0,L|108:140,1,64.9999970245363
8,144,39184,5,4,1:0:0:0:
76,72,42974,6,0,L|64:140,3,37.5000014305115,2|0|0|0,0:2|0:0|0:0|0:0,0:0:0:0:
120,216,43290,2,0,L|132:288,3,42.5000008106232,2|0|0|0,0:2|0:0|0:0|0:0,0:0:0:0:
152,376,43605,1,2,0:2:0:0:
176,360,43684,1,0,0:0:0:0:
204,352,43763,1,0,0:0:0:0:
232,356,43842,1,0,0:0:0:0:
264,372,43921,1,2,0:2:0:0:
296,376,44000,1,0,0:0:0:0:
328,372,44079,1,0,0:0:0:0:
360,360,44158,1,0,0:0:0:0:
380,332,44237,6,0,L|408:212,1,89.9999972534181,4|0,1:0|1:0,0:0:0:0:
460,112,44553,1,8,0:0:0:0:
304,72,44711,2,0,L|184:64,1,89.9999972534181
120,216,45026,1,0,0:0:0:0:
120,216,45184,1,8,0:0:0:0:
16,112,45342,6,0,P|8:36|20:8,1,89.9999972534181
276,168,45658,2,0,P|284:244|272:272,1,89.9999972534181,0|8,1:0|0:0,0:0:0:0:
104,64,45974,2,0,L|200:60,1,89.9999972534181
120,216,46290,1,0,0:0:0:0:
116,368,46447,1,8,0:0:0:0:
0,204,46605,1,0,0:0:0:0:
220,284,46763,6,0,P|280:292|324:296,1,89.9999972534181,0|0,1:0|1:0,0:0:0:0:
116,368,47079,1,8,0:0:0:0:
280,208,47237,2,0,P|316:148|336:32,1,179.999994506836
512,140,47711,1,8,0:0:0:0:
512,140,47868,6,0,P|455:129|416:128,1,89.9999972534181
500,268,48184,1,0,1:0:0:0:
368,352,48342,1,8,0:0:0:0:
280,208,48500,2,0,B|224:196|224:196|156:216|156:216|104:207,1,179.999994506836
279,335,48974,2,0,L|408:359,1,89.9999972534181,8|0,0:0|0:0,0:0:0:0:
477,282,49290,5,4,1:0:0:0:
360,152,49447,1,0,1:0:0:0:
512,188,49605,1,8,0:0:0:0:
268,120,49763,2,0,L|156:112,1,89.9999972534181
340,60,50079,1,0,0:0:0:0:
424,220,50237,1,8,0:0:0:0:
208,304,50395,6,0,P|200:244|208:204,1,89.9999972534181
64,40,50711,2,0,L|60:156,1,89.9999972534181,0|8,1:0|0:0,0:0:0:0:
292,80,51026,2,0,L|172:76,1,89.9999972534181
392,216,51342,2,0,L|516:220,1,89.9999972534181,0|8,0:0|0:0,0:0:0:0:
284,192,51658,1,0,0:0:0:0:
284,192,51816,5,0,1:0:0:0:
412,112,51974,1,0,1:0:0:0:
348,312,52132,1,8,0:0:0:0:
171,205,52290,2,0,L|64:200,1,89.9999972534181
220,104,52605,1,0,0:0:0:0:
116,112,52763,1,8,0:0:0:0:
216,296,52921,6,0,L|276:384,1,89.9999972534181
72,292,53237,2,0,L|12:380,1,89.9999972534181,0|8,1:0|0:0,0:0:0:0:
32,200,53553,1,0,0:0:0:0:
264,216,53711,1,0,1:0:0:0:
144,356,53868,1,0,1:0:0:0:
120,192,54026,1,8,1:0:0:0:
116,172,54105,1,0,1:0:0:0:
108,152,54184,1,0,1:0:0:0:
100,132,54263,1,0,1:0:0:0:
88,116,54342,5,4,1:0:0:0:
32,200,54500,1,0,1:0:0:0:
152,272,54658,1,8,0:0:0:0:
200,152,54816,2,0,P|252:128|296:132,1,89.9999972534181
388,312,55132,2,0,P|372:252|372:196,1,89.9999972534181,0|8,0:0|0:0,0:0:0:0:
464,56,55447,6,0,P|480:116|480:176,1,89.9999972534181
492,264,55763,1,0,1:0:0:0:
376,128,55921,1,8,0:0:0:0:
262,257,56079,2,0,P|194:277|142:289,1,89.9999972534181
0,112,56395,2,0,P|71:134|104:152,1,89.9999972534181,0|8,0:0|0:0,0:0:0:0:
175,282,56711,1,0,0:0:0:0:
248,144,56868,5,0,1:0:0:0:
248,356,57026,1,0,1:0:0:0:
76,288,57184,1,8,0:0:0:0:
348,332,57342,2,0,P|367:249|284:156,1,179.999994506836
108,240,57816,1,8,0:0:0:0:
108,240,57974,6,0,L|208:248,1,89.9999972534181
24,80,58290,2,0,P|8:140|20:184,1,89.9999972534181,0|8,1:0|0:0,0:0:0:0:
152,352,58605,2,0,P|172:296|164:140,1,179.999994506836,0|0,0:0|1:0,0:0:0:0:
284,228,59079,1,8,0:0:0:0:
76,228,59237,1,0,0:0:0:0:
280,330,59395,6,0,B|335:346|335:346|372:344,1,89.9999972534181,4|0,1:0|1:0,0:0:0:0:
76,228,59711,1,8,0:0:0:0:
284,228,59868,2,0,B|345:216|345:216|488:252,1,179.999994506836
424,124,60342,1,8,0:0:0:0:
424,124,60500,6,0,P|408:72|408:24,1,89.9999972534181
276,124,60816,2,0,L|176:148,1,89.9999972534181,0|8,1:0|0:0,0:0:0:0:
0,216,61132,2,0,L|96:240,1,89.9999972534181
220,252,61447,1,0,0:0:0:0:
60,328,61605,1,8,0:0:0:0:
68,120,61763,1,0,0:0:0:0:
152,308,61921,6,0,P|203:338|268:332,1,89.9999972534181,0|0,1:0|1:0,0:0:0:0:
292,196,62237,2,0,P|241:166|176:172,1,89.9999972534181,8|0,0:0|0:0,0:0:0:0:
372,384,62553,2,0,P|406:309|420:224,1,134.999995880127
480,184,62868,2,0,L|504:296,1,89.9999972534181,8|0,0:0|0:0,0:0:0:0:
392,28,63184,6,0,P|328:8|272:24,1,89.9999972534181,0|0,0:0|1:0,0:0:0:0:
205,177,63500,2,0,P|269:197|329:185,1,89.9999972534181,8|0,0:0|0:0,0:0:0:0:
63,137,63816,1,0,1:0:0:0:
39,162,63895,1,0,1:0:0:0:
25,194,63974,1,0,1:0:0:0:
22,229,64053,1,0,1:0:0:0:
35,267,64132,1,0,1:0:0:0:
56,301,64211,1,0,1:0:0:0:
90,321,64290,1,0,1:0:0:0:
127,335,64368,1,0,1:0:0:0:
166,340,64447,6,0,P|200:324|330:367,1,157.499995193482,6|0,0:0|0:0,0:0:0:0:
396,384,64763,1,0,0:0:0:0:
470,256,64921,2,0,P|490:185|481:138,1,104.999996795654,2|8,0:0|0:0,0:0:0:0:
435,20,65237,1,2,0:0:0:0:
367,187,65395,1,8,0:0:0:0:
205,88,65553,6,0,L|86:82,1,104.999996795654,2|0,0:0|0:0,0:0:0:0:
302,39,65868,1,0,0:0:0:0:
367,187,66026,1,8,0:0:0:0:
228,248,66184,2,0,L|168:252,1,52.4999983978272,2|0,0:0|0:0,0:0:0:0:
76,256,66342,1,8,0:0:0:0:
302,351,66500,1,0,0:0:0:0:
318,350,66579,1,0,0:0:0:0:
334,349,66658,6,0,P|393:335|428:280,1,112.500004291535,10|0,0:0|0:0,0:0:0:0:
340,256,66974,6,0,P|328:157|309:101,1,157.499995193482,2|0,0:0|0:0,0:0:0:0:
240,164,67290,1,0,0:0:0:0:
476,136,67447,2,0,P|486:72|482:24,1,104.999996795654,2|8,0:0|0:0,0:0:0:0:
424,251,67763,1,2,0:0:0:0:
306,133,67921,1,8,0:0:0:0:
164,249,68079,6,0,B|114:260|114:260|51:253,1,104.999996795654,2|0,0:0|0:0,0:0:0:0:
252,63,68395,2,0,B|302:52|302:52|365:59,1,104.999996795654,0|8,0:0|0:0,0:0:0:0:
161,162,68711,2,0,L|156:99,1,52.4999983978272,2|0,0:0|0:0,0:0:0:0:
152,12,68868,1,8,0:0:0:0:
41,206,69026,1,0,0:0:0:0:
40,221,69105,1,0,0:0:0:0:
41,236,69184,6,0,B|36:268|47:284|47:284|42:297|42:297|54:311|37:360,1,112.500004291535,10|0,0:0|0:0,0:0:0:0:
139,300,69500,6,0,B|199:289|199:289|299:311,1,157.499995193482,2|0,0:0|0:0,0:0:0:0:
354,371,69816,1,0,0:0:0:0:
174,217,69974,2,0,L|132:104,1,104.999996795654,2|8,0:0|0:0,0:0:0:0:
232,57,70290,1,2,0:0:0:0:
37,153,70447,1,8,0:0:0:0:
289,188,70605,6,0,B|342:201|342:201|352:143|311:39,1,209.999993591309,2|0,0:0|0:0,0:0:0:0:
318,276,71079,2,0,P|375:275|418:208,1,104.999996795654,10|0,0:0|0:0,0:0:0:0:
421,226,71316,1,0,0:0:0:0:
423,205,71395,1,10,0:0:0:0:
229,258,71553,1,0,0:0:0:0:
207,258,71632,1,0,0:0:0:0:
191,257,71711,6,0,B|156:251|156:251|116:264|116:264|81:256,1,112.500004291535,10|0,0:0|2:0,0:0:0:0:
0,256,72026,5,2,0:0:0:0:
184,32,72263,1,0,0:0:0:0:
248,348,72500,1,0,0:0:0:0:
423,205,72658,2,0,P|436:148|346:128,1,157.499995193482,2|0,0:0|2:0,0:0:0:0:
406,290,72974,2,0,P|479:264|510:177,1,157.499995193482,2|0,0:0|2:0,0:0:0:0:
337,231,73290,5,4,0:2:0:0:
46,346,73526,1,0,0:0:0:0:
208,83,73763,1,0,0:0:0:0:
76,226,73921,1,0,0:0:0:0:
95,27,74079,6,0,L|88:104,1,64.9999970245363
76,226,74395,6,0,P|149:226|225:292,1,165.000005035401,6|0,0:0|2:0,0:0:0:0:
172,348,74711,1,0,0:0:0:0:
186,149,74868,2,0,P|194:82|209:20,1,110.000003356934,8|0,0:0|0:0,0:0:0:0:
360,24,75184,1,2,0:0:0:0:
464,172,75342,1,0,0:0:0:0:
268,168,75500,1,8,0:0:0:0:
364,308,75658,6,0,P|306:293|224:288,1,110.000003356934,4|0,0:0|0:0,0:0:0:0:
48,276,75974,1,2,0:0:0:0:
152,384,76132,1,8,0:0:0:0:
160,192,76290,2,0,L|168:72,1,110.000003356934,2|0,0:0|0:0,0:0:0:0:
268,168,76605,1,0,0:0:0:0:
52,140,76763,1,8,0:0:0:0:
288,44,76921,6,0,B|364:40|364:40|480:80,1,165.000005035401,6|0,0:0|2:0,0:0:0:0:
512,136,77237,1,0,0:0:0:0:
352,240,77395,2,0,P|340:168|352:116,1,110.000003356934,8|0,0:0|0:0,0:0:0:0:
346,132,77632,1,0,0:0:0:0:
346,132,77711,1,2,0:0:0:0:
480,296,77868,1,0,0:0:0:0:
228,304,78026,1,8,0:0:0:0:
424,184,78184,6,0,P|440:116|376:44,1,165.000005035401,6|0,0:0|0:0,0:0:0:0:
288,44,78500,1,2,0:0:0:0:
194,230,78658,2,0,P|262:214|366:250,1,165.000005035401,8|0,0:0|2:0,0:0:0:0:
392,316,78974,1,0,0:0:0:0:
140,292,79132,2,0,B|88:288|88:288|28:304,1,110.000003356934,2|8,0:0|0:0,0:0:0:0:
244,132,79447,6,0,B|284:104|284:104|432:108,1,165.000005035401,6|0,0:0|2:0,0:0:0:0:
484,168,79763,1,0,0:0:0:0:
194,230,79921,2,0,P|144:172|132:128,1,110.000003356934,8|0,0:0|0:0,0:0:0:0:
192,44,80237,1,0,0:0:0:0:
76,232,80395,1,0,0:0:0:0:
312,236,80553,1,10,0:0:0:0:
134,141,80711,6,0,P|76:128|18:129,1,110.000003356934,2|0,0:0|0:0,0:0:0:0:
376,178,81026,2,0,P|429:178|492:166,1,110.000003356934,2|8,0:0|0:0,0:0:0:0:
188,260,81342,2,0,P|188:340|200:392,1,110.000003356934,2|0,0:0|0:0,0:0:0:0:
304,128,81658,2,0,P|304:48|292:-4,1,110.000003356934,2|8,0:0|0:0,0:0:0:0:
240,188,81974,6,0,P|124:184|56:208,1,165.000005035401,4|0,0:0|2:0,0:0:0:0:
188,260,82290,2,0,P|240:272|312:244,1,110.000003356934,0|8,0:0|0:0,0:0:0:0:
452,152,82605,1,2,0:0:0:0:
456,340,82763,1,0,0:0:0:0:
293,257,82921,1,0,0:0:0:0:
476,160,83079,1,8,0:0:0:0:
140,188,83237,6,0,P|104:240|112:304,1,110.000003356934,4|0,0:0|0:0,0:0:0:0:
384,284,83553,2,0,P|381:229|348:187,1,110.000003356934,0|8,0:0|0:0,0:0:0:0:
56,164,83868,2,0,P|28:232|32:304,1,110.000003356934,6|0,0:0|0:0,0:0:0:0:
466,271,84184,2,0,P|459:217|436:168,1,110.000003356934,0|8,0:0|0:0,0:0:0:0:
192,76,84500,6,0,P|280:132|356:112,1,165.000005035401,6|0,0:0|2:0,0:0:0:0:
404,76,84816,1,0,0:0:0:0:
296,0,84974,1,8,0:0:0:0:
288,232,85132,2,0,L|284:352,1,110.000003356934,2|0,0:0|0:0,0:0:0:0:
472,118,85447,2,0,P|476:46|448:10,1,110.000003356934,0|8,0:0|0:0,0:0:0:0:
192,76,85763,6,0,L|68:96,1,110.000003356934,6|0,0:0|0:0,0:0:0:0:
360,152,86079,2,0,L|484:172,1,110.000003356934,0|8,0:0|0:0,0:0:0:0:
240,160,86395,1,2,0:0:0:0:
212,320,86553,1,0,0:0:0:0:
376,384,86711,2,0,P|396:312|396:268,1,110.000003356934,0|8,0:0|0:0,0:0:0:0:
292,28,87026,6,0,P|272:140|280:200,1,165.000005035401,6|0,0:0|0:0,0:0:0:0:
304,276,87342,1,0,0:0:0:0:
440,148,87500,1,8,0:0:0:0:
160,108,87658,2,0,B|112:80|48:92,1,110.000003356934,6|0,0:0|0:0,0:0:0:0:
133,352,87974,2,0,B|180:380|248:368,1,110.000003356934,0|8,0:0|0:0,0:0:0:0:
493,214,88290,6,0,P|392:164|273:190,1,220.000006713867,6|0,0:0|0:0,0:0:0:0:
392,384,88763,2,0,P|428:336|440:284,1,110.000003356934,8|0,0:0|0:0,0:0:0:0:
448,88,89079,1,2,0:0:0:0:
289,180,89237,1,0,0:0:0:0:
440,288,89395,1,8,0:0:0:0:
272,104,89553,6,0,P|156:32|64:88,1,220.000006713867,6|0,0:0|0:0,0:0:0:0:
52,244,90026,2,0,L|40:368,1,110.000003356934,8|0,0:0|0:0,0:0:0:0:
168,120,90342,1,0,0:0:0:0:
276,268,90500,1,0,0:0:0:0:
52,244,90658,1,8,0:0:0:0:
256,152,90816,6,0,P|324:96|344:60,1,110.000003356934,2|0,0:0|0:0,0:0:0:0:
488,132,91132,2,0,P|472:216|476:280,1,110.000003356934,0|8,0:0|0:0,0:0:0:0:
472,356,91447,1,2,0:0:0:0:
348,232,91605,1,0,0:0:0:0:
236,352,91763,2,0,P|164:364|120:352,1,110.000003356934,0|8,0:0|0:0,0:0:0:0:
0,152,92079,6,0,P|50:129|191:168,1,165.000005035401,6|0,0:0|0:0,0:0:0:0:
128,216,92395,1,0,0:0:0:0:
300,132,92553,2,0,L|368:116|436:100,1,110.000003356934,8|0,0:0|0:0,0:0:0:0:
166,33,92868,2,0,L|154:161,1,110.000003356934
256,372,93184,2,0,L|244:248,1,110.000003356934,8|0,0:0|0:0,0:0:0:0:
364,308,93500,5,0,0:0:0:0:
124,320,93658,1,0,0:0:0:0:
364,308,93816,2,0,L|488:296,1,110.000003356934,8|0,0:0|0:0,0:0:0:0:
444,176,94132,1,0,0:0:0:0:
338,71,94290,1,8,0:0:0:0:
307,83,94368,1,8,0:0:0:0:
274,88,94447,1,0,0:0:0:0:
240,88,94526,1,0,0:0:0:0:
207,84,94605,1,8,0:0:0:0:
174,77,94684,1,8,0:0:0:0:
143,64,94763,6,0,L|32:24,1,89.9999972534181,4|0,1:0|0:0,0:0:0:0:
44,172,95079,1,8,0:0:0:0:
135,276,95237,2,0,L|120:333,2,44.999998626709
272,324,95553,2,0,P|332:324|368:332,1,89.9999972534181,0|8,0:0|0:0,0:0:0:0:
484,264,95868,6,0,P|492:208|488:152,1,89.9999972534181
360,32,96184,2,0,P|408:24|472:20,1,89.9999972534181,0|8,1:0|0:0,0:0:0:0:
276,132,96500,2,0,P|228:140|164:144,1,89.9999972534181
45,264,96816,2,0,P|93:272|162:277,1,89.9999972534181,0|8,0:0|0:0,0:0:0:0:
252,272,97132,1,0,0:0:0:0:
128,84,97290,6,0,P|104:132|112:188,1,89.9999972534181,0|0,1:0|1:0,0:0:0:0:
252,272,97605,1,8,0:0:0:0:
252,272,97763,2,0,P|172:272|76:332,1,179.999994506836
312,344,98237,1,8,0:0:0:0:
312,344,98395,6,0,P|344:276|336:240,1,89.9999972534181
456,128,98711,2,0,L|480:256,1,89.9999972534181,0|8,1:0|0:0,0:0:0:0:
340,84,99026,2,0,B|296:104|208:64|148:88,1,179.999994506836
56,192,99500,1,8,0:0:0:0:
8,60,99658,1,0,0:0:0:0:
196,200,99816,6,0,P|248:208|316:192,1,89.9999972534181,4|0,1:0|1:0,0:0:0:0:
416,48,100132,1,8,0:0:0:0:
416,48,100290,2,0,P|385:132|412:240,1,179.999994506836
500,316,100763,1,8,0:0:0:0:
349,368,100921,6,0,L|244:356,1,89.9999972534181
136,256,101237,2,0,L|36:272,1,89.9999972534181,0|8,1:0|0:0,0:0:0:0:
296,176,101553,2,0,L|308:296,1,89.9999972534181
88,160,101868,2,0,L|80:48,1,89.9999972534181,0|8,0:0|0:0,0:0:0:0:
52,266,102184,1,0,0:0:0:0:
240,108,102342,6,0,B|280:96|352:96,1,89.9999972534181,0|0,1:0|1:0,0:0:0:0:
136,256,102658,1,8,0:0:0:0:
296,360,102816,2,0,B|308:316|304:244,1,89.9999972534181
484,184,103132,2,0,B|484:223|496:284,1,89.9999972534181,0|8,0:0|0:0,0:0:0:0:
424,68,103447,6,0,L|296:52,1,89.9999972534181
176,32,103763,1,0,1:0:0:0:
232,208,103921,2,0,L|348:228,1,89.9999972534181,8|0,0:0|0:0,0:0:0:0:
97,120,104237,1,0,1:0:0:0:
240,108,104395,1,0,1:0:0:0:
96,268,104553,2,0,L|80:368,1,89.9999972534181,8|0,0:0|1:0,0:0:0:0:
296,256,104868,6,0,P|308:192|276:136,1,89.9999972534181,4|0,1:0|1:0,0:0:0:0:
184,136,105184,1,8,0:0:0:0:
408,104,105342,2,0,P|412:36|384:-4,1,89.9999972534181
468,216,105658,2,0,L|476:324,1,89.9999972534181,0|8,0:0|0:0,0:0:0:0:
225,295,105974,6,0,P|221:227|248:192,1,89.9999972534181
96,360,106290,2,0,L|-12:344,1,89.9999972534181,0|8,1:0|0:0,0:0:0:0:
296,256,106605,2,0,L|396:240,1,89.9999972534181
176,120,106921,2,0,P|144:176|136:216,1,89.9999972534181,0|8,0:0|0:0,0:0:0:0:
96,360,107237,1,0,0:0:0:0:
225,295,107395,5,0,1:0:0:0:
48,160,107553,2,0,L|4:72,1,89.9999972534181,0|8,1:0|0:0,0:0:0:0:
164,40,107868,1,0,0:0:0:0:
184,40,107947,1,0,0:0:0:0:
204,44,108026,1,0,0:0:0:0:
224,56,108105,1,0,0:0:0:0:
240,72,108184,1,0,0:0:0:0:
140,200,108342,1,8,0:0:0:0:
336,252,108500,6,0,B|380:260|380:260|432:256,1,89.9999972534181
172,324,108816,2,0,B|128:316|128:316|72:320,1,89.9999972534181,0|8,1:0|0:0,0:0:0:0:
256,372,109132,2,0,B|263:317|263:317|248:244|248:244|256:168,1,179.999994506836
304,36,109605,2,0,P|336:92|332:180,1,134.999995880127,8|0,0:0|0:0,0:0:0:0:
336,252,109921,5,4,1:0:0:0:
432,132,110079,1,0,1:0:0:0:
236,132,110237,1,8,0:0:0:0:
496,186,110395,2,0,P|512:142|500:84,1,89.9999972534181
271,202,110711,2,0,P|255:246|264:296,1,89.9999972534181,0|8,0:0|0:0,0:0:0:0:
386,358,111026,5,0,0:0:0:0:
386,358,111184,1,0,0:0:0:0:
184,240,111342,2,0,P|120:236|60:240,1,89.9999972534181,0|8,1:0|0:0,0:0:0:0:
336,252,111658,2,0,P|348:192|320:140,1,89.9999972534181
340,166,111895,1,0,0:0:0:0:
340,166,111974,1,0,0:0:0:0:
299,334,112132,2,0,P|346:348|410:362,1,89.9999972534181,8|0,0:0|0:0,0:0:0:0:
184,240,112447,6,0,L|72:264,1,89.9999972534181,0|0,1:0|1:0,0:0:0:0:
80,40,112763,2,0,P|76:92|96:164,1,89.9999972534181,8|0,0:0|0:0,0:0:0:0:
361,156,113079,2,0,P|313:128|225:136,1,134.999995880127
156,168,113395,1,8,0:0:0:0:
256,40,113553,1,0,0:0:0:0:
256,264,113711,6,0,L|248:364,1,89.9999972534181,0|0,0:0|1:0,0:0:0:0:
400,340,114026,1,8,0:0:0:0:
160,360,114184,1,0,0:0:0:0:
372,200,114342,2,0,L|380:100,1,89.9999972534181,0|0,1:0|1:0,0:0:0:0:
256,40,114658,1,8,1:0:0:0:
228,60,114737,1,8,1:0:0:0:
196,68,114816,1,8,1:0:0:0:
160,68,114895,1,8,1:0:0:0:
128,60,114974,6,0,P|136:128|120:216,1,157.499995193482,6|0,0:0|0:0,0:0:0:0:
32,216,115290,1,0,0:0:0:0:
252,152,115447,2,0,P|316:156|364:164,1,104.999996795654,2|8,0:0|0:0,0:0:0:0:
240,356,115763,2,0,P|220:296|216:240,1,104.999996795654,2|8,0:0|0:0,0:0:0:0:
432,88,116079,6,0,P|452:148|452:204,1,104.999996795654,2|0,0:0|0:0,0:0:0:0:
240,168,116395,1,0,0:0:0:0:
347,51,116553,1,8,0:0:0:0:
348,236,116711,2,0,P|344:264|348:288,1,52.4999983978272,2|0,0:0|0:0,0:0:0:0:
453,189,116868,1,8,0:0:0:0:
347,51,117026,1,0,0:0:0:0:
331,43,117105,1,0,0:0:0:0:
320,40,117184,6,0,B|264:24|264:24|184:32,1,112.500004291535,10|0,0:0|0:0,0:0:0:0:
116,84,117500,6,0,B|108:136|108:136|116:192,1,104.999996795654,2|0,0:0|0:0,0:0:0:0:
292,200,117816,1,0,0:0:0:0:
88,368,117974,2,0,P|64:288|64:240,1,104.999996795654,2|8,0:0|0:0,0:0:0:0:
292,200,118290,2,0,P|316:280|316:328,1,104.999996795654,2|8,0:0|0:0,0:0:0:0:
116,84,118605,6,0,L|244:68,1,104.999996795654,2|0,0:0|0:0,0:0:0:0:
192,196,118921,1,0,0:0:0:0:
292,60,119079,1,8,0:0:0:0:
416,152,119237,2,0,L|428:204,1,52.4999983978272,2|0,0:0|0:0,0:0:0:0:
456,296,119395,1,8,0:0:0:0:
320,336,119553,1,0,0:0:0:0:
304,340,119632,1,0,0:0:0:0:
286,344,119711,6,0,B|271:350|257:345|257:345|236:352|236:352|216:340|176:352,1,112.500004291535,10|0,0:0|0:0,0:0:0:0:
76,304,120026,6,0,B|68:256|68:256|84:188|84:188|78:149,1,157.499995193482,2|0,0:0|0:0,0:0:0:0:
0,104,120342,1,0,0:0:0:0:
148,256,120500,2,0,P|224:264|272:252,1,104.999996795654,2|8,0:0|0:0,0:0:0:0:
180,12,120816,2,0,P|164:80|168:116,1,104.999996795654,2|8,0:0|0:0,0:0:0:0:
464,160,121132,6,0,P|400:124|280:204,1,209.999993591309,2|0,0:0|0:0,0:0:0:0:
444,56,121605,1,10,0:0:0:0:
388,256,121763,1,0,0:0:0:0:
248,92,121921,2,0,P|224:60|180:12,1,104.999996795654,10|0,0:0|0:0,0:0:0:0:
100,164,122237,1,2,0:0:0:0:
20,28,122395,1,8,0:0:0:0:
56,280,122553,6,0,P|172:252|252:304,1,209.999993591309,2|0,0:0|0:0,0:0:0:0:
144,360,123026,1,0,0:0:0:0:
323,183,123184,2,0,P|367:248|371:326,1,157.499995193482,2|0,0:0|2:0,0:0:0:0:
296,364,123500,2,0,P|372:352|445:381,1,157.499995193482,2|0,0:0|2:0,0:0:0:0:
445,381,123816,5,4,0:2:0:0:
460,64,124053,1,0,0:0:0:0:
245,295,124290,1,0,0:0:0:0:
184,100,124447,1,0,0:0:0:0:
245,295,124605,6,0,L|220:212,1,64.9999970245363,0|0,2:0|2:0,0:0:0:0:
184,100,124921,6,0,P|132:120|12:104,1,165.000005035401,6|0,0:0|2:0,0:0:0:0:
52,32,125237,1,0,0:0:0:0:
103,253,125395,2,0,P|103:329|79:385,1,110.000003356934,8|0,0:0|0:0,0:0:0:0:
4,180,125711,1,2,0:0:0:0:
184,328,125868,1,0,0:0:0:0:
0,332,126026,1,8,0:0:0:0:
216,200,126184,6,0,B|236:184|268:196|268:196|300:176|300:176|328:200|367:192,1,165.000005035401,4|0,0:0|0:0,0:0:0:0:
396,276,126500,1,2,0:0:0:0:
248,112,126658,1,8,0:0:0:0:
400,44,126816,2,0,L|512:48,1,110.000003356934,2|0,0:0|0:0,0:0:0:0:
292,24,127132,1,0,0:0:0:0:
367,192,127290,1,8,0:0:0:0:
153,129,127447,6,0,B|105:153|105:153|73:265,1,165.000005035401,6|0,0:0|2:0,0:0:0:0:
112,352,127763,1,0,0:0:0:0:
288,277,127921,2,0,P|364:269|428:289,1,110.000003356934,8|0,0:0|0:0,0:0:0:0:
396,275,128158,1,0,0:0:0:0:
396,275,128237,1,2,0:0:0:0:
272,184,128395,1,0,0:0:0:0:
472,200,128553,1,8,0:0:0:0:
316,376,128711,6,0,P|240:368|191:280,1,165.000005035401,6|0,0:0|0:0,0:0:0:0:
182,217,129026,1,2,0:0:0:0:
339,113,129184,2,0,B|383:141|408:111|408:111|427:124|427:124|465:103|507:124,1,165.000005035401,8|0,0:0|2:0,0:0:0:0:
472,200,129500,1,0,0:0:0:0:
303,28,129658,2,0,L|176:39,1,110.000003356934,2|8,0:0|0:0,0:0:0:0:
0,104,129974,6,0,P|83:99|151:201,1,165.000005035401,6|0,0:0|2:0,0:0:0:0:
182,217,130290,1,0,0:0:0:0:
50,186,130447,2,0,P|34:238|39:292,1,110.000003356934,8|0,0:0|0:0,0:0:0:0:
219,115,130763,1,0,0:0:0:0:
324,256,130921,1,0,0:0:0:0:
168,347,131079,1,10,0:0:0:0:
306,158,131237,6,0,L|402:100,1,110.000003356934,2|0,0:0|0:0,0:0:0:0:
181,217,131553,1,2,0:0:0:0:
193,23,131711,1,8,0:0:0:0:
50,186,131868,2,0,P|40:258|59:316,1,110.000003356934,2|0,0:0|0:0,0:0:0:0:
322,363,132184,2,0,P|332:291|313:233,1,110.000003356934,2|8,0:0|0:0,0:0:0:0:
193,23,132500,6,0,P|156:133|173:198,1,165.000005035401,4|0,0:0|2:0,0:0:0:0:
244,224,132816,1,0,0:0:0:0:
61,117,132974,1,8,0:0:0:0:
271,120,133132,2,0,P|321:121|388:114,1,110.000003356934,2|0,0:0|0:0,0:0:0:0:
473,25,133447,1,0,0:0:0:0:
477,229,133605,1,8,0:0:0:0:
169,149,133763,6,0,P|141:193|153:273,1,110.000003356934,4|0,0:0|0:0,0:0:0:0:
449,329,134079,2,0,P|477:285|465:205,1,110.000003356934,0|8,0:0|0:0,0:0:0:0:
231,346,134395,2,0,P|300:382|347:381,1,110.000003356934,6|0,0:0|0:0,0:0:0:0:
397,131,134711,2,0,P|328:95|281:96,1,110.000003356934,0|8,0:0|0:0,0:0:0:0:
80,64,135026,6,0,P|149:28|196:29,1,110.000003356934,6|0,0:0|0:0,0:0:0:0:
80,281,135342,2,0,P|40:221|36:178,1,110.000003356934,0|8,0:0|0:0,0:0:0:0:
297,93,135658,2,0,P|337:153|341:196,1,110.000003356934,2|0,0:0|0:0,0:0:0:0:
327,323,135974,1,0,0:0:0:0:
476,172,136132,1,8,0:0:0:0:
192,166,136290,6,0,B|131:149|131:149|7:196,1,165.000005035401,6|0,0:0|2:0,0:0:0:0:
0,257,136605,1,0,0:0:0:0:
143,379,136763,1,8,0:0:0:0:
252,232,136921,2,0,B|276:181|276:181|265:116,1,110.000003356934,2|0,0:0|0:0,0:0:0:0:
51,81,137237,2,0,B|27:132|27:132|38:197,1,110.000003356934,2|8,0:0|0:0,0:0:0:0:
219,328,137553,6,0,P|142:291|62:336,1,165.000005035401,6|0,0:0|0:0,0:0:0:0:
28,383,137868,1,0,0:0:0:0:
149,205,138026,1,8,0:0:0:0:
383,270,138184,2,0,L|497:287,1,110.000003356934,6|0,0:0|0:0,0:0:0:0:
384,104,138500,1,0,0:0:0:0:
496,176,138658,1,8,0:0:0:0:
252,68,138816,6,0,B|205:53|164:88|164:88|130:70|130:70|83:90|36:72,1,220.000006713867,6|0,0:0|0:0,0:0:0:0:
239,249,139290,2,0,P|243:182|218:130,1,110.000003356934,8|0,0:0|0:0,0:0:0:0:
63,215,139605,1,2,0:0:0:0:
239,249,139763,1,0,0:0:0:0:
123,375,139921,1,8,0:0:0:0:
313,280,140079,6,0,P|324:198|309:117,1,165.000005035401,6|0,0:0|2:0,0:0:0:0:
248,51,140395,1,0,0:0:0:0:
63,215,140553,2,0,P|55:293|69:339,1,110.000003356934,8|0,0:0|0:0,0:0:0:0:
243,382,140868,1,0,0:0:0:0:
221,205,141026,1,0,0:0:0:0:
62,322,141184,1,8,0:0:0:0:
313,280,141342,6,0,P|369:279|448:268,1,110.000003356934,2|0,0:0|0:0,0:0:0:0:
172,205,141658,2,0,P|116:213|37:217,1,110.000003356934,0|8,0:0|0:0,0:0:0:0:
295,117,141974,2,0,P|355:104|430:105,1,110.000003356934,2|0,0:0|0:0,0:0:0:0:
174,38,142290,2,0,P|117:35|39:50,1,110.000003356934,0|8,0:0|0:0,0:0:0:0:
224,281,142605,6,0,P|252:226|235:101,1,165.000005035401,6|0,0:0|0:0,0:0:0:0:
159,122,142921,1,0,0:0:0:0:
346,238,143079,2,0,L|467:251,1,110.000003356934,8|0,0:0|0:0,0:0:0:0:
400,136,143395,1,0,0:0:0:0:
420,347,143553,1,0,0:0:0:0:
185,202,143711,2,0,P|105:226|77:331,1,165.000005035401,8|0,0:0|2:0,0:0:0:0:
154,343,144026,5,0,0:0:0:0:
112,128,144184,2,0,L|-17:116,1,110.000003356934,0|8,0:0|0:0,0:0:0:0:
171,30,144500,1,0,0:0:0:0:
185,202,144658,1,0,0:0:0:0:
292,61,144816,1,8,0:0:0:0:
292,61,144895,1,8,0:0:0:0:
292,61,144974,2,0,L|283:122,1,55.0000016784668,0|0,0:0|0:0,0:0:0:0:
398,266,145132,2,0,L|407:205,1,55.0000016784668,8|8,0:0|0:0,0:0:0:0:
480,48,145290,5,4,1:0:0:0:
397,92,150342,6,0,L|412:150,7,44.999998626709,8|0|0|0|0|0|0|0,0:0|0:0|0:0|0:0|0:0|0:0|0:0|0:0,0:0:0:0:
312,212,150974,2,0,L|297:270,7,44.999998626709,8|0|0|0|0|0|0|0,0:0|0:0|0:0|0:0|0:0|0:0|0:0|0:0,0:0:0:0:
418,343,151605,5,8,0:0:0:0:
391,337,151684,1,0,0:0:0:0:
364,343,151763,1,0,0:0:0:0:
342,356,151842,1,0,0:0:0:0:
316,366,151921,1,0,0:0:0:0:
287,369,152000,1,0,0:0:0:0:
260,359,152079,1,0,0:0:0:0:
239,339,152158,1,0,0:0:0:0:
220,316,152237,6,0,L|175:263,3,50,8|0|0|0,0:0|0:0|0:0|0:0,0:0:0:0:
29,259,152553,2,0,L|74:206,3,50,0|0|0|0,0:0|0:0|0:0|0:0,0:0:0:0:
155,93,152868,5,8,0:0:0:0:
155,93,152947,1,0,0:0:0:0:
155,93,153026,2,0,L|167:167,1,50,0|0,0:0|0:0,0:0:0:0:
267,103,153184,5,8,0:0:0:0:
270,123,153263,1,0,0:0:0:0:
273,143,153342,2,0,L|287:222,1,52.4999983978272,0|0,0:0|0:0,0:0:0:0:
384,124,153500,5,8,0:0:0:0:
389,155,153579,1,0,0:0:0:0:
393,186,153658,2,0,L|408:268,1,55.0000016784668,0|0,0:0|0:0,0:0:0:0:
416,360,153816,5,8,0:0:0:0:
383,342,153895,1,0,0:0:0:0:
346,336,153974,1,0,0:0:0:0:
309,340,154053,1,0,0:0:0:0:
269,353,154132,6,0,P|229:358|181:353,1,59.9999981689454,8|8,0:0|0:0,0:0:0:0:
34,318,154290,2,0,P|29:278|34:230,1,59.9999981689454,8|8,0:0|0:0,0:0:0:0:
197,202,154447,2,0,P|202:242|197:290,1,59.9999981689454,8|8,0:0|0:0,0:0:0:0:
0,155,154605,2,0,P|40:150|88:155,1,59.9999981689454,8|8,0:0|0:0,0:0:0:0:
273,143,154763,5,8,0:0:0:0:
167,5,154921,2,0,P|150:46|159:100,1,89.9999972534181,2|0,2:1|2:0,0:0:0:0:
227,57,155237,6,0,L|38:63,1,165.000005035401,6|0,0:0|2:0,0:0:0:0:
0,130,155553,1,0,0:0:0:0:
114,264,155711,1,8,0:0:0:0:
273,143,155868,2,0,L|392:139,1,110.000003356934,2|0,0:0|0:0,0:0:0:0:
481,197,156184,1,0,0:0:0:0:
339,25,156342,1,8,0:0:0:0:
258,272,156500,6,0,P|347:261|427:306,1,165.000005035401,2|0,0:0|2:0,0:0:0:0:
374,366,156816,1,0,0:0:0:0:
268,174,156974,1,8,0:0:0:0:
46,313,157132,2,0,P|39:239|63:200,1,110.000003356934,2|0,0:0|0:0,0:0:0:0:
340,131,157447,2,0,P|347:205|323:244,1,110.000003356934,0|8,0:0|0:0,0:0:0:0:
127,355,157763,6,0,P|183:307|279:310,1,165.000005035401,6|0,0:0|2:0,0:0:0:0:
291,384,158079,1,0,0:0:0:0:
331,234,158237,1,8,0:0:0:0:
128,212,158395,2,0,P|69:215|7:198,1,110.000003356934,6|0,0:0|0:0,0:0:0:0:
340,131,158711,2,0,P|399:128|461:145,1,110.000003356934,0|8,0:0|0:0,0:0:0:0:
229,262,159026,6,0,B|240:210|240:210|222:140|222:140|229:79,1,165.000005035401,6|0,0:0|0:0,0:0:0:0:
232,17,159342,1,0,0:0:0:0:
61,131,159500,2,0,L|38:267,1,110.000003356934,8|0,0:0|0:0,0:0:0:0:
131,368,159816,1,0,0:0:0:0:
301,352,159974,2,0,P|383:358|437:381,1,110.000003356934,0|8,0:0|0:0,0:0:0:0:
407,167,160290,6,0,B|421:121|408:95|408:95|412:76|412:76|392:40|420:-12,1,165.000005035401,6|0,0:0|2:0,0:0:0:0:
486,39,160605,1,0,0:0:0:0:
308,138,160763,2,0,P|243:139|189:127,1,110.000003356934,8|0,0:0|0:0,0:0:0:0:
47,102,161079,1,2,0:0:0:0:
188,237,161237,1,0,0:0:0:0:
260,56,161395,1,8,0:0:0:0:
459,277,161553,6,0,P|471:331|459:384,1,110.000003356934,6|0,0:0|0:0,0:0:0:0:
50,384,161868,2,0,P|38:331|50:278,1,110.000003356934,2|8,0:0|0:0,0:0:0:0:
374,275,162184,2,0,P|386:329|374:382,1,110.000003356934,2|0,0:0|0:0,0:0:0:0:
131,383,162500,2,0,P|119:330|131:277,1,110.000003356934,2|8,0:0|0:0,0:0:0:0:
267,130,162816,6,0,P|176:190|96:184,1,165.000005035401,6|0,0:0|2:0,0:0:0:0:
57,146,163132,1,0,0:0:0:0:
208,284,163290,1,8,0:0:0:0:
360,168,163447,2,0,L|489:159,1,110.000003356934,2|0,0:0|0:0,0:0:0:0:
200,71,163763,2,0,P|180:132|208:195,1,110.000003356934,0|8,0:0|0:0,0:0:0:0:
436,313,164079,6,0,B|396:304|372:311|372:311|343:295|343:295|313:314|267:301,1,165.000005035401,6|0,0:0|2:0,0:0:0:0:
196,313,164395,1,0,0:0:0:0:
347,184,164553,1,8,0:0:0:0:
200,71,164711,2,0,B|144:64|144:64|64:79,1,110.000003356934,0|8,0:0|0:0,0:0:0:0:
336,200,165026,2,0,B|391:206|391:206|472:192,1,110.000003356934,0|8,0:0|0:0,0:0:0:0:
149,143,165342,6,0,B|128:181|128:181|137:310,1,165.000005035401,6|0,0:0|2:0,0:0:0:0:
213,375,165658,1,0,0:0:0:0:
222,198,165816,1,8,0:0:0:0:
27,272,165974,2,0,L|34:408,1,110.000003356934,2|0,0:0|0:0,0:0:0:0:
149,143,166290,2,0,L|146:5,1,110.000003356934,0|8,0:0|0:0,0:0:0:0:
337,143,166605,6,0,L|462:149,1,110.000003356934,6|0,0:0|0:0,0:0:0:0:
322,369,166921,2,0,L|197:375,1,110.000003356934,0|8,0:0|0:0,0:0:0:0:
463,254,167237,2,0,P|466:339|456:375,1,110.000003356934,2|0,0:0|0:0,0:0:0:0:
222,198,167553,2,0,P|219:113|229:77,1,110.000003356934,0|8,0:0|0:0,0:0:0:0:
55,212,167868,6,0,B|71:239|49:266|49:266|61:300|61:300|44:327|50:368,1,165.000005035401,6|0,0:0|0:0,0:0:0:0:
130,346,168184,1,0,0:0:0:0:
222,198,168342,1,8,0:0:0:0:
383,308,168500,2,0,B|394:339|443:343|443:343|467:272|464:205,1,165.000005035401,6|0,0:0|0:0,0:0:0:0:
335,241,168816,2,0,P|303:299|315:353,1,110.000003356934,0|8,0:0|0:0,0:0:0:0:
469,60,169132,6,0,B|423:46|423:46|355:69|355:69|294:59,1,165.000005035401,6|0,0:0|0:0,0:0:0:0:
241,13,169447,1,0,0:0:0:0:
222,198,169605,2,0,L|202:314,1,110.000003356934,8|0,0:0|0:0,0:0:0:0:
104,227,169921,1,0,0:0:0:0:
329,265,170079,1,0,0:0:0:0:
187,384,170237,1,8,0:0:0:0:
144,148,170395,6,0,P|203:115|309:163,1,165.000005035401,6|0,0:0|1:0,0:0:0:0:
314,231,170711,1,0,0:0:0:0:
60,147,170868,2,0,P|40:89|52:37,1,110.000003356934,8|0,0:0|0:0,0:0:0:0:
204,37,171184,1,0,0:0:0:0:
295,139,171342,1,0,0:0:0:0:
204,37,171500,1,8,0:0:0:0:
113,232,171658,6,0,B|63:244|63:244|-2:233,1,110.000003356934,2|0,0:0|0:0,0:0:0:0:
255,304,171974,2,0,B|305:316|305:316|370:305,1,110.000003356934,0|8,0:0|0:0,0:0:0:0:
218,113,172290,2,0,P|199:180|208:225,1,110.000003356934,2|0,0:0|0:0,0:0:0:0:
432,155,172605,2,0,P|451:88|442:43,1,110.000003356934,0|8,0:0|0:0,0:0:0:0:
436,276,172921,6,0,P|361:263|258:365,1,220.000006713867,6|0,0:0|0:0,0:0:0:0:
148,240,173395,2,0,L|11:249,1,110.000003356934,8|0,0:0|0:0,0:0:0:0:
148,80,173711,2,0,L|285:71,1,110.000003356934
432,155,174026,2,0,L|440:40,1,110.000003356934,8|0,0:0|0:0,0:0:0:0:
391,307,174342,6,0,L|282:300,1,110.000003356934
108,212,174658,2,0,L|217:205,1,110.000003356934,8|0,0:0|0:0,0:0:0:0:
341,194,174974,1,0,0:0:0:0:
202,86,175132,1,8,0:0:0:0:
171,73,175211,1,8,0:0:0:0:
137,73,175290,1,0,0:0:0:0:
104,80,175368,1,0,0:0:0:0:
76,96,175447,1,8,0:0:0:0:
60,124,175526,1,8,0:0:0:0:
52,156,175605,5,4,0:0:0:0:
280,132,175763,2,0,P|364:112|424:208,1,200,0|0,0:0|0:0,0:0:0:0:
376,336,176237,1,0,0:0:0:0:
376,336,176395,1,0,0:0:0:0:
341,194,176553,1,8,0:0:0:0:
220,292,176711,6,0,B|164:320|164:320|4:304,1,200,0|0,0:0|0:0,0:0:0:0:
16,176,177184,1,8,0:0:0:0:
16,176,177342,1,0,0:0:0:0:
136,88,177500,2,0,L|248:96,1,100,8|0,0:0|0:0,0:0:0:0:
392,60,177816,2,0,L|504:68,1,100,8|0,0:0|0:0,0:0:0:0:
324,232,178132,5,12,0:0:0:0:
224,176,178290,1,0,0:0:0:0:
428,176,178447,1,0,0:0:0:0:
240,344,178605,5,12,0:0:0:0:
328,128,178763,1,0,0:0:0:0:
400,352,178921,1,0,0:0:0:0:
128,180,179079,5,4,0:0:0:0:
256,192,179158,12,0,184447,0:0:0:0:
